osu file format v14

[General]
AudioFilename: fubukifull.mp3
AudioLeadIn: 0
PreviewTime: 213240
Countdown: 0
SampleSet: Soft
StackLeniency: 0.7
Mode: 0
LetterboxInBreaks: 1
WidescreenStoryboard: 0

[Editor]
Bookmarks: 154573
DistanceSpacing: 1.1
BeatDivisor: 4
GridSize: 4
TimelineZoom: 0.9

[Metadata]
Title:FUBUKI
TitleUnicode:吹雪
Artist:Shiena Nishizawa
ArtistUnicode:西沢幸奏
Creator:Rizia
Version:Easy
Source:Fleet Girls Collection KanColle Animation Sequence
Tags:艦隊これくしょん -艦これ- kantai collection ending minatoku Hige Driver WEST GROUND einess Regraz kawaiwkyik
BeatmapID:724289
BeatmapSetID:288950

[Difficulty]
HPDrainRate:2
CircleSize:3
OverallDifficulty:2
ApproachRate:3
SliderMultiplier:0.8
SliderTickRate:1

[Events]
//Background and Video events
0,0,"BG.jpg",0,0
//Break Periods
2,86773,90466
2,118773,122466
2,188106,197133
2,209440,213133
//Storyboard Layer 0 (Background)
//Storyboard Layer 1 (Fail)
//Storyboard Layer 2 (Pass)
//Storyboard Layer 3 (Foreground)
//Storyboard Sound Samples

[TimingPoints]
-93,333.333333333333,4,2,1,70,1,0
573,-100,4,2,1,70,0,0
10573,-100,4,2,1,70,0,0
11906,-100,4,2,1,70,0,0
13073,-100,4,2,1,20,0,0
13240,-100,4,2,1,50,0,0
14573,-100,4,2,1,70,0,0
45573,-100,4,2,1,70,0,0
47073,-100,4,2,1,70,0,0
51906,-100,4,2,1,70,0,0
59906,-100,4,2,1,70,0,1
65240,-100,4,2,1,70,0,1
69906,-100,4,2,1,50,0,1
70573,-100,4,2,1,70,0,1
75906,-100,4,2,1,70,0,1
80573,-100,4,2,1,70,0,1
86573,-100,4,2,1,70,0,0
90906,-100,4,2,1,50,0,0
91240,-100,4,2,1,60,0,0
91573,-100,4,2,1,70,0,0
129740,-100,4,2,1,50,0,0
130240,-100,4,2,1,60,0,0
130573,-100,4,2,1,70,0,0
131906,-100,4,2,1,70,0,1
137240,-100,4,2,1,70,0,1
141906,-100,4,2,1,50,0,1
142573,-100,4,2,1,70,0,1
147906,-100,4,2,1,70,0,1
153240,-100,4,2,1,70,0,0
163906,-100,4,2,1,60,0,0
179906,-100,4,2,1,60,0,0
198573,-100,4,2,1,60,0,0
203406,-100,4,2,1,50,0,0
203906,-100,4,2,1,60,0,0
206573,-100,4,2,1,60,0,0
213240,-100,4,2,1,60,0,0
213906,-100,4,2,1,60,0,0
214240,-100,4,2,1,60,0,0
214573,-100,4,2,1,70,0,1
219906,-100,4,2,1,70,0,1
224573,-100,4,2,1,50,0,1
225240,-100,4,2,1,70,0,1
230573,-100,4,2,1,70,0,1
235906,-100,4,2,1,70,0,1
242573,-100,4,2,1,80,0,1
246573,-100,4,2,1,70,0,0

[Colours]
Combo1 : 128,128,128
Combo2 : 0,128,255
Combo3 : 255,0,0
Combo4 : 0,64,128

[HitObjects]
120,132,1240,6,0,L|292:112,1,160,4|0,0:0|0:0,0:0:0:0:
392,248,2573,2,0,L|220:268,1,160,0|0,0:0|0:0,0:0:0:0:
72,340,3906,2,0,P|40:304|48:192,2,160,4|0|0,0:0|0:0|0:0,0:0:0:0:
424,324,6573,6,0,B|476:304|476:304|460:252|476:184|476:184|404:220|340:184,1,320,4|0,0:0|0:0,0:0:0:0:
256,28,8573,1,0,0:0:0:0:
172,184,9240,2,0,B|108:220|36:184|36:184|52:252|36:304|36:304|88:324,1,320,0|8,0:0|0:3,0:0:0:0:
260,364,11240,2,0,B|308:344|308:344|364:348|364:348|405:379,1,160,8|2,0:3|0:1,0:0:0:0:
256,192,12073,12,4,14573,0:0:0:0:
88,112,15906,6,0,L|180:104,1,80,2|8,0:0|0:0,0:0:0:0:
244,148,16573,2,0,P|252:100|244:64,1,80,2|8,0:0|0:0,0:0:0:0:
308,8,17240,2,0,P|328:56|324:168,1,160,2|2,0:0|0:0,0:0:0:0:
184,268,18573,6,0,P|164:220|168:108,1,160,2|2,0:0|0:0,0:0:0:0:
232,52,19573,1,8,0:0:0:0:
304,100,19906,2,0,L|476:84,2,160,4|2|4,0:0|0:0|0:0,0:0:0:0:
192,236,21906,1,2,0:0:0:0:
340,332,22573,6,0,P|368:296|348:184,1,160,4|2,0:0|0:0,0:0:0:0:
200,104,23906,1,4,0:0:0:0:
88,240,24573,1,0,0:0:0:0:
232,344,25240,6,0,B|288:328|288:328|336:344|336:344|396:328,1,160,4|2,0:0|0:0,0:0:0:0:
484,188,26573,2,0,B|434:174|434:174|386:190|386:190|330:174,1,160,2|2,0:0|0:0,0:0:0:0:
248,140,27573,1,8,0:0:0:0:
176,188,27906,6,0,P|160:144|232:52,2,160,4|2|2,0:0|0:0|0:0,0:0:0:0:
312,300,29906,2,0,L|400:284,1,80,2|8,0:0|0:0,0:0:0:0:
412,200,30573,6,0,L|254:228,1,160,4|2,0:0|0:0,0:0:0:0:
84,272,31906,2,0,P|52:228|56:116,1,160,2|2,0:0|0:0,0:0:0:0:
108,60,32906,1,8,0:0:0:0:
192,40,33240,6,0,P|231:107|224:186,1,160,4|2,0:0|0:0,0:0:0:0:
252,360,34573,2,0,P|330:367|398:327,1,160,2|2,0:0|0:0,0:0:0:0:
448,252,35573,1,8,0:0:0:0:
384,192,35906,6,0,L|392:104,2,80,4|8|2,0:0|0:0|0:0,0:0:0:0:
208,188,37240,2,0,P|160:168|40:176,1,160,2|2,0:0|0:0,0:0:0:0:
36,348,38573,6,0,P|84:368|204:360,1,160,4|2,0:0|0:0,0:0:0:0:
256,308,39573,1,8,0:0:0:0:
321,365,39906,2,0,P|400:373|476:348,2,160,0|2|4,0:0|0:0|0:0,0:0:0:0:
208,232,41906,5,2,0:0:0:0:
288,76,42573,1,0,0:0:0:0:
444,160,43240,1,2,0:0:0:0:
364,316,43906,6,0,P|256:284|160:360,1,240,4|8,0:0|0:0,0:0:0:0:
72,352,45240,2,0,P|52:312|52:264,1,80,4|8,0:0|0:0,0:0:0:0:
72,192,45906,2,0,P|96:154|138:130,1,80,8|8,0:0|0:0,0:0:0:0:
212,128,46573,1,4,0:0:0:0:
464,372,47906,6,0,P|408:380|484:264,1,320,0|0,0:0|0:0,0:0:0:0:
164,88,50573,2,0,L|176:176,2,80,2|2|0,0:1|0:1|0:0,0:0:0:0:
84,52,51573,1,8,0:0:0:0:
28,120,51906,6,0,P|24:180|68:288,1,160,4|2,0:0|0:0,0:0:0:0:
196,380,53240,2,0,P|226:306|224:227,1,160,4|2,0:0|0:0,0:0:0:0:
192,144,54240,1,8,0:0:0:0:
256,192,54573,12,8,58573,0:0:0:0:
56,116,59906,6,0,P|116:88|224:104,1,160,4|0,0:0|0:0,0:0:0:0:
288,136,60906,1,8,0:0:0:0:
352,196,61240,2,0,P|372:152|320:52,2,160,4|0|4,0:0|0:0|0:0,0:0:0:0:
180,228,63240,5,4,0:0:0:0:
316,340,63906,2,0,B|348:360|348:360|476:336,2,160,4|0|4,0:0|0:0|0:0,0:0:0:0:
256,276,65573,5,8,0:0:0:0:
192,336,65906,2,0,P|144:352|48:292,1,160,0|4,0:0|0:0,0:0:0:0:
100,228,66906,2,0,P|108:184|76:72,2,160,8|8|8,0:0|0:0|0:0,0:0:0:0:
188,248,68573,2,0,B|240:240|240:240|296:256|296:256|360:244,1,160,4|4,0:0|0:0,0:0:0:0:
492,344,69906,1,8,0:0:0:0:
496,168,70573,6,0,P|477:93|404:68,1,160,4|0,0:0|0:0,0:0:0:0:
336,124,71573,1,8,0:0:0:0:
264,72,71906,2,0,L|88:56,2,160,4|0|4,0:0|0:0|0:0,0:0:0:0:
248,248,73906,2,0,L|424:264,2,160,4|4|0,0:0|0:0|0:0,0:0:0:0:
172,204,75573,1,8,0:0:0:0:
104,260,75906,6,0,L|120:356,2,80,8|8|8,0:0|0:0|0:0,0:0:0:0:
252,164,77240,2,0,L|236:68,2,80,8|8|8,0:0|0:0|0:0,0:0:0:0:
360,304,78573,6,0,P|396:280|512:288,1,160,4|0,0:0|0:0,0:0:0:0:
400,145,79906,2,0,P|364:169|248:161,1,160,4|0,0:0|0:0,0:0:0:0:
180,112,80906,1,8,0:0:0:0:
104,156,81240,6,0,L|120:324,2,160,4|0|4,0:0|0:0|0:0,0:0:0:0:
276,192,83240,1,2,0:0:0:0:
376,48,83906,2,0,P|344:20|232:20,1,160,4|2,0:0|0:0,0:0:0:0:
128,160,85240,2,0,P|88:168|12:128,2,120,4|8|14,0:3|0:3|0:3,0:0:0:0:
192,100,86573,1,4,0:0:0:0:
408,88,91906,6,0,L|400:252,1,160,4|2,0:0|0:0,0:0:0:0:
248,340,93240,2,0,L|240:180,1,160,4|2,0:0|0:0,0:0:0:0:
164,132,94240,1,8,0:0:0:0:
109,65,94573,2,0,P|78:136|116:204,1,160,4|2,0:0|0:0,0:0:0:0:
288,236,95906,6,0,B|368:224|368:224|448:268,2,160,8|8|4,0:0|0:0|0:0,0:0:0:0:
36,60,98406,6,0,L|48:156,1,80,4|4,0:0|0:0,0:0:0:0:
164,200,99240,2,0,L|173:120,1,80,8|8,0:0|0:0,0:0:0:0:
248,76,99906,2,0,P|320:100|404:52,1,160,4|2,0:0|0:0,0:0:0:0:
456,184,101073,2,0,L|368:176,1,80,4|4,0:0|0:0,0:0:0:0:
324,296,101906,2,0,L|412:304,2,80,4|8|4,0:3|0:0|0:0,0:0:0:0:
248,252,102906,6,0,P|212:240|104:284,2,160,8|8|8,0:0|0:0|0:0,0:0:0:0:
324,296,104573,1,2,0:0:0:0:
432,156,105240,2,0,P|420:116|464:12,2,160,0|2|4,0:0|0:0|0:0,0:0:0:0:
468,236,106906,2,0,L|460:320,2,80,8|8|8,0:0|0:0|0:0,0:0:0:0:
432,156,107906,6,0,P|392:140|308:148,2,120,4|8|8,0:0|0:0|0:0,0:0:0:0:
396,236,109240,2,0,P|436:252|520:244,2,120,0|4|8,0:0|3:0|0:0,0:0:0:0:
320,280,110573,6,0,P|288:260|192:272,1,120,8|8,0:0|0:0,0:0:0:0:
88,312,111573,1,8,0:0:0:0:
24,252,111906,2,0,B|4:172|4:172|44:96,1,160,0|4,0:0|0:3,0:0:0:0:
216,80,113240,6,0,P|264:88|380:52,1,160,4|2,0:0|0:0,0:0:0:0:
444,220,114573,2,0,P|396:212|280:248,1,160,2|2,0:0|0:0,0:0:0:0:
232,308,115573,1,8,0:0:0:0:
148,284,115906,6,0,L|128:116,2,160,4|0|8,0:0|0:0|0:0,0:0:0:0:
256,208,117740,1,8,0:3:0:0:
384,248,118240,2,0,L|468:240,1,80,8|4,0:0|0:0,0:0:0:0:
340,108,123906,6,0,L|428:92,2,80,4|8|2,0:0|0:0|0:0,0:0:0:0:
224,240,125240,2,0,P|276:236|384:284,1,160,4|2,0:0|0:0,0:0:0:0:
428,348,126240,1,8,0:0:0:0:
256,192,126573,12,8,130573,0:0:0:0:
108,64,131906,6,0,P|65:129|86:204,1,160,4|0,0:0|0:0,0:0:0:0:
164,248,132906,1,8,0:0:0:0:
228,188,133240,2,0,P|248:263|206:328,2,160,4|0|4,0:0|0:0|0:0,0:0:0:0:
344,56,135240,1,4,0:0:0:0:
504,132,135906,6,0,L|488:308,2,160,4|0|4,0:0|0:0|0:0,0:0:0:0:
432,80,137573,5,8,0:0:0:0:
368,140,137906,2,0,P|312:148|232:84,1,160,0|4,0:0|0:0,0:0:0:0:
168,144,138906,2,0,P|92:125|25:166,2,160,8|8|8,0:0|0:0|0:0,0:0:0:0:
252,172,140573,2,0,B|260:224|260:224|244:280|244:280|256:344,1,160,4|4,0:0|0:0,0:0:0:0:
424,364,141906,1,8,0:0:0:0:
488,200,142573,6,0,P|464:180|328:184,1,160,4|0,0:0|0:0,0:0:0:0:
268,228,143573,1,8,0:0:0:0:
192,276,143906,2,0,P|114:288|45:251,2,160,4|0|4,0:0|0:0|0:0,0:0:0:0:
268,116,145906,1,4,0:0:0:0:
116,28,146573,2,0,P|88:84|108:180,1,160,4|0,0:0|0:0,0:0:0:0:
180,224,147573,1,8,0:0:0:0:
260,260,147906,6,0,L|344:248,2,80,8|8|8,0:0|0:0|0:0,0:0:0:0:
296,88,149240,2,0,L|380:76,2,80,8|8|8,0:0|0:0|0:0,0:0:0:0:
144,176,150573,6,0,P|156:220|124:332,1,160,4|0,0:0|0:0,0:0:0:0:
12,192,151906,2,0,P|0:148|32:36,1,160,4|0,0:0|0:0,0:0:0:0:
116,20,152906,1,8,0:0:0:0:
188,72,153240,6,0,L|356:56,1,160,4|2,0:0|0:0,0:0:0:0:
431,88,154240,2,0,P|425:127|423:167,1,80,8|6,0:0|0:0,0:0:0:0:
272,256,155240,2,0,P|278:295|280:335,2,80,2|8|4,0:0|0:0|0:0,0:0:0:0:
200,204,156240,6,0,P|152:220|60:152,1,160,8|8,0:0|0:0,0:0:0:0:
180,32,157573,2,0,P|228:16|320:84,1,160,8|8,0:0|0:0,0:0:0:0:
356,148,158573,6,0,B|432:132|432:132|484:140,2,120,4|0|8,0:0|0:0|0:0,0:0:0:0:
340,236,159906,2,0,B|264:252|264:252|212:244,2,120,0|0|8,0:0|0:0|0:0,0:0:0:0:
416,280,161240,1,4,0:0:0:0:
256,352,161906,1,2,0:0:0:0:
96,280,162573,2,0,P|80:244|104:128,1,160,0|8,0:0|0:0,0:0:0:0:
176,80,163573,1,8,0:0:0:0:
244,136,163906,6,0,L|372:124,2,120,4|0|8,0:0|0:0|0:0,0:0:0:0:
192,208,165240,2,0,P|160:164|168:88,1,120,2|0,0:0|0:0,0:0:0:0:
272,32,166240,1,8,0:0:0:0:
336,92,166573,6,0,B|384:96|384:96|456:72,2,120,0|0|8,0:0|0:0|0:0,0:0:0:0:
268,148,167906,2,0,P|256:188|288:304,1,160,2|2,0:0|0:0,0:0:0:0:
364,340,168906,2,0,L|456:320,1,80,8|2,0:0|0:0,0:0:0:0:
440,236,169573,6,0,L|361:252,2,80,8|2|8,0:0|0:0|0:0,0:0:0:0:
396,64,170906,2,0,L|474:47,2,80,8|2|8,0:0|0:0|0:0,0:0:0:0:
236,136,172240,2,0,L|219:57,2,80,8|2|8,0:0|0:0|0:0,0:0:0:0:
148,144,173240,2,0,L|164:222,2,80,0|8|2,0:0|0:0|0:0,0:0:0:0:
60,152,174240,1,8,0:0:0:0:
8,224,174573,6,0,P|0:268|48:376,1,160,4|2,0:0|0:0,0:0:0:0:
128,344,175573,1,8,0:0:0:0:
216,356,175906,2,0,L|348:340,2,120,2|0|8,0:0|0:0|0:0,0:0:0:0:
184,272,177240,6,0,L|316:256,2,120,2|0|8,0:0|0:0|0:0,0:0:0:0:
148,192,178573,1,4,0:0:0:0:
256,52,179240,1,8,0:0:0:0:
364,192,179906,5,4,0:0:0:0:
256,332,180573,2,0,L|120:324,2,120,12|4|0,0:0|0:0|0:0,0:0:0:0:
336,368,181906,1,12,0:0:0:0:
468,252,182573,2,0,P|484:216|432:104,1,160,4|8,0:0|0:0,0:0:0:0:
364,148,183573,2,0,P|328:156|244:116,2,120,0|8|0,0:0|0:0|0:0,0:0:0:0:
320,72,184906,1,8,0:3:0:0:
256,192,185240,12,4,187906,0:0:0:0:
424,104,198573,6,0,P|376:72|264:88,1,160,4|0,0:0|0:0,0:0:0:0:
176,224,199906,2,0,P|224:256|336:240,2,160,0|0|4,0:0|0:0|0:0,0:0:0:0:
80,76,201906,1,0,0:0:0:0:
4,232,202573,1,0,0:0:0:0:
140,340,203240,2,0,P|176:320|296:348,2,160,8|4|0,0:0|0:0|0:0,0:0:0:0:
120,164,205240,2,0,B|104:88|104:88|148:16,1,160,0|2,0:0|0:0,0:0:0:0:
256,192,206573,12,4,209240,0:0:0:0:
456,268,214573,6,0,P|396:296|288:280,1,160,4|0,0:0|0:0,0:0:0:0:
224,248,215573,1,8,0:0:0:0:
160,188,215907,2,0,P|140:232|192:332,2,160,4|0|4,0:0|0:0|0:0,0:0:0:0:
332,156,217907,5,4,0:0:0:0:
196,44,218573,2,0,B|164:24|164:24|36:48,2,160,4|0|4,0:0|0:0|0:0,0:0:0:0:
256,108,220240,5,8,0:0:0:0:
320,48,220573,2,0,P|368:32|464:92,1,160,0|4,0:0|0:0,0:0:0:0:
412,156,221573,2,0,P|404:200|436:312,2,160,8|8|8,0:0|0:0|0:0,0:0:0:0:
324,136,223240,2,0,B|272:144|272:144|216:128|216:128|152:140,1,160,4|4,0:0|0:0,0:0:0:0:
20,40,224573,1,8,0:0:0:0:
16,216,225240,6,0,P|35:291|108:316,1,160,4|0,0:0|0:0,0:0:0:0:
176,260,226240,1,8,0:0:0:0:
248,312,226573,2,0,L|424:328,2,160,4|0|4,0:0|0:0|0:0,0:0:0:0:
264,136,228573,2,0,L|88:120,2,160,4|4|0,0:0|0:0|0:0,0:0:0:0:
340,180,230240,1,8,0:0:0:0:
408,124,230573,6,0,L|392:28,2,80,8|8|8,0:0|0:0|0:0,0:0:0:0:
260,220,231907,2,0,L|276:316,2,80,8|8|8,0:0|0:0|0:0,0:0:0:0:
152,80,233240,6,0,P|116:104|0:96,1,160,4|0,0:0|0:0,0:0:0:0:
112,239,234573,2,0,P|148:215|264:223,1,160,4|0,0:0|0:0,0:0:0:0:
332,272,235573,1,8,0:0:0:0:
408,228,235907,6,0,L|392:60,2,160,4|2|4,0:0|0:0|0:0,0:0:0:0:
232,208,237906,2,0,L|248:376,2,160,2|4|2,0:0|0:0|0:0,0:0:0:0:
116,76,239906,6,0,P|64:88|-4:56,2,120,4|8|0,0:3|0:3|0:0,0:0:0:0:
192,120,241240,2,0,P|244:92|380:188,1,240,4|8,0:0|0:0,0:0:0:0:
352,264,242573,2,0,P|300:292|164:196,1,240,4|8,0:0|0:0,0:0:0:0:
256,192,243906,12,4,246573,0:0:0:0:
