osu file format v14

[General]
AudioFilename: kancolleED.mp3
AudioLeadIn: 1000
PreviewTime: 58746
Countdown: 0
SampleSet: Soft
StackLeniency: 0.7
Mode: 0
LetterboxInBreaks: 0
WidescreenStoryboard: 0

[Editor]
DistanceSpacing: 1
BeatDivisor: 12
GridSize: 4
TimelineZoom: 3.599999

[Metadata]
Title:FUBUKI
TitleUnicode:吹雪
Artist:Shiena Nishizawa
ArtistUnicode:西沢幸奏
Creator:Kawaiwkyik
Version:Insane
Source:Fleet Girls Collection KanColle Animation Sequence
Tags:艦隊これくしょん -艦これ- kantai collection ending minatoku Hige Driver WEST GROUND xxdeathx CloudSplash16 Amamiya Yuko Skystar kakifly
BeatmapID:599115
BeatmapSetID:262547

[Difficulty]
HPDrainRate:7
CircleSize:4
OverallDifficulty:8
ApproachRate:9
SliderMultiplier:1.8
SliderTickRate:1

[Events]
//Background and Video events
0,0,"BG.jpg",0,0
Video,10,"[HorribleSubs]+Kantai+Collection+-+02+[720p].avi"
//Break Periods
//Storyboard Layer 0 (Background)
//Storyboard Layer 1 (Fail)
//Storyboard Layer 2 (Pass)
//Storyboard Layer 3 (Foreground)
//Storyboard Sound Samples

[TimingPoints]
-587,333.333333333333,4,2,1,70,1,0
79,-133.333333333333,4,2,1,50,0,0
746,-133.333333333333,4,2,1,70,0,0
3412,-133.333333333333,4,2,1,70,0,0
6079,-133.333333333333,4,2,1,70,0,0
10079,-100,4,2,1,70,0,0
11412,-200,4,2,1,70,0,0
12579,-200,4,2,1,5,0,0
12745,-100,4,2,1,50,0,0
14079,-100,4,2,1,70,0,0
45079,-83.3333333333333,4,2,1,70,0,0
46079,-133.333333333333,4,2,1,60,0,0
51412,-100,4,2,1,70,0,0
55412,-100,4,2,1,80,0,0
56746,-100,4,2,1,90,0,0
57079,-100,4,2,1,50,0,0
57412,-100,4,2,1,60,0,0
57746,-100,4,2,1,70,0,0
58079,-100,4,2,1,80,0,0
58496,-100,4,2,1,60,0,0
59079,-83.3333333333333,4,2,1,80,0,0
59412,-100,4,2,1,80,0,1
64662,-100,4,2,1,70,0,0
64746,-80,4,2,1,80,0,1
69412,-100,4,2,1,70,0,1
69996,-100,4,2,1,70,0,0
70079,-100,4,2,1,80,0,1
73412,-100,4,2,1,90,0,1
74079,-100,4,2,1,100,0,1
75329,-100,4,2,1,90,0,0
75412,-80,4,2,1,80,0,1
76412,-66.6666666666667,4,2,1,70,0,1
76662,-66.6666666666667,4,2,1,70,0,0
76746,-80,4,2,1,80,0,1
77746,-66.6666666666667,4,2,1,70,0,1
77996,-66.6666666666667,4,2,1,70,0,0
78079,-80,4,2,1,70,0,1
80079,-100,4,2,1,70,0,1
86079,-100,4,2,1,70,0,0

[Colours]
Combo1 : 128,128,128
Combo2 : 0,128,255
Combo3 : 255,0,0
Combo4 : 0,64,128

[HitObjects]
168,336,79,6,0,P|212:300|200:204,1,135.000005149842
120,144,579,2,0,L|124:184,1,33.7500012874604
128,200,746,6,0,P|223:211|280:133,1,202.500007724762,4|0,0:0|0:0,0:0:0:0:
152,116,1412,2,0,P|84:124|60:256,1,202.500007724762,0|0,0:0|0:0,0:0:0:0:
96,316,2079,2,0,B|164:304|164:304|228:320|228:320|300:304,1,202.500007724762,0|0,0:0|0:0,0:0:0:0:
356,360,2746,2,0,P|400:368|468:308,1,135.000005149842
428,220,3246,1,0,0:0:0:0:
388,284,3412,6,0,P|356:248|436:144,1,202.500007724762,4|0,0:0|0:0,0:0:0:0:
428,220,4079,2,0,B|384:208|352:216|352:216|300:196|300:196|264:212|204:196,1,202.500007724762
184,124,4746,6,0,P|248:112|276:280,1,270.000010299683
72,340,5746,1,0,0:0:0:0:
8,280,5912,1,0,0:0:0:0:
8,280,5996,1,0,0:0:0:0:
8,280,6079,6,0,P|44:256|120:268,1,90.0000034332277,4|0,0:0|0:0,0:0:0:0:
168,320,6524,1,0,0:0:0:0:
368,348,6746,2,0,P|380:308|384:272,2,45.0000017166138,0|0|0,0:0|0:0|0:0,0:0:0:0:
464,304,7079,2,0,P|454:263|439:230,2,45.0000017166138,0|0|0,0:0|0:0|0:0,0:0:0:0:
500,188,7412,6,0,P|448:172|376:228,1,135.000005149842
264,296,7968,1,0,0:0:0:0:
264,296,8079,2,0,P|200:310|146:272,1,135.000005149842
128,100,8635,5,0,0:0:0:0:
200,136,8746,1,0,0:0:0:0:
200,136,8857,2,0,P|220:176|212:248,1,90.0000034332277
280,348,9190,2,0,P|300:308|292:236,1,90.0000034332277
456,268,9635,5,0,0:0:0:0:
456,268,9746,2,0,P|453:223|410:165,1,90.0000034332277
328,204,10079,6,0,P|264:212|208:160,1,120,8|0,3:0|0:0,0:0:0:0:
132,120,10412,2,0,L|144:268,1,120,8|0,0:3|0:0,0:0:0:0:
120,360,10746,2,0,P|84:352|56:352,2,60,8|0|0,0:3|0:0|0:0,0:0:0:0:
204,312,11079,2,0,P|233:310|263:303,2,60,8|0|0,0:3|0:0|0:0,0:0:0:0:
336,360,11412,6,2,P|384:372|436:164,1,315,2|0,0:1|0:0,0:0:0:0:
376,136,12746,5,8,0:0:0:0:
344,120,12829,1,8,0:0:0:0:
308,116,12912,1,8,0:0:0:0:
272,124,12996,1,8,0:0:0:0:
244,148,13079,1,8,0:0:0:0:
228,180,13162,1,8,0:0:0:0:
200,204,13246,1,8,0:0:0:0:
164,216,13329,1,8,0:0:0:0:
128,212,13412,5,8,0:0:0:0:
96,196,13496,1,8,0:0:0:0:
76,164,13579,1,8,0:0:0:0:
72,128,13662,1,8,0:0:0:0:
84,96,13746,1,8,0:0:0:0:
108,68,13829,1,8,0:0:0:0:
140,56,13912,1,8,0:0:0:0:
176,60,13996,1,8,0:0:0:0:
204,84,14079,6,0,L|188:284,1,180,4|8,0:0|0:0,0:0:0:0:
116,372,14579,1,0,0:0:0:0:
280,316,14746,2,0,P|336:304|388:300,1,90,2|2,0:0|0:0,0:0:0:0:
472,352,15079,1,8,0:0:0:0:
320,212,15246,1,0,0:0:0:0:
320,212,15329,1,0,0:0:0:0:
320,212,15412,6,0,P|308:160|400:80,1,180,2|8,0:0|0:0,0:0:0:0:
432,240,15912,1,0,0:0:0:0:
280,316,16079,2,0,P|232:308|180:304,1,90,2|2,0:0|0:0,0:0:0:0:
40,196,16412,2,0,L|60:348,1,135,8|0,0:0|0:0,0:0:0:0:
132,364,16746,6,0,P|136:300|144:252,1,90,4|0,0:0|0:0,0:0:0:0:
184,80,17079,1,8,0:0:0:0:
216,196,17246,1,0,0:0:0:0:
216,196,17329,1,0,0:0:0:0:
216,196,17412,2,0,L|120:188,1,90,2|2,0:0|0:0,0:0:0:0:
44,304,17746,1,8,0:0:0:0:
232,364,17912,5,0,0:0:0:0:
260,356,17996,1,0,0:0:0:0:
288,348,18079,1,2,0:0:0:0:
132,220,18246,1,0,0:0:0:0:
312,152,18412,1,8,0:0:0:0:
192,280,18579,1,0,0:0:0:0:
172,12,18746,5,2,0:0:0:0:
152,136,18912,1,2,0:0:0:0:
276,88,19079,1,8,0:0:0:0:
52,92,19246,1,0,0:0:0:0:
40,96,19329,1,0,0:0:0:0:
28,100,19412,6,0,L|48:304,1,180,4|8,0:0|0:0,0:0:0:0:
240,208,19912,1,0,0:0:0:0:
164,316,20079,2,0,P|112:308|64:304,1,90,2|0,0:0|0:0,0:0:0:0:
272,300,20412,1,8,0:0:0:0:
152,136,20579,2,0,L|160:212,1,45
324,232,20746,6,0,P|336:176|352:136,1,90,6|0,0:0|0:0,0:0:0:0:
416,56,21079,1,8,0:0:0:0:
448,300,21246,1,0,0:0:0:0:
448,300,21329,1,0,0:0:0:0:
448,300,21412,2,0,P|436:232|436:196,1,90,2|2,0:0|0:0,0:0:0:0:
500,24,21746,2,0,P|512:92|512:128,1,90,8|0,0:0|0:0,0:0:0:0:
352,160,22079,6,0,L|164:148,1,180,4|8,0:0|0:0,0:0:0:0:
224,244,22579,1,0,0:0:0:0:
296,108,22746,1,2,0:0:0:0:
116,88,22912,1,2,0:0:0:0:
188,252,23079,1,8,0:0:0:0:
356,48,23246,1,0,0:0:0:0:
356,48,23329,1,0,0:0:0:0:
356,48,23412,6,0,P|308:28|248:40,1,90,4|0,0:0|0:0,0:0:0:0:
176,160,23746,2,0,P|128:180|68:168,1,90,8|0,0:0|0:0,0:0:0:0:
84,352,24079,2,0,L|132:336,1,45,2|0,0:0|0:0,0:0:0:0:
220,340,24246,1,0,0:0:0:0:
260,320,24329,1,0,0:0:0:0:
280,280,24412,1,8,0:0:0:0:
284,236,24496,1,0,0:0:0:0:
264,196,24579,1,0,0:0:0:0:
252,152,24662,1,0,0:0:0:0:
264,108,24746,6,0,P|288:80|432:112,1,180,4|8,0:0|0:0,0:0:0:0:
417,90,25246,1,0,0:0:0:0:
264,196,25412,2,0,L|164:188,1,90,0|2,0:0|0:0,0:0:0:0:
348,152,25746,1,8,0:0:0:0:
200,48,25912,1,0,0:0:0:0:
88,184,26079,6,0,P|100:256|112:372,1,180,2|8,0:0|0:0,0:0:0:0:
204,304,26579,1,0,0:0:0:0:
72,136,26746,2,0,P|64:179|57:248,1,90,2|2,0:0|0:0,0:0:0:0:
204,304,27079,1,8,0:0:0:0:
184,192,27246,1,0,0:0:0:0:
184,192,27329,1,0,0:0:0:0:
184,192,27412,6,0,B|248:184|248:184|304:200|304:200|392:188,1,180,4|8,0:0|0:0,0:0:0:0:
360,192,27912,1,0,0:0:0:0:
292,64,28079,2,0,P|276:132|272:184,1,90,2|2,0:0|0:0,0:0:0:0:
428,144,28412,1,8,0:0:0:0:
428,144,28579,1,0,0:0:0:0:
300,304,28746,6,0,B|200:292|200:292|156:316|156:372,1,180,2|8,0:0|0:0,0:0:0:0:
64,244,29246,1,0,0:0:0:0:
68,356,29412,2,0,L|76:256,1,90,2|2,0:0|0:0,0:0:0:0:
144,68,29746,2,0,L|152:136,1,45,8|0,0:0|0:0,0:0:0:0:
192,176,29912,2,0,L|186:131,1,45
240,36,30079,6,0,P|296:48|432:64,1,180,6|8,0:0|0:0,0:0:0:0:
448,168,30579,1,0,0:0:0:0:
192,176,30746,2,0,P|225:168|307:159,1,90,2|2,0:0|0:0,0:0:0:0:
136,304,31079,2,0,P|169:311|251:320,1,90,8|0,0:0|0:0,0:0:0:0:
400,376,31412,6,0,L|380:196,1,180,0|8,0:0|0:0,0:0:0:0:
300,268,31912,1,0,0:0:0:0:
420,304,32079,2,0,P|472:296|528:292,1,90,2|2,0:0|0:0,0:0:0:0:
384,116,32412,2,0,P|364:165|340:215,1,90,8|0,0:0|0:0,0:0:0:0:
226,375,32746,6,0,P|202:288|188:200,1,180,4|8,0:0|0:0,0:0:0:0:
284,176,33246,1,0,0:0:0:0:
152,280,33412,2,0,P|104:276|44:272,1,90,2|2,0:0|0:0,0:0:0:0:
264,156,33746,2,0,P|312:152|372:148,1,90,8|0,0:0|0:0,0:0:0:0:
116,196,34079,6,0,P|84:144|136:32,1,180,2|8,0:0|0:0,0:0:0:0:
244,72,34579,1,0,0:0:0:0:
240,232,34746,1,2,0:0:0:0:
168,120,34912,1,2,0:0:0:0:
344,96,35079,1,8,0:0:0:0:
336,328,35246,1,0,0:0:0:0:
336,328,35329,1,0,0:0:0:0:
336,328,35412,6,0,B|276:320|276:320|224:340|224:340|156:332,1,180,4|8,0:0|0:0,0:0:0:0:
100,168,35912,1,0,0:0:0:0:
240,232,36079,2,0,L|245:187|250:142,1,90,2|2,0:0|0:0,0:0:0:0:
100,312,36412,1,8,0:0:0:0:
216,372,36579,1,0,0:0:0:0:
336,328,36746,6,0,P|376:308|472:380,1,180,2|8,0:0|0:0,0:0:0:0:
336,328,37246,1,0,0:0:0:0:
416,192,37412,2,0,P|422:236|424:281,1,90,2|2,0:0|0:0,0:0:0:0:
288,156,37746,1,8,0:0:0:0:
448,76,37912,1,0,0:0:0:0:
448,76,37996,1,0,0:0:0:0:
448,76,38079,6,0,L|256:64,1,180,4|8,0:0|0:0,0:0:0:0:
484,148,38579,1,0,0:0:0:0:
176,156,38746,2,0,P|220:151|291:148,1,90,2|2,0:0|0:0,0:0:0:0:
452,292,39079,2,0,P|407:287|336:284,1,90,8|0,0:0|0:0,0:0:0:0:
264,236,39412,6,0,P|272:288|280:348,1,90,2|0,0:0|0:0,0:0:0:0:
376,180,39746,2,0,P|368:128|360:68,1,90,8|0,0:0|0:0,0:0:0:0:
176,156,40079,2,0,P|228:148|288:140,1,90,2|2,0:0|0:0,0:0:0:0:
428,224,40412,1,8,0:0:0:0:
300,304,40579,1,0,0:0:0:0:
100,152,40746,6,0,B|104:104|148:84|148:84|191:75|260:68,1,180,6|8,0:0|0:0,0:0:0:0:
392,128,41246,1,0,0:0:0:0:
392,128,41329,1,0,0:0:0:0:
392,128,41412,2,0,P|400:76|404:32,1,90,2|0,0:0|0:0,0:0:0:0:
268,104,41746,2,0,P|260:156|256:200,1,90,8|0,0:0|0:0,0:0:0:0:
300,304,42079,6,0,P|392:288|484:276,1,180,0|8,0:0|0:0,0:0:0:0:
384,332,42579,1,0,0:0:0:0:
276,220,42746,1,2,0:0:0:0:
392,128,42912,1,2,0:0:0:0:
456,292,43079,1,8,0:0:0:0:
272,348,43246,1,0,0:0:0:0:
272,348,43329,1,0,0:0:0:0:
271,348,43412,6,0,P|227:344|182:343,1,90,4|0,0:0|0:0,0:0:0:0:
128,224,43746,1,8,0:0:0:0:
72,364,43912,1,0,0:0:0:0:
128,224,44079,2,0,P|116:172|100:120,1,90,2|0,0:0|0:0,0:0:0:0:
244,192,44412,2,0,P|295:207|348:219,1,90,8|0,0:0|0:0,0:0:0:0:
468,76,44746,6,0,P|432:60|368:68,1,90,6|0,0:0|0:0,0:0:0:0:
348,183,45079,2,0,P|308:200|242:191,1,107.999996704102,8|0,0:0|0:0,0:0:0:0:
168,136,45329,1,0,0:0:0:0:
168,136,45412,2,0,P|115:126|65:145,1,107.999996704102,8|0,0:0|0:0,0:0:0:0:
52,348,45746,5,8,0:0:0:0:
103,360,45829,1,0,0:0:0:0:
155,346,45912,1,0,0:0:0:0:
192,307,45996,1,0,0:0:0:0:
205,256,46079,5,4,0:0:0:0:
216,52,46579,1,0,0:0:0:0:
216,52,46746,2,0,B|256:88|256:88|404:64,1,202.500007724762
440,136,47412,2,0,L|221:171,1,202.500007724762
166,191,48079,2,0,P|202:104|296:113,1,202.500007724762
297,114,48662,5,0,0:0:0:0:
297,114,48746,2,0,P|318:175|326:319,1,202.500007724762,4|0,0:0|0:0,0:0:0:0:
252,332,49412,2,0,P|256:272|244:188,1,135.000005149842
168,252,49940,2,0,L|164:216,2,22.5000008583069
172,272,50079,6,0,P|104:268|36:268,2,135.000005149842,2|2|2,0:1|0:1|0:1,0:0:0:0:
252,332,50912,1,4,0:3:0:0:
256,132,51079,2,0,L|244:220,1,67.5000025749208,8|0,0:0|0:0,0:0:0:0:
348,364,51412,6,0,P|376:328|352:196,1,180,4|8,0:0|0:0,0:0:0:0:
176,76,51912,1,0,0:0:0:0:
256,132,52079,2,0,P|264:80|264:36,1,90,2|2,0:0|0:0,0:0:0:0:
160,204,52412,1,8,0:0:0:0:
304,280,52579,1,0,0:0:0:0:
334,143,52746,6,0,P|379:138|424:132,1,90,6|0,0:0|0:0,0:0:0:0:
228,244,53079,2,0,P|183:248|138:255,1,90,8|0,0:0|0:0,0:0:0:0:
328,256,53412,2,0,P|332:300|339:345,1,90,2|0,0:0|0:0,0:0:0:0:
236,143,53746,2,0,P|231:99|224:54,1,90,8|0,0:0|0:0,0:0:0:0:
408,76,54079,5,12,0:0:0:0:
312,56,54246,1,0,0:0:0:0:
408,196,54412,1,0,0:0:0:0:
456,12,54579,5,8,0:0:0:0:
336,148,54746,1,0,0:0:0:0:
504,184,54912,1,0,0:0:0:0:
408,76,55079,5,8,0:0:0:0:
336,236,55246,1,0,0:0:0:0:
472,276,55412,5,12,0:0:0:0:
284,252,55579,1,0,0:0:0:0:
420,364,55746,1,0,0:0:0:0:
408,196,55912,5,8,0:0:0:0:
332,332,56079,1,0,0:0:0:0:
304,140,56246,1,0,0:0:0:0:
504,184,56412,5,8,0:0:0:0:
304,252,56579,1,0,0:0:0:0:
401,39,56746,6,0,P|442:116|408:196,1,180,4|8,0:0|0:0,0:0:0:0:
224,160,57246,1,8,0:0:0:0:
356,120,57412,5,8,0:0:0:0:
328,260,57579,1,8,0:0:0:0:
264,64,57746,5,8,0:0:0:0:
304,252,57912,1,8,0:0:0:0:
448,120,58079,5,8,0:0:0:0:
256,40,58246,1,8,0:0:0:0:
64,120,58412,6,0,L|60:164,3,45,8|0|0|0,0:0|0:0|0:0|0:0,0:0:0:0:
138,256,58746,6,0,L|132:212,1,45
251,259,58912,2,0,L|224:224,1,45
308,112,59079,6,0,P|301:138|295:164,1,53.9999983520508,0|0,0:0|0:0,0:0:0:0:
428,128,59246,2,0,P|408:147|391:167,1,53.9999983520508
468,292,59412,6,0,P|420:260|280:280,1,180,4|8,0:0|0:0,0:0:0:0:
200,356,59912,1,0,0:0:0:0:
376,344,60079,2,0,L|488:336,1,90,2|0,0:0|0:0,0:0:0:0:
260,268,60412,1,8,0:0:0:0:
452,160,60579,1,0,0:0:0:0:
376,344,60746,6,0,B|328:336|328:336|264:352|264:352|192:336,1,180,6|8,0:0|0:0,0:0:0:0:
196,104,61246,1,0,0:0:0:0:
271,178,61412,2,0,L|260:268,1,90,2|2,0:0|0:0,0:0:0:0:
88,308,61746,1,8,0:0:0:0:
336,328,61912,1,0,0:0:0:0:
336,328,61996,1,0,0:0:0:0:
336,328,62079,6,0,P|380:340|464:252,1,180,6|8,0:0|0:0,0:0:0:0:
400,72,62579,1,0,0:0:0:0:
376,244,62746,2,0,L|260:231,1,90,6|0,0:0|0:0,0:0:0:0:
448,168,63079,1,8,0:0:0:0:
320,72,63246,1,0,0:0:0:0:
200,196,63412,6,0,P|212:280|220:376,1,180,6|8,0:0|0:0,0:0:0:0:
128,328,63912,1,0,0:0:0:0:
292,236,64079,2,0,L|344:228,1,45
264,152,64246,2,0,L|212:160,1,45
160,256,64412,6,0,P|96:268|28:216,1,120,8|0,0:0|0:0,0:0:0:0:
72,116,64746,6,0,P|132:124|216:64,1,150,6|0,0:0|0:0,0:0:0:0:
328,96,65079,2,0,P|376:80|416:76,2,75,8|0|0,0:0|0:0|0:0,0:0:0:0:
256,172,65412,2,0,P|208:156|168:152,2,75,2|0|0,0:0|0:0|0:0,0:0:0:0:
360,296,65746,2,0,P|366:259|379:223,2,75,8|0|0,0:0|0:0|0:0,0:0:0:0:
256,348,66079,6,0,P|200:364|116:324,1,150,6|0,0:0|0:0,0:0:0:0:
32,356,66412,2,0,P|24:292|16:176,1,150,8|0,0:0|0:0,0:0:0:0:
104,88,66746,2,0,P|112:152|120:268,1,150,2|0,0:0|0:0,0:0:0:0:
216,188,67079,2,0,P|268:156|368:180,1,150,8|0,0:0|0:0,0:0:0:0:
399,280,67412,6,0,P|435:267|472:263,2,75,6|0|0,0:0|0:0|0:0,0:0:0:0:
316,352,67746,2,0,P|264:344|152:344,1,150,8|0,0:0|0:0,0:0:0:0:
60,224,68079,2,0,P|124:196|208:224,1,150,6|0,0:0|0:0,0:0:0:0:
280,272,68412,2,0,P|353:267|407:217,1,150,8|0,0:0|0:0,0:0:0:0:
307,68,68746,6,0,P|295:122|312:176,1,112.5,6|0,0:0|0:0,0:0:0:0:
396,352,69079,2,0,P|448:332|504:340,1,112.5,8|0,0:0|0:0,0:0:0:0:
292,360,69412,2,0,P|288:333|284:304,1,45,2|0,0:0|0:0,0:0:0:0:
173,199,69579,2,0,P|176:221|180:244,1,45
184,336,69746,2,0,P|161:339|139:342,1,45,8|0,0:0|0:0,0:0:0:0:
264,184,69912,2,0,L|286:187|308:190,1,45,2|0,0:0|0:0,0:0:0:0:
424,320,70079,6,0,P|468:288|452:168,1,180,4|8,0:0|0:0,0:0:0:0:
352,76,70579,1,0,0:0:0:0:
352,76,70662,1,0,0:0:0:0:
352,76,70746,2,0,P|408:68|460:60,1,90,2|0,0:0|0:0,0:0:0:0:
392,236,71079,1,8,0:0:0:0:
236,112,71246,1,0,0:0:0:0:
236,112,71329,1,0,0:0:0:0:
236,112,71412,6,0,P|224:184|212:324,1,180,4|8,0:0|0:0,0:0:0:0:
320,344,71912,1,0,0:0:0:0:
156,348,72079,2,0,P|108:356|52:376,1,90,2|0,0:0|0:0,0:0:0:0:
120,208,72412,1,8,0:0:0:0:
276,304,72579,1,0,0:0:0:0:
276,304,72662,1,0,0:0:0:0:
276,304,72746,6,0,B|336:292|336:292|396:308|396:308|472:296,1,180,4|8,0:0|0:0,0:0:0:0:
356,72,73246,1,0,0:0:0:0:
356,72,73329,1,0,0:0:0:0:
356,72,73412,2,0,P|336:128|348:184,1,90,6|0,0:0|0:0,0:0:0:0:
376,308,73746,1,8,0:0:0:0:
432,136,73912,1,0,0:0:0:0:
244,228,74079,6,0,L|56:220,1,180,4|8,0:0|0:0,0:0:0:0:
416,236,74579,1,0,0:0:0:0:
216,144,74746,1,2,0:0:0:0:
316,256,74912,1,0,0:0:0:0:
328,72,75079,2,0,L|316:148,1,45,8|0,0:0|0:0,0:0:0:0:
244,228,75246,2,0,P|241:211|236:183,1,45
140,84,75412,6,0,P|104:72|66:73,2,75,12|0|0,0:0|0:0|0:0,0:0:0:0:
236,184,75746,2,0,P|261:156|293:138,2,75,8|0|0,0:0|0:0|0:0,0:0:0:0:
124,336,76079,2,0,P|88:292|112:196,1,150,8|0,0:0|0:0,0:0:0:0:
176,260,76412,6,0,L|408:248,1,180.000006866455,4|0,0:0|0:0,0:0:0:0:
440,210,76746,6,0,P|441:172|448:136,2,75,12|0|0,0:0|0:0|0:0,0:0:0:0:
312,96,77079,2,0,P|313:133|319:170,2,75,8|0|0,0:0|0:0|0:0,0:0:0:0:
368,264,77412,2,0,P|304:276|220:188,1,150,8|0,0:0|0:0,0:0:0:0:
228,80,77746,6,0,L|204:292,1,180.000006866455,4|0,0:0|0:0,0:0:0:0:
96,360,78079,6,0,P|72:300|128:204,1,150,4|0,0:0|0:0,0:0:0:0:
208,260,78412,2,0,P|279:276|343:241,1,150,8|0,0:0|0:0,0:0:0:0:
252,48,78746,2,0,L|268:204,1,150
420,272,79079,2,0,L|404:116,1,112.5,8|0,0:0|0:0,0:0:0:0:
292,20,79412,6,0,P|268:100|296:156,1,112.5,4|0,0:0|0:0,0:0:0:0:
336,316,79746,2,0,P|360:236|332:180,1,112.5,8|0,0:0|0:0,0:0:0:0:
108,336,80079,5,0,0:0:0:0:
72,308,80162,1,0,0:0:0:0:
56,264,80246,1,0,0:0:0:0:
60,220,80329,1,0,0:0:0:0:
88,184,80412,1,8,0:0:0:0:
128,164,80496,1,0,0:0:0:0:
172,160,80579,1,0,0:0:0:0:
212,180,80662,1,0,0:0:0:0:
256,192,80746,6,0,L|444:176,1,180,4|8,0:0|0:0,0:0:0:0:
384,88,81246,1,0,0:0:0:0:
232,164,81412,1,2,0:0:0:0:
344,272,81579,1,2,0:0:0:0:
276,64,81746,2,0,P|268:108|263:153,1,90,8|0,0:0|0:0,0:0:0:0:
263,153,81996,1,0,0:0:0:0:
263,153,82079,5,4,0:0:0:0:
392,172,82246,1,0,0:0:0:0:
256,280,82412,2,0,P|211:272|166:267,1,90,8|0,0:0|0:0,0:0:0:0:
100,56,82746,2,0,P|140:104|120:200,1,135,2|0,0:0|0:0,0:0:0:0:
76,232,83079,1,8,0:0:0:0:
128,356,83246,1,0,0:0:0:0:
128,356,83329,1,0,0:0:0:0:
128,356,83412,6,0,L|188:348,3,45,4|0|0|0,0:0|0:0|0:0|0:0,0:0:0:0:
252,376,83746,2,0,L|312:368,3,45,0|0|0|0,0:0|0:0|0:0|0:0,0:0:0:0:
380,336,84079,5,0,0:0:0:0:
424,348,84162,1,0,0:0:0:0:
468,340,84246,1,0,0:0:0:0:
496,308,84329,1,0,0:0:0:0:
504,264,84412,1,0,0:0:0:0:
492,220,84496,1,0,0:0:0:0:
464,188,84579,1,0,0:0:0:0:
420,176,84662,1,0,0:0:0:0:
376,184,84746,5,0,0:0:0:0:
340,212,84829,1,0,0:0:0:0:
296,220,84912,1,0,0:0:0:0:
252,204,84996,1,0,0:0:0:0:
228,164,85079,1,0,0:0:0:0:
228,120,85162,1,0,0:0:0:0:
244,80,85246,1,0,0:0:0:0:
284,56,85329,1,0,0:0:0:0:
328,48,85412,6,0,L|400:64,1,45
458,95,85579,2,0,L|468:52,1,45
376,184,85746,2,0,L|366:140,1,45
464,276,85912,2,0,L|508:266,1,45
352,308,86079,5,4,0:0:0:0:
