osu file format v14

[General]
AudioFilename: Fubuki.mp3
AudioLeadIn: 0
PreviewTime: 60745
Countdown: 0
SampleSet: Normal
StackLeniency: 0.8
Mode: 0
LetterboxInBreaks: 0
WidescreenStoryboard: 1

[Editor]
DistanceSpacing: 1
BeatDivisor: 4
GridSize: 4
TimelineZoom: 1

[Metadata]
Title:FUBUKI
TitleUnicode:吹雪
Artist:Shiena Nishizawa
ArtistUnicode:Shiena Nishizawa
Creator:Boommer35
Version:Normal
Source:Fleet Girls Collection KanColle Animation Sequence
Tags:艦隊これくしょん 吹雪 Kancolle 2015 rock anime ending ship girls winter season Shiguri Anxient Pho senkai Okoratu EL-Kiseki
BeatmapID:599413
BeatmapSetID:262465

[Difficulty]
HPDrainRate:6
CircleSize:3.5
OverallDifficulty:6
ApproachRate:6
SliderMultiplier:1
SliderTickRate:1

[Events]
//Background and Video events
Video,2076,"bgvid.flv"
0,0,"bg.jpeg",0,0
//Break Periods
//Storyboard Layer 0 (Background)
//Storyboard Layer 1 (Fail)
//Storyboard Layer 2 (Pass)
//Storyboard Layer 3 (Foreground)
//Storyboard Sound Samples

[TimingPoints]
2068,333.333333333333,4,2,1,35,1,0
2746.39932839268,333.333333333333,4,2,1,45,1,0
5413,-100,4,2,1,50,0,0
5579,-100,4,2,1,60,0,0
8079,-100,4,2,1,80,0,0
8246,-100,4,2,1,60,0,0
12079,-100,4,2,1,50,0,0
12413,-100,4,2,1,60,0,0
12746,-100,4,2,1,70,0,0
13079,-100,4,2,1,80,0,0
13413,-100,4,2,1,60,0,0
16079,-100,4,1,1,80,0,1
20079,-100,4,1,1,75,0,1
20413,-100,4,1,1,70,0,1
20746,-100,4,1,1,65,0,1
21079,-100,4,1,1,80,0,1
26746,-100,4,1,1,45,0,0
45413,-100,4,1,1,50,0,0
45746,-100,4,1,1,60,0,0
46079,-100,4,1,1,70,0,0
46413,-100,4,1,1,80,0,0
46746,-100,4,1,1,90,0,0
48079,-100,4,2,1,100,0,0
48746,-100,4,2,1,35,0,0
50746,-100,4,1,1,35,0,0
50913,-100,4,1,1,35,0,0
53413,-100,4,1,1,50,0,0
60746,-100,4,2,1,45,0,0
61413,-100,4,1,1,80,0,1
69413,-100,4,1,1,50,0,1
69746,-100,4,1,1,60,0,1
70079,-100,4,1,1,70,0,1
70746,-100,4,1,1,75,0,1
71413,-100,4,1,1,35,0,1
71579,-100,4,1,1,45,0,1
71746,-100,4,1,1,80,0,0
71913,-100,4,1,1,70,0,0
72079,-100,4,1,1,80,0,1
77413,-100,4,1,1,65,0,1
78413,-100,4,1,1,90,0,1
78746,-100,4,1,1,65,0,1
79746,-100,4,1,1,90,0,1
79913,-100,4,1,1,80,0,1
88079,-100,4,1,1,80,0,0

[Colours]
Combo1 : 192,192,192
Combo2 : 255,255,0
Combo3 : 108,207,255
Combo4 : 255,157,206

[HitObjects]
88,104,2746,6,0,B|132:60|183:92|232:124|280:84,1,200,4|0,0:0|0:0,0:0:0:0:
420,224,4079,2,0,P|352:256|420:324,1,200
216,312,5413,2,0,B|236:292|260:284|260:284|236:268|188:208,1,150,2|0,0:0|0:0,0:0:0:0:
168,172,6079,2,0,P|152:124|268:76,1,200
96,272,8079,6,0,P|96:220|128:180,1,100,4|0,0:3|0:0,0:0:0:0:
192,256,8746,1,0,0:0:0:0:
244,170,9079,1,0,0:0:0:0:
316,240,9413,2,0,P|344:200|343:150,1,100
272,80,10079,2,0,P|223:75|180:100,1,100
96,156,10746,5,0,0:0:0:0:
188,196,11079,1,0,0:0:0:0:
124,272,11413,2,0,P|164:296|216:292,1,100
288,224,12079,2,0,P|312:176|352:148,2,100,4|4|4,0:3|0:3|0:3,0:0:0:0:
386,243,13079,1,4,0:3:0:0:
404,144,13413,2,0,B|216:145|76:256|256:440|452:244|280:145|104:145,1,600,0|0,0:3|0:1,0:3:0:0:
104,145,15746,6,0,P|124:100|167:76,1,100,4|4,0:3|0:0,0:0:0:0:
268,88,16413,1,8,0:0:0:0:
196,160,16746,1,2,0:0:0:0:
196,160,17079,2,0,P|236:188|285:187,1,100,8|2,0:0|0:0,0:0:0:0:
368,128,17746,1,8,0:0:0:0:
376,228,18079,1,2,0:0:0:0:
288,280,18413,2,0,P|238:272|209:308,1,100,8|4,0:0|0:0,0:0:0:0:
116,268,19079,5,8,0:0:0:0:
176,188,19413,1,2,0:0:0:0:
76,176,19746,1,8,0:0:0:0:
144,100,20079,2,0,P|176:60|224:48,1,100,2|8,0:0|0:0,0:0:0:0:
321,47,20746,2,0,P|368:60|398:99,1,100,2|8,0:0|0:0,0:0:0:0:
380,196,21413,5,2,0:0:0:0:
296,140,21746,1,8,0:0:0:0:
312,240,22079,1,2,0:0:0:0:
232,184,22413,1,8,0:0:0:0:
180,272,22746,2,0,P|140:242|126:195,2,100,2|8|2,0:0|0:0|0:0,0:0:0:0:
272,308,23746,1,8,0:0:0:0:
360,264,24079,6,0,P|400:234|414:187,1,100,2|8,0:0|0:0,0:0:0:0:
372,96,24746,2,0,P|332:126|318:173,1,100,2|8,0:0|0:0,0:0:0:0:
272,260,25413,1,2,0:0:0:0:
208,184,25746,1,8,0:0:0:0:
168,276,26079,1,2,0:0:0:0:
104,200,26413,1,8,0:0:0:0:
112,100,26746,5,0,3:0:0:0:
200,52,27079,1,0,0:0:0:0:
200,152,27413,2,0,P|252:136|288:100,1,100,0|0,3:0|0:0,0:0:0:0:
376,144,28079,1,0,3:0:0:0:
312,220,28413,2,0,P|276:256|264:304,2,100,0|0|0,2:0|3:0|2:0,2:0:0:0:
288,124,29413,6,0,B|236:116|236:116|204:80,1,100,0|0,3:0|0:0,0:0:0:0:
124,140,30079,2,0,B|158:179|158:179|160:227,1,100,0|0,3:0|0:0,0:0:0:0:
60,220,30746,1,0,3:0:0:0:
96,312,31079,1,0,0:0:0:0:
196,308,31413,2,0,P|236:276|248:228,1,100,0|2,3:0|0:3,0:0:0:0:
192,148,32079,6,0,P|197:98|224:56,1,100,2|8,0:0|0:0,0:0:0:0:
296,132,32746,1,2,0:0:0:0:
392,112,33079,2,0,P|387:162|360:204,1,100,8|2,0:0|0:0,0:0:0:0:
264,224,33746,2,0,L|232:320,2,100,8|2|8,0:0|0:0|0:0,0:0:0:0:
192,156,34746,6,0,P|144:140|96:160,1,100,2|8,0:0|0:0,0:0:0:0:
99,257,35413,2,0,P|147:273|195:253,1,100,2|8,0:0|0:0,0:0:0:0:
280,212,36079,1,2,0:0:0:0:
280,111,36413,1,8,0:0:0:0:
350,40,36746,2,0,P|376:88|377:133,1,100,2|4,0:0|0:0,0:0:0:0:
436,216,37413,5,0,3:0:0:0:
365,286,37746,1,0,0:0:0:0:
284,228,38079,1,0,0:0:0:0:
204,288,38413,2,0,L|204:340,2,50,2|2|0,0:0|0:0|0:0,0:0:0:0:
124,228,39079,1,0,0:0:0:0:
112,128,39413,2,0,P|140:85|185:66,1,100,0|8,2:0|1:0,2:0:0:0:
204,164,40079,5,0,3:0:0:0:
268,84,40413,1,0,0:0:0:0:
288,180,40746,1,0,3:0:0:0:
348,100,41079,1,0,0:0:0:0:
376,196,41413,2,0,P|352:240|308:268,2,100,0|0|0,3:0|0:0|3:0,0:0:0:0:
348,100,42413,1,2,0:3:0:0:
268,160,42746,6,0,P|224:132|176:132,1,100,2|8,0:0|0:0,0:0:0:0:
192,232,43413,1,2,0:0:0:0:
288,264,43746,1,8,0:0:0:0:
368,200,44079,2,0,P|380:152|352:100,1,100,2|8,0:0|0:0,0:0:0:0:
256,192,44746,12,8,46746,0:3:0:0:
112,240,48079,6,0,B|152:208|208:244|256:272|304:236,1,200,2|0,3:2|0:0,0:0:0:0:
312,136,49413,2,0,P|276:60|228:132,1,200
184,216,50746,2,0,B|124:172|124:172|84:104|156:60,1,200,8|0,0:0|0:0,0:0:0:0:
224,132,52079,2,0,P|296:184|384:132,1,200
208,232,53413,5,0,3:1:0:0:
132,168,53746,1,0,0:0:0:0:
64,96,54079,2,0,P|40:144|40:196,1,100,0|0,3:0|0:0,0:0:0:0:
108,264,54746,1,0,3:0:0:0:
180,324,55079,1,0,0:0:0:0:
264,268,55413,2,0,L|316:268,2,50,0|0|0,3:0|3:0|0:0,0:0:0:0:
264,168,56079,6,0,L|240:120,1,50,4|0,0:0|0:0,0:0:0:0:
144,112,56579,1,0,0:0:0:0:
128,160,56746,2,0,L|150:204,2,50,0|0|0,0:0|0:0|0:0,0:0:0:0:
52,228,57413,6,0,L|52:280,1,50,4|0,0:0|0:0,0:0:0:0:
144,316,57913,1,0,0:0:0:0:
193,316,58079,2,0,L|244:316,2,50,0|0|0,0:0|0:0|0:0,0:0:0:0:
216,220,58746,6,0,P|232:168|264:136,1,100
352,184,59413,2,0,P|336:236|304:268,1,100
224,328,60079,2,0,L|168:328,2,50
312,284,60746,2,0,P|316:232|272:232,1,100
188,264,61413,5,2,0:0:0:0:
164,168,61746,1,8,0:0:0:0:
260,200,62079,2,0,L|312:192,2,50,2|2|8,0:0|0:0|0:0,0:0:0:0:
252,100,62746,2,0,P|296:72|340:80,1,100,2|8,0:0|0:0,0:0:0:0:
404,160,63413,2,0,L|404:212,2,50,2|2|8,0:0|0:0|0:0,0:0:0:0:
312,204,64079,6,2,P|264:232|220:232,1,100,2|8,0:0|0:0,0:0:0:0:
184,140,64746,2,2,P|232:112|276:112,1,100,2|8,0:0|0:0,0:0:0:0:
340,36,65413,1,2,0:0:0:0:
408,108,65746,1,8,0:0:0:0:
416,208,66079,1,2,0:0:0:0:
344,276,66413,1,8,0:0:0:0:
304,184,66746,6,0,P|284:136|244:104,1,100,2|8,0:0|0:0,0:0:0:0:
148,104,67413,2,0,L|148:204,1,100,2|8,0:0|0:0,0:0:0:0:
64,260,68079,2,0,P|100:296|148:304,2,100,2|8|2,0:0|0:0|0:0,0:0:0:0:
64,159,69079,1,8,0:0:0:0:
156,196,69413,6,0,B|212:228|212:228|248:228,1,100,2|8,0:0|0:0,0:0:0:0:
318,157,70079,2,0,B|318:121|318:121|286:65,1,100,2|8,0:0|0:0,0:0:0:0:
188,88,70746,1,2,0:1:0:0:
188,88,71079,1,8,0:1:0:0:
188,88,71413,2,0,P|236:72|284:84,1,100,2|4,0:1|0:0,0:0:0:0:
364,144,72079,5,2,0:0:0:0:
316,232,72413,1,8,0:0:0:0:
276,140,72746,2,0,P|236:176|220:224,1,100,2|8,0:0|0:0,0:0:0:0:
244,316,73413,1,2,0:0:0:0:
148,284,73746,2,0,P|124:240|128:188,2,100,8|2|8,0:0|0:0|0:0,0:0:0:0:
248,280,74746,6,2,P|260:228|248:184,1,100,2|8,0:0|0:0,0:0:0:0:
348,183,75413,2,2,P|335:231|348:279,1,100,2|8,0:0|0:0,0:0:0:0:
440,236,76079,2,0,B|512:168|468:40,1,200
348,208,77413,5,8,0:0:0:0:
280,280,77746,1,8,0:0:0:0:
208,212,78079,2,0,P|220:164|264:148,1,100,2|4,0:0|0:0,0:0:0:0:
316,64,78746,5,8,0:0:0:0:
216,64,79079,1,8,0:0:0:0:
120,88,79413,2,0,P|104:133|133:171,1,100,2|4,0:0|0:0,0:0:0:0:
203,242,80079,6,0,L|203:342,2,100,2|8|2,0:0|0:0|0:0,0:0:0:0:
256,156,81079,1,8,0:0:0:0:
312,72,81413,2,0,P|353:36|397:32,2,100,2|8|2,0:0|0:0|0:0,0:0:0:0:
392,132,82413,1,8,0:0:0:0:
336,216,82746,6,0,B|308:260|308:260|264:280,1,100,2|8,0:0|0:0,0:0:0:0:
240,184,83413,2,0,B|212:140|212:140|168:120,1,100,2|8,0:0|0:0,0:0:0:0:
72,144,84079,1,2,0:0:0:0:
140,216,84413,1,8,0:0:0:0:
48,252,84746,2,0,P|76:296|119:313,1,100,2|8,0:0|0:0,0:0:0:0:
256,192,85413,12,2,88079,0:2:0:0:
