osu file format v14

[General]
AudioFilename: Brand-new World.mp3
AudioLeadIn: 1000
PreviewTime: 50972
Countdown: 0
SampleSet: Soft
StackLeniency: 0.7
Mode: 0
LetterboxInBreaks: 0
WidescreenStoryboard: 0

[Editor]
DistanceSpacing: 0.9
BeatDivisor: 4
GridSize: 32
TimelineZoom: 2.4

[Metadata]
Title:Brand-new World
TitleUnicode:Brand-new World
Artist:Shiena Nishizawa
ArtistUnicode:西沢幸奏
Creator:Enjoy
Version:Normal
Source:学戦都市アスタリスク
Tags:THE ASTERISK WAR The Academy City on the Water Gakusen Toshi Asterisk tv size opening op -_E_n_j_u_- enju Bearizm Hakurei Yoru toybot litoluna Asahina Momoko M_o_k_o_r_i mokori Kawaiwkyik Rizia
BeatmapID:965547
BeatmapSetID:450015

[Difficulty]
HPDrainRate:4
CircleSize:3
OverallDifficulty:4
ApproachRate:5
SliderMultiplier:1.1
SliderTickRate:1

[Events]
//Background and Video events
Video,0,"video.flv"
0,0,"MeyrinkEdit.jpg",0,0
//Break Periods
2,42996,45894
//Storyboard Layer 0 (Background)
//Storyboard Layer 1 (Fail)
//Storyboard Layer 2 (Pass)
//Storyboard Layer 3 (Foreground)
//Storyboard Sound Samples

[TimingPoints]
265,292.682926829268,4,2,0,40,1,0
265,-100,4,2,0,40,0,0
4069,-100,4,2,1,60,0,0
4508,-100,4,2,0,60,0,0
4582,-100,4,2,0,5,0,0
4655,-100,4,2,0,60,0,0
4728,-100,4,2,0,5,0,0
4801,-100,4,2,1,90,0,0
14313,-100,4,2,0,30,0,0
23679,-100,4,2,1,70,0,0
41899,-100,4,2,1,5,0,0
41972,-100,4,2,1,70,0,0
42045,-100,4,2,1,5,0,0
42118,-100,4,2,1,70,0,0
42411,-100,4,2,1,50,0,0
50533,-100,4,2,1,5,0,0
51045,-100,4,2,1,30,0,0
51630,-100,4,2,1,90,0,1
79728,-100,4,2,1,80,0,0

[Colours]
Combo1 : 128,64,64
Combo2 : 255,128,128
Combo3 : 0,128,0
Combo4 : 0,64,128

[HitObjects]
455,175,265,6,0,P|512:230|492:308,2,165,2|2|2,0:0|0:0|0:0,0:0:0:0:
378,239,1435,2,0,L|255:230,1,110,2|2,0:0|0:0,0:0:0:0:
210,149,2021,2,0,P|210:86|184:45,1,110,2|2,0:0|0:0,0:0:0:0:
117,119,2606,5,2,0:0:0:0:
38,178,2899,2,0,L|53:246,1,55,0|2,0:0|0:0,0:0:0:0:
138,275,3338,2,0,L|126:328,1,55,0|2,0:0|0:0,0:0:0:0:
216,368,3777,6,0,P|298:367|336:335,1,110,0|2,0:0|0:0,0:0:0:0:
352,317,4216,1,0,0:0:0:0:
258,285,4508,2,0,L|270:224,1,55,4|4,0:3|0:3,0:0:0:0:
302,192,4801,6,0,B|372:157|372:157|448:202,1,165,4|8,0:0|0:0,0:0:0:0:
492,113,5533,2,0,L|393:54,1,110,0|8,0:0|0:0,0:0:0:0:
347,56,5972,2,0,L|188:136,1,165,0|8,0:0|0:0,0:0:0:0:
119,72,6704,2,0,P|54:88|38:143,1,110,0|8,0:0|0:0,0:0:0:0:
68,217,7289,6,0,B|115:248|115:248|97:317,1,110,0|8,3:0|0:0,0:0:0:0:
193,336,7874,2,0,L|225:223,1,110,0|8,0:0|0:0,0:0:0:0:
272,222,8313,2,0,P|349:275|417:255,1,165,0|8,0:0|0:0,0:0:0:0:
509,237,9045,1,0,0:0:0:0:
453,155,9338,1,8,0:0:0:0:
359,181,9630,6,0,P|362:121|392:80,1,110,4|8,0:0|0:0,0:0:0:0:
304,30,10216,2,0,P|250:68|193:61,1,110,0|8,0:0|0:0,0:0:0:0:
158,63,10655,2,0,B|185:126|185:126|134:215,1,165,0|8,0:0|0:0,0:0:0:0:
41,234,11386,2,0,P|29:311|48:331,1,110,0|8,0:0|0:0,0:0:0:0:
142,354,11972,6,0,L|268:333,1,110,4|4,0:0|0:0,0:0:0:0:
346,362,12557,2,0,L|374:235,1,110,4|4,0:0|0:0,0:0:0:0:
329,225,12996,1,0,0:0:0:0:
329,225,13143,6,0,L|320:169,1,55,0|0,3:0|3:0,0:0:0:0:
367,155,13435,2,0,L|375:100,1,55,0|0,3:0|3:0,0:0:0:0:
343,61,13728,2,0,P|282:49|236:83,1,110,2|2,0:0|0:0,0:0:0:0:
170,139,14313,6,0,B|53:152|53:152|23:109,2,165,2|2|2,0:0|0:0|0:0,0:0:0:0:
231,216,15484,2,0,P|234:277|221:326,1,110,0|0,0:0|0:0,0:0:0:0:
319,332,16069,2,0,P|316:278|329:225,1,110,2|0,0:0|0:0,0:0:0:0:
420,186,16655,6,0,P|486:171|490:80,2,165,2|2|0,0:0|0:0|0:0,0:0:0:0:
329,225,17825,2,0,P|303:177|299:122,1,110,0|0,0:0|0:0,0:0:0:0:
224,57,18411,2,0,P|170:63|139:106,1,110,0|2,0:0|0:0,0:0:0:0:
169,201,18996,6,0,B|99:233|88:160|3:210,2,165,2|2|0,0:0|0:0|0:0,0:0:0:0:
241,268,20167,1,0,0:0:0:0:
329,225,20460,2,0,P|411:224|443:251,2,110,0|0|2,0:0|0:0|0:0,0:0:0:0:
241,268,21338,6,0,P|167:327|90:322,1,165,2|0,0:0|0:0,0:0:0:0:
56,303,21923,2,0,P|27:257|10:205,1,110,2|0,0:0|0:0,0:0:0:0:
86,141,22508,2,0,P|121:188|179:199,2,110,2|0|2,0:0|0:0|0:0,0:0:0:0:
98,42,23386,1,4,0:3:0:0:
169,113,23679,6,0,L|291:93,1,110,4|8,0:0|0:0,0:0:0:0:
323,76,24118,2,0,P|338:173|395:192,1,165,0|8,0:0|0:0,0:0:0:0:
487,165,24850,1,0,3:0:0:0:
508,261,25143,1,8,0:0:0:0:
428,319,25435,2,0,L|307:288,1,110,0|8,0:0|0:0,0:0:0:0:
256,216,26021,6,0,P|187:211|157:245,1,110,0|8,3:0|0:0,0:0:0:0:
184,280,26460,2,0,P|156:338|101:357,1,110,0|0,0:0|3:0,0:0:0:0:
68,344,26899,1,8,0:0:0:0:
2,269,27191,2,0,L|11:154,1,110,0|8,3:0|0:0,0:0:0:0:
44,122,27630,2,0,P|99:123|161:36,1,165,0|8,3:0|0:0,0:0:0:0:
240,100,28362,6,0,P|300:77|361:87,1,110,4|8,0:0|0:0,0:0:0:0:
383,111,28801,2,0,P|385:177|409:214,1,110,0|0,0:0|3:0,0:0:0:0:
453,233,29240,1,8,0:0:0:0:
379,298,29533,6,0,B|305:280|305:280|269:300,1,110,0|8,3:0|0:0,0:0:0:0:
253,340,29972,2,0,B|185:361|185:361|138:331,1,110,0|0,0:0|3:0,0:0:0:0:
110,313,30411,1,8,0:0:0:0:
181,243,30704,6,0,P|207:181|175:139,1,110,4|8,0:0|0:0,0:0:0:0:
138,146,31143,2,0,P|111:100|130:50,1,110,0|0,0:0|3:0,0:0:0:0:
175,29,31582,1,8,0:0:0:0:
254,87,31874,6,0,L|367:68,1,110,4|8,0:0|0:0,0:0:0:0:
411,59,32313,1,0,3:0:0:0:
397,157,32606,2,0,L|317:169,2,55,0|8|0,3:0|0:0|3:0,0:0:0:0:
446,151,33045,6,0,B|442:222|442:222|456:251|456:251|451:323,1,165,4|8,0:0|0:0,0:0:0:0:
355,337,33777,1,8,0:0:0:0:
355,337,33923,2,0,L|301:298,1,55,0|0,3:0|3:0,0:0:0:0:
266,281,34216,2,0,P|201:317|125:274,1,165,0|8,0:0|0:0,0:0:0:0:
139,179,34947,2,0,L|208:161,1,55,0|8,3:0|0:0,0:0:0:0:
240,154,35240,1,0,0:0:0:0:
240,154,35386,6,0,P|300:162|343:124,1,110,4|0,0:0|0:0,0:0:0:0:
360,90,35825,2,0,L|478:79,1,110,8|8,0:0|0:0,0:0:0:0:
503,115,36264,2,0,L|482:282,1,165,0|8,3:0|0:0,0:0:0:0:
394,323,36996,1,8,0:0:0:0:
394,323,37143,2,0,L|405:383,2,55,0|0|8,3:0|3:0|0:0,0:0:0:0:
326,250,37728,6,0,P|270:288|208:275,1,110,4|0,0:0|0:0,0:0:0:0:
185,264,38167,1,8,0:0:0:0:
114,193,38460,2,0,L|39:209,2,55,8|0|0,0:0|3:0|3:0,0:0:0:0:
162,183,38899,2,0,B|208:149|208:149|180:91|216:35,1,165,0|8,0:0|0:0,0:0:0:0:
248,14,39484,2,0,L|370:2,1,110,0|8,3:0|0:0,0:0:0:0:
404,90,40069,6,0,L|294:100,2,110,4|8|8,0:0|0:0|0:0,0:0:0:0:
476,157,40947,2,0,L|465:225,1,55,0|0,3:0|3:0,0:0:0:0:
460,260,41240,2,0,P|387:234|347:263,1,110,8|8,0:0|0:0,0:0:0:0:
324,337,41825,2,0,L|263:357,1,55,0|0,3:0|3:0,0:0:0:0:
237,318,42118,2,0,L|184:300,2,55,8|0|4,0:0|3:0|0:0,0:0:0:0:
256,192,47094,12,0,50533,0:0:0:0:
110,292,51630,6,0,B|115:182,1,110,4|0,0:0|3:0,0:0:0:0:
123,133,52069,1,8,0:0:0:0:
205,187,52362,2,0,P|264:209|315:176,1,110,0|8,3:0|0:0,0:0:0:0:
342,159,52801,2,0,P|392:139|440:162,1,110,0|0,3:0|3:0,0:0:0:0:
462,206,53240,1,8,0:0:0:0:
437,302,53533,2,0,P|468:306|507:295,2,55,0|0|8,3:0|3:0|0:0,0:0:0:0:
391,282,53972,6,0,L|280:294,1,110,4|0,3:2|0:0,0:0:0:0:
247,329,54411,2,0,B|199:298|199:298|132:322,1,110,8|0,0:0|3:0,0:0:0:0:
104,336,54850,1,0,3:0:0:0:
76,240,55143,2,0,L|86:99,1,110,0|0,3:0|3:0,0:0:0:0:
85,80,55582,1,8,0:0:0:0:
183,77,55874,2,0,P|183:48|193:19,2,55,0|8|0,3:0|0:0|3:0,0:0:0:0:
282,71,56460,6,0,P|301:136|279:176,1,110,4|8,0:0|0:0,0:0:0:0:
248,206,56899,2,0,L|366:205,1,110,0|0,0:0|0:0,0:0:0:0:
407,203,57338,1,8,0:0:0:0:
496,244,57630,2,0,B|507:298|507:298|462:334,1,110,0|8,3:0|0:0,0:0:0:0:
419,352,58069,1,0,0:0:0:0:
419,352,58216,2,0,L|291:344,1,110,0|8,3:0|0:0,0:0:0:0:
212,365,58801,6,0,B|230:313|230:313|202:249,1,110,4|8,0:0|0:0,0:0:0:0:
185,218,59240,2,0,L|114:213,1,55,0|0,0:0|3:0,0:0:0:0:
172,124,59679,2,0,L|226:127,1,55,8|0,0:0|0:0,0:0:0:0:
268,154,59972,2,0,P|287:99|272:30,1,110,0|8,3:0|0:0,0:0:0:0:
327,33,60411,2,0,P|358:36|396:34,2,55,0|0|8,0:0|3:0|0:0,0:0:0:0:
371,121,60996,6,0,B|405:126|426:111|426:111|437:135|477:146,1,110,4|0,0:0|3:0,0:0:0:0:
492,184,61435,1,8,0:0:0:0:
403,228,61728,2,0,L|406:339,1,110,0|8,3:0|0:0,0:0:0:0:
358,353,62167,2,0,B|316:324|316:324|233:344,1,110,0|0,3:0|3:0,0:0:0:0:
210,348,62606,1,8,0:0:0:0:
122,300,62899,2,0,L|108:358,2,55,0|0|8,3:0|3:0|0:0,0:0:0:0:
160,268,63338,6,0,P|183:217|179:147,1,110,4|0,0:0|3:0,0:0:0:0:
141,136,63777,2,0,P|77:138|59:88,1,110,8|0,0:0|3:0,0:0:0:0:
65,54,64216,1,0,3:0:0:0:
163,44,64508,2,0,L|289:31,1,110,0|0,3:0|3:0,0:0:0:0:
321,26,64947,1,8,0:0:0:0:
398,87,65240,2,0,L|393:159,1,55,0|8,3:0|0:0,0:0:0:0:
346,157,65533,2,0,L|341:229,1,55,0|8,3:0|0:0,0:0:0:0:
294,227,65825,6,0,L|166:222,1,110,4|8,0:0|0:0,0:0:0:0:
137,239,66264,2,0,P|136:175|74:115,1,110,0|0,0:0|0:0,0:0:0:0:
67,120,66704,1,8,0:0:0:0:
129,43,66996,2,0,B|171:57|186:84|186:84|233:41,1,110,0|8,3:0|0:0,0:0:0:0:
249,23,67435,1,0,0:0:0:0:
249,23,67582,2,0,L|381:27,1,110,0|8,3:0|0:0,0:0:0:0:
430,95,68167,6,0,P|438:176|403:207,1,110,4|8,0:0|0:0,0:0:0:0:
383,223,68606,2,0,L|328:220,1,55,0|0,0:0|3:0,0:0:0:0:
244,167,69045,2,0,P|229:226|248:278,1,110,8|0,0:0|3:0,0:0:0:0:
283,300,69484,2,0,L|276:360,1,55,2|2,0:0|0:0,0:0:0:0:
177,360,69923,1,2,0:0:0:0:
78,366,70216,1,8,0:0:0:0:
23,283,70508,6,0,B|12:226|12:226|30:154,1,110,4|8,0:0|0:0,0:0:0:0:
41,129,70947,2,0,L|168:121,1,110,0|0,3:0|3:0,0:0:0:0:
200,119,71386,1,8,0:0:0:0:
285,68,71679,2,0,B|312:122|312:122|281:176,1,110,0|8,0:0|0:0,0:0:0:0:
258,205,72118,2,0,L|265:322,1,110,0|0,3:0|3:0,0:0:0:0:
267,364,72557,1,8,0:0:0:0:
267,364,72704,6,0,B|217:351|217:351|198:361|198:361|139:350,1,110,4|0,0:0|3:0,0:0:0:0:
113,342,73143,1,8,0:0:0:0:
129,244,73435,2,0,P|143:189|117:111,1,110,0|8,0:0|0:0,0:0:0:0:
109,93,73874,2,0,P|166:111|237:96,1,110,4|0,0:0|3:0,0:0:0:0:
258,80,74313,1,8,0:0:0:0:
353,106,74606,2,0,P|360:79|349:44,2,55,0|0|8,3:0|3:0|0:0,0:0:0:0:
297,188,75191,5,4,0:0:0:0:
368,256,75484,1,8,0:0:0:0:
277,296,75777,2,0,L|131:291,1,110,8|8,0:0|0:0,0:0:0:0:
67,290,76362,1,12,0:0:0:0:
51,192,76655,1,8,0:0:0:0:
35,94,76947,2,0,B|99:70|99:70|163:103,1,110,8|8,0:0|0:0,0:0:0:0:
201,163,77533,6,0,P|251:179|324:139,1,110,8|8,0:0|0:0,0:0:0:0:
350,143,77972,1,0,3:0:0:0:
350,143,78118,2,0,L|356:23,1,110,8|8,0:0|0:0,0:0:0:0:
454,33,78704,2,0,L|448:142,1,110,4|8,0:0|3:0,0:0:0:0:
475,184,79143,1,8,3:0:0:0:
475,184,79289,2,0,P|479:263|438:275,1,110,0|8,3:0|0:0,0:0:0:0:
415,288,79728,5,4,0:0:0:0:
339,223,80021,1,0,3:0:0:0:
339,223,80167,2,0,B|291:187|291:187|182:213,1,165,8|0,0:0|3:0,0:0:0:0:
140,223,80752,2,0,L|128:104,1,110,8|0,0:0|0:0,0:0:0:0:
205,50,81338,2,0,P|259:39|319:70,2,110,8|0|8,0:0|0:0|0:0,0:0:0:0:
128,113,82216,5,2,0:0:0:0:
32,138,82508,1,2,0:0:0:0:
36,236,82801,1,2,0:0:0:0:
131,261,83094,1,0,0:0:0:0:
219,216,83386,2,0,L|330:217,1,110,0|0,0:0|0:0,0:0:0:0:
326,316,83972,2,0,L|437:317,1,110,0|0,0:0|0:0,0:0:0:0:
485,317,84411,1,0,0:0:0:0:
