osu file format v14

[General]
AudioFilename: Brand-new World.mp3
AudioLeadIn: 1000
PreviewTime: 50972
Countdown: 0
SampleSet: Soft
StackLeniency: 0.7
Mode: 0
LetterboxInBreaks: 0
WidescreenStoryboard: 0

[Editor]
Bookmarks: 88874
DistanceSpacing: 2.5
BeatDivisor: 4
GridSize: 32
TimelineZoom: 2.4

[Metadata]
Title:Brand-new World
TitleUnicode:Brand-new World
Artist:Shiena Nishizawa
ArtistUnicode:西沢幸奏
Creator:Enjoy
Version:Extra
Source:学戦都市アスタリスク
Tags:THE ASTERISK WAR The Academy City on the Water Gakusen Toshi Asterisk tv size opening op -_E_n_j_u_- enju Bearizm Hakurei Yoru toybot litoluna Asahina Momoko M_o_k_o_r_i mokori Kawaiwkyik Rizia
BeatmapID:965543
BeatmapSetID:450015

[Difficulty]
HPDrainRate:6.5
CircleSize:4
OverallDifficulty:8.3
ApproachRate:9.3
SliderMultiplier:1.7
SliderTickRate:1

[Events]
//Background and Video events
Video,0,"video.flv"
0,0,"MeyrinkEdit.jpg",0,0
//Break Periods
//Storyboard Layer 0 (Background)
//Storyboard Layer 1 (Fail)
//Storyboard Layer 2 (Pass)
//Storyboard Layer 3 (Foreground)
//Storyboard Sound Samples

[TimingPoints]
265,292.682926829268,4,2,0,40,1,0
265,-166.666666666667,4,2,0,40,0,0
4069,-76.9230769230769,4,2,1,60,0,0
4508,-76.9230769230769,4,2,0,60,0,0
4582,-76.9230769230769,4,2,0,5,0,0
4655,-76.9230769230769,4,2,0,60,0,0
4728,-76.9230769230769,4,2,0,5,0,0
4801,-100,4,2,1,90,0,0
14313,-133.333333333333,4,2,0,30,0,0
23679,-111.111111111111,4,2,1,70,0,0
41899,-111.111111111111,4,2,1,5,0,0
41972,-111.111111111111,4,2,1,70,0,0
42045,-111.111111111111,4,2,1,5,0,0
42118,-111.111111111111,4,2,1,70,0,0
42411,-200,4,2,1,50,0,0
50533,-133.333333333333,4,2,1,5,0,0
51045,-133.333333333333,4,2,1,30,0,0
51630,-100,4,2,1,90,0,1
70216,-80,4,2,1,90,0,1
70508,-100,4,2,1,90,0,1
77533,-80,4,2,1,90,0,1
79728,-100,4,2,1,80,0,0

[Colours]
Combo1 : 128,64,64
Combo2 : 255,128,128
Combo3 : 0,128,0
Combo4 : 0,64,128

[HitObjects]
179,28,265,6,0,B|188:99,2,50.9999984436036,2|0|0,0:0|0:0|0:0,0:0:0:0:
296,106,704,2,0,B|289:156,2,50.9999984436036,2|0|0,0:0|0:0|0:0,0:0:0:0:
149,182,1143,2,0,B|158:253,1,50.9999984436036,2|0,0:0|0:0,0:0:0:0:
234,301,1435,5,2,0:0:0:0:
234,301,1582,2,0,P|275:293|308:295,2,50.9999984436036
70,243,2021,2,0,L|62:307,1,50.9999984436036,2|0,0:0|0:0,0:0:0:0:
139,371,2313,2,0,L|145:320,1,50.9999984436036,2|0,0:0|0:0,0:0:0:0:
211,195,2606,6,0,P|254:211|322:186,1,101.999996887207,2|0,0:0|0:0,0:0:0:0:
378,132,3045,2,0,L|371:24,1,101.999996887207,2|0,0:0|0:0,0:0:0:0:
255,68,3484,2,0,L|259:126,1,50.9999984436036,2|0,0:0|0:0,0:0:0:0:
379,237,3777,5,2,0:0:0:0:
244,263,3923,1,0,0:0:0:0:
378,132,4069,6,0,B|396:188|396:188|374:250,1,110.499994941712,2|0,0:0|0:0,0:0:0:0:
379,237,4508,6,0,L|323:252,1,55.2499974708558,4|0,0:3|0:0,0:0:0:0:
233,275,4655,2,0,L|177:290,1,55.2499974708558,4|0,0:3|0:0,0:0:0:0:
48,178,4801,6,0,P|158:117|205:142,1,170,6|2,0:0|0:0,0:0:0:0:
221,288,5240,2,0,L|138:308,1,85,8|2,0:0|0:0,0:0:0:0:
267,168,5533,1,2,0:0:0:0:
381,305,5679,2,0,P|399:268|402:197,1,85,0|8,3:0|0:0,0:0:0:0:
318,62,5972,1,2,0:0:0:0:
254,195,6118,5,0,3:0:0:0:
419,122,6264,1,2,0:0:0:0:
239,221,6411,1,8,0:0:0:0:
381,305,6557,1,2,0:0:0:0:
381,305,6630,1,2,0:0:0:0:
381,305,6704,2,0,P|388:264|399:217,1,85,0|0,0:0|3:0,0:0:0:0:
265,56,6996,2,0,P|274:98|279:140,1,85,10|0,0:0|0:0,0:0:0:0:
96,87,7289,6,0,P|31:117|25:215,1,170,2|10,3:2|0:0,0:0:0:0:
140,313,7728,1,2,0:0:0:0:
237,207,7874,1,2,0:0:0:0:
97,171,8021,1,0,3:0:0:0:
306,275,8167,2,0,L|320:179,1,85,8|2,0:0|0:0,0:0:0:0:
175,110,8460,5,0,3:0:0:0:
335,72,8606,1,2,0:0:0:0:
158,0,8752,1,8,0:0:0:0:
237,207,8899,1,2,3:2:0:0:
237,207,8972,1,2,0:0:0:0:
237,207,9045,2,0,P|250:169|255:108,1,85,0|0,0:0|3:0,0:0:0:0:
77,249,9338,2,0,P|82:291|96:332,1,85,10|0,0:0|0:0,0:0:0:0:
344,300,9630,6,0,B|292:275|292:275|179:308,1,170,6|10,0:0|0:0,0:0:0:0:
78,149,10069,1,0,0:0:0:0:
237,207,10216,1,2,0:0:0:0:
56,164,10362,1,0,3:0:0:0:
181,20,10508,2,0,P|183:70|173:115,1,85,8|2,0:0|0:0,0:0:0:0:
77,249,10801,5,0,3:0:0:0:
237,207,10947,1,2,0:0:0:0:
77,249,11094,2,0,L|86:355,1,85,8|2,0:0|0:0,0:0:0:0:
166,131,11386,1,2,0:0:0:0:
241,291,11533,2,0,L|288:283,1,42.5,2|2,3:2|0:0,0:0:0:0:
361,269,11679,2,0,B|379:228|379:228|355:180,1,85,8|0,0:0|0:0,0:0:0:0:
270,31,11972,5,6,0:0:0:0:
361,269,12264,1,6,0:0:0:0:
93,145,12557,1,6,0:0:0:0:
240,368,12850,2,0,B|257:339|257:339|237:278,1,85,6|2,0:0|0:0,0:0:0:0:
19,213,13143,5,2,3:2:0:0:
201,165,13289,1,2,3:2:0:0:
115,330,13435,1,2,3:2:0:0:
83,118,13582,1,2,3:2:0:0:
290,132,13728,2,0,L|286:184,3,42.5,2|2|2|2,0:0|0:0|0:0|0:0,0:0:0:0:
282,181,14313,6,0,P|252:267|270:295,1,127.500004863739,2|0,0:0|0:0,0:0:0:0:
344,142,14752,2,0,L|204:156,1,127.500004863739,2|0,0:0|0:0,0:0:0:0:
123,256,15191,2,0,L|189:249,1,63.7500024318696,2|0,0:0|0:0,0:0:0:0:
53,167,15484,1,0,0:0:0:0:
53,167,15777,6,0,P|20:243|32:306,1,127.500004863739,0|2,0:0|0:0,0:0:0:0:
97,342,16216,1,0,0:0:0:0:
97,342,16362,2,0,L|184:333,1,63.7500024318696,0|0,0:0|0:0,0:0:0:0:
232,249,16655,6,0,P|236:185|244:122,1,127.500004863739,2|0,0:0|0:0,0:0:0:0:
373,91,17094,2,0,P|368:154|360:217,1,127.500004863739,2|0,0:0|0:0,0:0:0:0:
437,285,17533,2,0,L|515:271,1,63.7500024318696,0|0,0:0|0:0,0:0:0:0:
402,164,17825,6,0,P|342:152|292:223,1,127.500004863739
329,297,18264,2,0,L|253:289,1,63.7500024318696
179,314,18557,1,0,0:0:0:0:
116,197,18704,2,0,L|109:285,1,63.7500024318696,2|0,0:0|0:0,0:0:0:0:
206,213,18996,6,0,L|217:58,1,127.500004863739,2|0,0:0|0:0,0:0:0:0:
295,193,19435,2,0,L|305:66,1,127.500004863739,2|0,0:0|0:0,0:0:0:0:
391,43,19874,1,0,0:0:0:0:
391,43,20167,6,0,P|441:92|499:89,1,127.500004863739
397,154,20606,2,0,P|384:235|377:296,1,127.500004863739
446,338,21045,2,0,L|514:329,1,63.7500024318696,2|0,0:0|0:0,0:0:0:0:
434,222,21338,6,0,L|294:242,1,127.500004863739,2|0,0:0|0:0,0:0:0:0:
226,203,21777,1,0,0:0:0:0:
226,203,21923,2,0,L|211:329,1,127.500004863739,2|0,0:0|0:0,0:0:0:0:
96,223,22508,6,0,P|22:239|0:295,2,127.500004863739,2|0|2,0:0|0:0|0:0,0:0:0:0:
103,233,23386,1,4,0:3:0:0:
110,243,23679,6,0,L|185:230,1,76.4999976654053,6|0,0:0|0:0,0:0:0:0:
81,333,23972,1,8,0:0:0:0:
261,272,24118,2,0,P|272:228|252:176,1,76.4999976654053,2|0,0:0|0:0,0:0:0:0:
170,127,24411,1,0,3:0:0:0:
362,177,24557,2,0,L|462:156,1,76.4999976654053,10|0,0:0|0:0,0:0:0:0:
265,198,24850,6,0,B|270:251|270:251|256:293|256:293|263:360,1,152.999995330811,0|10,3:0|0:0,0:0:0:0:
398,271,25289,1,0,0:0:0:0:
362,177,25435,2,0,P|352:117|369:80,1,76.4999976654053,2|0,0:0|3:0,0:0:0:0:
477,241,25728,2,2,P|482:278|470:314,1,76.4999976654053,8|2,0:0|0:0,0:0:0:0:
305,290,26021,6,0,B|267:280|267:280|222:290,1,76.4999976654053,2|0,3:0|0:0,0:0:0:0:
77,189,26313,2,0,B|115:199|115:199|151:190,1,76.4999976654053,10|0,0:0|0:0,0:0:0:0:
136,325,26606,1,2,0:0:0:0:
233,194,26752,1,0,3:2:0:0:
56,285,26899,1,10,0:0:0:0:
223,368,27045,1,0,0:0:0:0:
115,199,27191,6,0,P|105:161|124:115,1,76.4999976654053,2|0,3:2|0:0,0:0:0:0:
294,70,27484,1,10,0:0:0:0:
185,38,27630,2,0,L|104:34,1,76.4999976654053,2|0,3:2|0:0,0:0:0:0:
233,194,27923,1,2,3:2:0:0:
376,106,28069,2,0,P|384:69|372:28,1,76.4999976654053,10|0,0:0|0:0,0:0:0:0:
327,215,28362,5,6,0:0:0:0:
459,157,28508,1,0,0:0:0:0:
326,300,28655,1,10,0:0:0:0:
484,369,28801,1,0,0:0:0:0:
313,326,28947,1,2,0:0:0:0:
473,261,29094,1,0,3:0:0:0:
376,106,29240,1,10,0:0:0:0:
384,84,29533,5,2,3:2:0:0:
215,179,29679,1,0,0:0:0:0:
407,199,29825,1,10,0:0:0:0:
236,291,29972,1,0,0:0:0:0:
264,70,30118,1,2,0:0:0:0:
328,257,30264,1,0,3:0:0:0:
123,219,30411,1,10,0:0:0:0:
128,247,30704,5,6,0:0:0:0:
105,99,30850,1,0,0:0:0:0:
132,270,30996,1,10,0:0:0:0:
109,122,31142,1,0,0:0:0:0:
40,274,31289,1,0,0:0:0:0:
229,217,31435,1,0,3:0:0:0:
94,361,31582,1,10,0:0:0:0:
38,178,31728,1,2,0:0:0:0:
229,217,31874,6,0,P|237:181|221:120,1,76.4999976654053,6|0,0:0|0:0,0:0:0:0:
135,295,32167,1,10,0:0:0:0:
331,261,32313,2,2,L|413:258,1,76.4999976654053,2|2,3:0|3:0,0:0:0:0:
221,312,32606,1,2,3:2:0:0:
344,171,32752,1,10,0:0:0:0:
397,352,32899,1,2,3:0:0:0:
229,217,33045,6,0,P|220:176|229:127,1,76.4999976654053,6|2,0:0|3:2,0:0:0:0:
344,171,33338,1,0,0:0:0:0:
221,312,33484,2,0,B|172:289|172:289|82:330,1,152.999995330811,10|10,0:0|0:0,0:0:0:0:
38,178,33923,2,0,P|80:202|125:192,1,76.4999976654053,2|0,3:0|3:0,0:0:0:0:
7,280,34216,5,2,0:0:0:0:
97,120,34362,2,0,L|94:24,1,76.4999976654053,10|0,0:0|0:0,0:0:0:0:
276,76,34655,2,0,L|273:160,1,76.4999976654053,10|0,0:0|3:0,0:0:0:0:
269,291,34947,5,0,3:0:0:0:
187,140,35094,1,10,0:0:0:0:
156,316,35240,1,2,0:0:0:0:
327,226,35386,5,4,0:0:0:0:
328,361,35533,2,0,P|359:293|328:227,1,152.999995330811,2|10,3:2|0:0,3:0:0:0:
229,217,35972,2,0,L|148:216,1,76.4999976654053,0|10,0:0|0:0,0:0:0:0:
240,342,36264,1,2,3:0:0:0:
77,282,36411,2,0,P|57:250|53:212,1,76.4999976654053,2|0,3:0|0:0,0:0:0:0:
186,72,36704,2,0,P|183:109|166:143,1,76.4999976654053,10|0,0:0|0:0,0:0:0:0:
53,212,36996,1,10,0:0:0:0:
166,143,37143,5,0,3:0:0:0:
249,242,37289,1,0,3:0:0:0:
332,341,37435,1,10,0:0:0:0:
332,341,37728,5,6,0:0:0:0:
168,298,37874,2,0,L|170:206,1,76.4999976654053,2|0,3:2|0:0,0:0:0:0:
326,109,38167,2,0,B|323:175|323:175|337:209|337:209|335:260,1,152.999995330811,10|8,0:0|0:0,0:0:0:0:
166,143,38606,2,0,B|205:150|205:150|241:136,1,76.4999976654053,2|0,3:0|3:0,0:0:0:0:
81,55,38899,5,2,0:0:0:0:
42,170,39045,2,0,L|48:251,1,76.4999976654053,10|0,0:0|0:0,0:0:0:0:
219,335,39338,2,0,L|224:258,1,76.4999976654053,10|2,0:0|3:0,0:0:0:0:
124,357,39630,1,2,3:0:0:0:
312,318,39777,1,10,0:0:0:0:
139,228,39923,1,2,0:0:0:0:
299,111,40069,5,6,0:0:0:0:
299,111,40216,1,2,3:2:0:0:
413,223,40362,2,0,L|328:212,1,76.4999976654053,10|0,0:0|0:0,0:0:0:0:
426,75,40655,2,0,L|501:65,1,76.4999976654053,10|0,0:0|0:0,0:0:0:0:
507,281,40947,5,2,3:2:0:0:
507,281,41094,1,2,3:2:0:0:
337,213,41240,2,0,L|324:302,1,76.4999976654053,10|0,0:0|0:0,0:0:0:0:
199,106,41533,2,0,L|212:195,1,76.4999976654053,10|0,0:0|0:0,0:0:0:0:
231,355,41825,5,0,3:0:0:0:
337,213,41972,1,0,3:0:0:0:
121,264,42118,5,10,0:0:0:0:
325,288,42264,1,0,3:0:0:0:
24,199,42411,5,6,0:0:0:0:
299,111,42996,2,0,B|338:97|381:107|381:107|361:48|331:34,2,170,2|0|0,0:0|0:0|0:0,0:0:0:0:
79,58,44752,6,0,B|63:106|80:155|80:155|20:203,2,170,2|0|0,0:0|0:0|0:0,0:0:0:0:
254,284,46508,1,0,0:0:0:0:
254,284,47094,6,0,P|279:247|261:202,1,85,2|0,0:0|0:0,0:0:0:0:
139,183,47679,2,0,P|107:160|133:121,1,85
257,63,48264,2,0,P|306:66|339:101,1,85
426,273,48850,5,2,0:0:0:0:
426,273,48996,2,0,L|436:173,1,85
256,192,49435,12,0,50533,0:0:0:0:
128,232,51045,6,0,L|118:154,2,63.7500024318696,2|0|2,0:0|0:0|0:0,0:0:0:0:
128,232,51630,6,0,P|233:218|310:210,1,170,6|2,0:0|3:2,0:0:0:0:
128,75,52069,1,10,0:0:0:0:
247,139,52216,1,0,0:0:0:0:
129,153,52362,1,2,3:2:0:0:
259,25,52508,1,0,3:0:0:0:
235,238,52655,1,10,0:0:0:0:
434,104,52801,6,0,P|390:109|330:121,1,85,2|0,3:2|0:0,0:0:0:0:
290,305,53094,2,0,P|334:300|394:288,1,85,2|8,3:2|0:0,0:0:0:0:
244,155,53386,1,2,0:0:0:0:
374,292,53533,1,0,3:0:0:0:
175,322,53679,1,2,3:2:0:0:
340,199,53825,1,8,0:0:0:0:
149,115,53972,1,6,3:2:0:0:
34,272,54118,6,0,P|165:229|197:260,1,170,2|8,0:0|0:0,0:0:0:0:
338,367,54557,2,0,P|295:361|240:361,1,85,2|0,0:0|3:0,0:0:0:0:
120,302,54850,1,2,3:2:0:0:
268,256,54996,1,8,0:0:0:0:
136,132,55143,6,0,L|118:320,1,170,2|0,3:2|3:0,0:0:0:0:
313,180,55582,2,0,P|257:168|214:185,1,85,10|0,0:0|0:0,0:0:0:0:
438,172,55874,2,0,P|455:144|461:87,1,85,2|8,3:2|0:0,0:0:0:0:
268,256,56167,1,2,3:2:0:0:
371,108,56313,1,8,0:0:0:0:
512,287,56460,6,0,P|465:264|367:332,1,170,6|10,0:0|0:0,0:0:0:0:
220,367,56899,1,2,0:0:0:0:
220,367,57045,1,0,3:0:0:0:
313,180,57191,1,2,0:0:0:0:
452,349,57338,1,8,0:0:0:0:
273,292,57484,1,2,0:0:0:0:
402,139,57630,5,0,3:0:0:0:
228,218,57777,1,2,0:0:0:0:
437,249,57923,1,8,0:0:0:0:
286,86,58069,1,2,0:0:0:0:
196,292,58216,2,0,P|188:343|186:380,1,85,2|0,3:2|0:0,0:0:0:0:
60,180,58508,2,0,P|57:137|50:95,1,85,10|0,0:0|0:0,0:0:0:0:
251,8,58801,6,0,P|237:112|228:193,1,170,6|8,0:0|0:0,0:0:0:0:
425,268,59240,2,0,P|421:229|412:177,1,85,2|0,0:0|3:0,0:0:0:0:
332,282,59533,1,2,0:0:0:0:
487,105,59679,2,0,P|440:98|390:85,1,85,10|0,0:0|0:0,0:0:0:0:
231,160,59972,5,0,3:2:0:0:
337,46,60118,1,0,0:0:0:0:
253,246,60264,1,10,0:0:0:0:
208,72,60411,1,2,0:0:0:0:
208,72,60484,1,2,0:0:0:0:
208,72,60557,1,0,3:0:0:0:
263,288,60704,1,8,0:0:0:0:
382,137,60850,1,8,0:0:0:0:
156,184,60996,6,0,P|45:161|-9:143,1,170,6|0,0:0|3:0,0:0:0:0:
191,344,61435,2,0,P|244:332|282:329,1,85,10|0,0:0|0:0,0:0:0:0:
68,206,61728,1,2,3:2:0:0:
274,329,61874,1,0,3:0:0:0:
104,375,62021,1,10,0:2:0:0:
244,212,62167,6,0,P|253:127|260:42,1,170,2|0,3:2|3:0,0:0:0:0:
351,231,62606,1,10,0:0:0:0:
445,106,62752,1,2,0:0:0:0:
445,106,62825,1,2,0:0:0:0:
445,106,62899,1,0,3:0:0:0:
341,264,63045,1,2,3:2:0:0:
256,59,63191,1,8,0:0:0:0:
102,198,63338,6,0,P|209:181|285:172,1,170,6|0,0:0|3:0,0:0:0:0:
145,322,63777,1,10,0:0:0:0:
178,98,63923,1,2,0:0:0:0:
325,330,64069,1,0,3:0:0:0:
175,222,64216,1,2,3:2:0:0:
369,132,64362,1,8,0:0:0:0:
230,329,64508,6,0,P|146:322|45:317,1,170,2|0,3:2|3:0,0:0:0:0:
26,129,64947,2,0,P|69:122|116:111,1,85,10|2,0:0|0:0,0:0:0:0:
136,120,65167,2,0,L|128:171,1,42.5,2|0,0:0|3:0,0:0:0:0:
32,24,65386,1,10,0:0:0:0:
121,244,65533,1,0,3:0:0:0:
248,78,65679,1,10,0:0:0:0:
118,256,65825,6,0,L|219:244,1,85,6|0,0:0|0:0,0:0:0:0:
397,138,66118,2,0,L|296:126,1,85,10|2,0:0|0:0,0:0:0:0:
337,316,66411,2,0,P|343:273|347:225,1,85,0|2,3:0|0:0,0:0:0:0:
153,62,66704,2,0,P|156:104|162:146,1,85,8|2,0:0|0:0,0:0:0:0:
397,138,66996,5,0,3:0:0:0:
202,245,67143,1,2,0:0:0:0:
162,259,67216,1,2,0:0:0:0:
123,246,67289,1,8,0:0:0:0:
346,231,67435,1,0,0:0:0:0:
162,146,67582,2,0,P|156:104|153:62,1,85,2|0,3:2|0:0,0:0:0:0:
40,300,67874,2,0,P|41:257|45:215,1,85,10|0,0:0|0:0,0:0:0:0:
371,206,68167,6,0,P|294:237|218:204,1,170,6|8,0:0|0:0,0:0:0:0:
289,50,68606,1,2,0:0:0:0:
289,50,68679,1,2,0:0:0:0:
289,50,68752,2,0,B|302:94|302:94|292:135,1,85,0|0,3:0|0:0,0:0:0:0:
87,233,69045,1,8,0:0:0:0:
208,105,69191,1,2,3:0:0:0:
266,274,69338,5,2,3:0:0:0:
109,109,69484,1,2,0:0:0:0:
116,67,69557,1,2,0:0:0:0:
140,33,69630,1,2,0:0:0:0:
176,11,69704,1,2,0:0:0:0:
218,7,69777,1,2,0:0:0:0:
258,20,69850,1,2,0:0:0:0:
289,50,69923,6,0,L|277:117,1,42.5,2|2,0:0|0:0,0:0:0:0:
368,250,70069,2,0,L|375:208,1,42.5,2|2,0:0|0:0,0:0:0:0:
510,106,70216,6,0,P|399:106|362:48,1,159.375,8|0,0:0|0:0,0:0:0:0:
363,59,70508,5,6,0:0:0:0:
279,197,70655,1,0,3:0:0:0:
63,101,70801,2,0,P|114:93|151:85,1,85,10|0,0:0|3:0,0:0:0:0:
290,280,71094,1,0,0:0:0:0:
473,176,71240,2,0,P|430:174|370:166,1,85,2|8,3:2|0:0,0:0:0:0:
198,262,71533,1,6,0:0:0:0:
263,115,71679,5,2,0:0:0:0:
368,250,71825,1,0,3:0:0:0:
420,37,71972,1,10,0:0:0:0:
279,197,72118,1,2,3:2:0:0:
507,252,72264,1,0,0:0:0:0:
375,135,72411,1,2,3:2:0:0:
389,337,72557,1,8,0:0:0:0:
198,262,72704,6,0,P|107:209|31:228,1,170,6|0,0:0|3:0,0:0:0:0:
211,357,73143,2,0,L|303:349,1,85,10|2,0:0|3:2,0:0:0:0:
95,319,73435,1,2,0:0:0:0:
140,136,73582,1,0,3:0:0:0:
280,262,73728,1,10,0:0:0:0:
47,219,73874,6,0,P|17:157|61:41,1,170,6|0,0:0|3:0,0:0:0:0:
179,222,74313,1,10,0:0:0:0:
303,113,74460,2,0,L|360:104,2,42.5,2|2|0,3:2|0:0|3:0,3:0:0:0:
140,136,74752,1,0,3:0:0:0:
295,196,74899,2,0,B|317:256|317:256|302:318,1,127.5,10|0,0:0|0:0,0:0:0:0:
305,330,75191,5,12,3:2:0:0:
173,240,75338,1,0,3:0:0:0:
307,342,75484,5,8,0:0:0:0:
223,132,75630,1,0,3:0:0:0:
309,354,75777,5,8,0:0:0:0:
327,95,75923,1,0,3:0:0:0:
487,299,76069,2,0,B|445:286|445:286|389:298,1,85,8|0,0:0|3:0,0:0:0:0:
198,348,76362,5,12,3:2:0:0:
322,198,76508,1,0,3:0:0:0:
136,250,76655,5,8,0:0:0:0:
372,302,76801,1,0,3:0:0:0:
203,143,76947,5,8,0:0:0:0:
296,360,77094,1,0,3:0:0:0:
415,156,77240,2,0,P|426:102|395:67,1,85,8|0,0:0|3:0,0:0:0:0:
203,143,77533,6,0,P|205:179|202:212,3,53.125,12|0|0|0,3:2|0:0|3:0|0:0,0:0:0:0:
66,76,77825,2,0,P|66:50|69:24,3,53.125,8|0|0|0,0:0|0:0|3:0|0:0,0:0:0:0:
40,229,78118,6,0,P|68:217|106:211,1,53.125,8|0,0:0|0:0,0:0:0:0:
197,336,78264,2,0,P|170:330|147:320,1,53.125,0|0,3:0|0:0,0:0:0:0:
282,154,78411,2,0,P|286:182|288:230,1,53.125,8|0,0:0|0:0,0:0:0:0:
396,284,78557,2,0,P|390:312|382:336,1,53.125,0|0,3:0|0:0,0:0:0:0:
196,227,78704,5,12,3:2:0:0:
363,98,78850,1,0,3:0:0:0:
363,98,78923,1,0,0:0:0:0:
363,98,78996,2,0,L|374:13,1,53.125,8|0,3:0|0:0,0:0:0:0:
202,142,79143,2,0,L|191:57,1,53.125,8|0,3:0|0:0,0:0:0:0:
397,189,79289,5,0,3:0:0:0:
397,189,79362,1,0,3:0:0:0:
397,189,79435,2,0,L|390:257,1,53.125,0|0,3:0|3:0,0:0:0:0:
383,336,79582,1,8,0:0:0:0:
504,128,79728,6,0,B|440:158|440:158|337:129,1,170,6|0,0:0|3:0,0:0:0:0:
172,53,80167,2,0,P|180:95|184:138,1,85,10|0,0:0|0:0,0:0:0:0:
211,349,80460,2,0,P|217:296|230:250,1,85,2|0,0:0|3:0,0:0:0:0:
344,131,80752,1,10,0:0:0:0:
144,224,80899,6,0,B|99:215|86:173|86:173|57:214|61:275,1,170,2|2,0:0|0:0,0:0:0:0:
211,349,81338,2,0,L|307:342,1,85,10|2,0:0|0:0,0:0:0:0:
344,131,81630,5,2,0:0:0:0:
407,257,81777,1,0,3:0:0:0:
263,153,81923,2,0,P|267:88|316:46,1,127.5,10|0,0:0|0:0,0:0:0:0:
336,40,82216,5,2,0:0:0:0:
296,241,82362,1,2,0:0:0:0:
154,94,82508,5,2,0:0:0:0:
248,351,82655,1,2,0:0:0:0:
344,131,82801,5,2,0:0:0:0:
167,232,82947,1,2,0:0:0:0:
167,232,83021,1,2,0:0:0:0:
167,232,83094,2,2,L|65:226,1,85,0|2,0:0|0:0,0:0:0:0:
296,241,83386,6,0,L|300:288,1,42.5
413,226,83533,2,0,L|417:273,1,42.5
340,88,83679,6,0,L|344:135,1,42.5
457,73,83826,2,0,L|461:120,1,42.5
413,226,83972,6,0,L|339:235,1,42.5
296,241,84118,2,0,L|253:246,1,42.5
179,256,84264,5,0,0:0:0:0:
413,226,84411,1,0,0:0:0:0:
