osu file format v14

[General]
AudioFilename: Brand-newEdit.mp3
AudioLeadIn: 2500
PreviewTime: 50734
Countdown: 0
SampleSet: Soft
StackLeniency: 0.7
Mode: 0
LetterboxInBreaks: 0
WidescreenStoryboard: 0

[Editor]
Bookmarks: 4343,84246
DistanceSpacing: 1.1
BeatDivisor: 4
GridSize: 4
TimelineZoom: 2.2

[Metadata]
Title:Brand-new World
TitleUnicode:Brand-new World
Artist:Shiena Nishizawa
ArtistUnicode:西沢幸奏
Creator:Depths
Version:Sekai's Easy
Source:学戦都市アスタリスク
Tags:Gakusen Toshi Asterisk Kibbleru Crystal Sekai-nyan Sekai Meyrink pkk pkmnyab The Academy City on the water The Asterisk War opening tv size
BeatmapID:795497
BeatmapSetID:361045

[Difficulty]
HPDrainRate:2
CircleSize:3
OverallDifficulty:2
ApproachRate:2.5
SliderMultiplier:0.8
SliderTickRate:1

[Events]
//Background and Video events
0,0,"red.jpg",0,0
Video,-381,"AsteriskOP.flv"
//Break Periods
//Storyboard Layer 0 (Background)
//Storyboard Layer 1 (Fail)
//Storyboard Layer 2 (Pass)
//Storyboard Layer 3 (Foreground)
//Storyboard Sound Samples

[TimingPoints]
100,292.682926829268,4,2,0,45,1,0
4343,-100,4,2,1,60,0,0
14148,-100,4,2,0,30,0,0
18830,-100,4,2,0,30,0,0
23221,-100,4,2,0,30,0,0
23513,-100,4,2,0,30,0,0
23514,-100,4,2,2,55,0,0
23806,-100,4,2,1,55,0,0
24685,-100,4,2,1,55,0,0
25856,-100,4,2,1,40,0,0
28124,-100,4,2,1,20,0,0
28197,-100,4,2,1,55,0,0
37562,-100,4,2,1,55,0,0
42246,-100,4,2,1,40,0,0
51465,-100,4,2,2,80,0,1
51539,-100,4,2,1,80,0,1
58636,-100,4,2,1,80,0,1
70343,-100,4,2,1,80,0,1
75026,-100,4,2,1,80,0,1
79563,-100,4,2,1,65,0,0

[Colours]
Combo1 : 192,192,192
Combo2 : 243,114,182
Combo3 : 252,105,105

[HitObjects]
60,192,4343,6,0,B|104:192|104:192|144:204,1,80,0|4,1:0|0:0,0:0:0:0:
256,264,5075,2,0,B|256:212|256:212|268:168|268:168|268:88,1,160,10|8,0:0|0:0,0:0:0:0:
384,236,6246,2,0,P|419:230|468:248,1,80,8|2,0:0|0:0,0:0:0:0:
412,316,6831,1,10,0:0:0:0:
324,308,7124,6,0,B|272:316|236:296|236:296|200:272|160:284,1,160,2|2,3:2|0:0,0:0:0:0:
100,336,8002,1,8,0:0:0:0:
64,256,8295,2,0,L|32:176,1,80,0|8,3:0|0:0,0:0:0:0:
124,176,8880,2,0,L|124:92,1,80,2|10,0:0|0:0,0:0:0:0:
212,80,9465,6,0,B|256:80|256:80|296:100|296:100|344:100,2,120,4|0|10,3:2|0:0|0:0,0:0:0:0:
228,168,10636,2,0,B|228:208|228:208|200:248,1,80,0|8,3:0|0:0,0:0:0:0:
292,260,11221,2,0,L|244:328,1,80,2|10,0:0|0:0,0:0:0:0:
328,360,11807,6,0,B|360:328|360:328|412:324,1,80,4|4,3:2|3:2,0:0:0:0:
432,244,12392,2,0,P|408:204|396:156,1,80,4|4,3:2|3:2,0:0:0:0:
408,84,12978,2,0,B|372:100|328:88|328:88|304:112|304:112|248:112|232:152,1,200,2|0,3:2|1:0,0:0:0:0:
108,192,14148,6,0,P|104:256|72:304,2,120,2|2|2,0:0|0:0|0:0,0:0:0:0:
20,192,15319,2,0,B|20:148|20:148|0:104,1,80,0|0,0:0|0:0,0:0:0:0:
84,76,15904,2,0,B|128:76|128:76|160:68|160:68|204:68,2,120
116,156,17075,2,0,B|116:196|116:196|140:236,1,80,0|0,0:0|0:0,0:0:0:0:
204,284,17660,6,0,B|256:260|256:260|320:284,2,120,0|0|0,0:0|0:0|0:0,0:0:0:0:
248,360,18831,2,0,P|184:336|120:344,1,120,2|2,0:0|0:0,0:0:0:0:
60,228,19709,1,0,0:0:0:0:
76,140,20002,2,0,B|112:140|112:140|144:120|144:120|192:120,2,120,0|0|0,0:0|0:0|0:0,0:0:0:0:
60,228,21173,6,0,P|52:268|64:320,1,80,2|0,0:0|0:0,0:0:0:0:
144,292,21758,2,0,P|212:320|284:276,1,160,0|0,0:0|0:0,0:0:0:0:
208,236,22636,1,0,0:0:0:0:
168,160,22929,2,0,L|168:76,1,80,0|4,0:0|3:0,0:0:0:0:
256,60,23514,5,12,3:0:0:0:
324,116,23807,2,0,B|368:116|368:116|404:136,1,80,8|0,0:0|0:0,0:0:0:0:
464,192,24392,1,10,0:0:0:0:
400,252,24685,6,0,B|369:270|369:270|325:270,2,80,0|10|0,3:0|0:0|0:0,0:0:0:0:
340,188,25563,1,10,0:0:0:0:
252,188,25856,6,0,B|236:224|236:224|236:268,1,80,4|8,3:2|0:0,0:0:0:0:
168,320,26441,2,0,P|136:304|92:296,1,80,0|10,0:0|0:0,0:0:0:0:
60,212,27026,2,0,P|28:152|44:88,2,120,2|2|10,3:2|3:2|0:2,0:0:0:0:
112,144,28197,6,0,L|180:84,1,80,4|8,3:2|0:0,0:0:0:0:
260,92,28782,2,0,L|319:144,1,80,0|10,0:0|0:0,0:0:0:0:
408,136,29368,2,0,P|372:160|364:244,2,120,2|2|10,3:2|0:0|0:0,0:0:0:0:
444,216,30539,6,0,P|443:259|377:311,2,120,6|2|8,3:2|0:0|0:0,0:0:0:0:
408,136,31709,2,0,B|368:100|316:108|316:108|308:76|276:56,1,160,4|0,3:2|3:0,0:0:0:0:
224,128,32587,1,0,3:0:0:0:
140,148,32880,6,0,P|80:144|36:100,2,120,2|10|0,3:2|0:0|3:0,0:0:0:0:
204,208,34051,2,0,B|204:272|204:272|168:328,2,120,2|10|8,0:0|0:0|0:0,0:0:0:0:
292,212,35221,2,0,B|292:276|292:276|328:332,2,120,6|10|2,3:2|0:0|3:2,0:0:0:0:
376,236,36392,2,0,L|492:192,1,120,0|8,0:0|0:0,0:0:0:0:
492,104,37124,6,0,B|460:76|428:76|428:76|368:76,1,120,0|4,3:0|3:2,0:0:0:0:
252,96,38002,2,0,L|172:188,1,120,10|0,0:0|3:0,0:0:0:0:
256,220,38734,2,0,B|296:220|296:220|332:236|332:236|372:236,2,120,2|10|8,0:0|0:0|0:0,0:0:0:0:
256,308,39904,6,0,B|216:308|216:308|180:292|180:292|140:292,2,120,4|0|0,3:2|0:0|3:0,0:0:0:0:
344,316,41075,2,0,P|376:308|432:308,1,80,10|10,0:0|0:0,0:0:0:0:
452,224,41660,2,0,P|414:211|379:190,1,80,0|10,3:0|0:0,0:0:0:0:
300,152,42246,5,4,0:0:0:0:
160,256,42831,2,0,P|92:292|24:256,1,160,0|0,0:0|0:0,0:0:0:0:
92,200,43709,1,2,0:0:0:0:
20,148,44002,2,0,P|96:112|160:148,1,160,0|0,0:0|3:0,0:0:0:0:
224,204,44880,5,2,0:0:0:0:
256,120,45173,2,0,L|336:96,1,80,0|2,0:0|0:0,0:0:0:0:
352,184,45758,2,0,L|476:140,2,120,0|0|2,0:0|0:0|0:0,0:0:0:0:
344,272,46929,2,0,P|344:312|320:360,1,80,0|2,3:0|0:0,0:0:0:0:
256,300,47514,2,0,B|224:288|184:296|184:296|136:328|84:300,1,160,0|0,0:0|0:0,0:0:0:0:
124,224,48392,5,2,0:0:0:0:
184,160,48685,2,0,B|184:112|184:112|164:72,1,80,0|0,0:0|0:0,0:0:0:0:
256,64,49270,2,0,P|336:88|412:48,2,160,0|0|0,0:0|0:0|0:0,0:0:0:0:
376,348,51465,6,0,B|320:328|320:328|256:352,1,120,12|10,0:3|0:0,0:0:0:0:
176,352,52197,2,0,P|152:312|152:276,1,80,2|8,3:2|0:0,0:0:0:0:
236,260,52782,2,0,B|236:212|236:212|224:188|224:188|224:140,2,120,0|2|8,0:0|0:0|0:0,0:0:0:0:
324,244,53953,6,0,B|372:244|372:244|412:260,1,80,0|10,0:0|0:0,0:0:0:0:
464,192,54539,2,0,P|468:148|460:104,1,80,0|8,3:0|0:0,0:0:0:0:
408,44,55124,1,0,0:0:0:0:
328,84,55417,2,0,P|256:116|176:76,1,160,10|10,0:0|3:2,0:0:0:0:
132,156,56295,6,0,P|80:156|16:204,2,120,4|2|8,3:2|0:0|0:0,0:0:0:0:
192,220,57465,1,0,3:0:0:0:
256,280,57758,2,0,L|256:364,1,80,8|2,0:0|3:2,0:0:0:0:
344,348,58343,1,10,0:0:0:0:
356,260,58636,6,0,P|372:204|348:140,2,120,4|2|10,3:2|0:0|0:0,0:0:0:0:
288,204,59807,2,0,B|240:204|240:204|208:180,1,80,0|8,3:0|0:0,0:0:0:0:
127,187,60392,6,0,L|148:306,2,120,0|0|0,3:0|0:0|0:0,0:0:0:0:
40,196,61563,2,0,L|60:314,2,120,0|0|0,3:0|0:0|0:0,0:0:0:0:
48,108,62734,1,0,0:0:0:0:
136,104,63026,1,8,0:0:0:0:
144,192,63319,6,0,L|224:192,1,80,0|10,0:0|0:0,0:0:0:0:
312,196,63904,2,0,B|336:156|336:156|336:108,1,80,0|8,3:0|0:0,0:0:0:0:
424,124,64490,1,0,0:0:0:0:
452,208,64782,2,0,B|432:236|436:264|436:264|408:276|408:276|416:324|392:352,1,160,10|2,0:0|3:2,0:0:0:0:
320,304,65660,6,0,L|236:296,2,80,4|8|0,3:2|0:0|3:0,0:0:0:0:
336,216,66539,1,8,0:0:0:0:
336,128,66831,2,0,L|415:120,2,80,0|8|2,3:0|0:0|3:2,0:0:0:0:
252,160,67709,1,10,0:0:0:0:
176,116,68002,6,0,P|112:88|52:108,2,120,4|0|10,3:2|0:0|0:0,0:0:0:0:
108,172,69173,2,0,P|76:248|76:252,1,80,2|10,3:2|0:0,0:0:0:0:
104,328,69758,2,0,L|184:292,1,80,2|0,0:0|3:0,0:0:0:0:
264,272,70343,6,0,B|320:260|320:260|392:272,2,120,4|2|8,3:2|3:2|3:2,0:0:0:0:
256,184,71514,2,0,B|256:120|256:120|276:56,2,120,2|2|8,0:0|3:2|0:0,0:0:0:0:
172,164,72685,2,0,L|172:248,1,80,0|10,0:0|0:0,0:0:0:0:
88,276,73270,2,0,L|88:196,1,80,10|0,0:0|3:0,0:0:0:0:
52,116,73856,2,0,B|80:108|108:112|108:112|124:84|168:72,2,120,0|0|8,0:0|3:0|0:0,0:0:0:0:
88,196,75026,6,0,P|72:268|96:312,2,120,6|2|10,0:0|3:2|0:0,0:0:0:0:
160,248,76197,2,0,B|200:248|200:248|240:276,1,80,4|8,0:0|0:0,0:0:0:0:
320,272,76782,2,0,B|352:249|352:249|392:249,1,80,2|8,0:0|0:0,0:0:0:0:
448,180,77368,6,0,P|456:100|412:36,1,160,2|2,3:2|3:2,0:0:0:0:
324,36,78246,1,2,0:0:0:0:
260,96,78539,2,0,B|212:96|212:96|184:76|184:76|136:76,2,120,0|0|0,3:0|1:0|1:0,0:0:0:0:
260,184,79709,6,0,P|264:212|252:264,1,80,0|10,0:0|0:0,0:0:0:0:
200,332,80295,2,0,L|124:300,1,80,2|8,0:0|0:0,0:0:0:0:
160,220,80880,2,0,L|80:184,2,80,0|8|2,3:0|0:0|0:0,0:0:0:0:
240,256,81758,1,10,0:0:0:0:
288,180,82051,6,0,B|312:120|372:104|461:114|528:143|550:261|509:356|436:372|364:380|320:344|290:280|320:216|372:212|396:220,1,600,2|2,3:2|0:0,0:0:0:0:
