osu file format v14

[General]
AudioFilename: Brand-newEdit.mp3
AudioLeadIn: 2500
PreviewTime: 50734
Countdown: 0
SampleSet: Soft
StackLeniency: 0.7
Mode: 0
LetterboxInBreaks: 0
WidescreenStoryboard: 0

[Editor]
DistanceSpacing: 1.5
BeatDivisor: 4
GridSize: 4
TimelineZoom: 3.199999

[Metadata]
Title:Brand-new World
TitleUnicode:Brand-new World
Artist:Shiena Nishizawa
ArtistUnicode:西沢幸奏
Creator:Depths
Version:Red Lotus
Source:学戦都市アスタリスク
Tags:Gakusen Toshi Asterisk Kibbleru Crystal Sekai-nyan Sekai Meyrink pkk pkmnyab The Academy City on the water The Asterisk War opening tv size
BeatmapID:794348
BeatmapSetID:361045

[Difficulty]
HPDrainRate:6.5
CircleSize:4
OverallDifficulty:9
ApproachRate:9.4
SliderMultiplier:2
SliderTickRate:1

[Events]
//Background and Video events
0,0,"red.jpg",0,0
Video,-381,"AsteriskOP.flv"
//Break Periods
//Storyboard Layer 0 (Background)
//Storyboard Layer 1 (Fail)
//Storyboard Layer 2 (Pass)
//Storyboard Layer 3 (Foreground)
//Storyboard Sound Samples

[TimingPoints]
100,292.682926829268,4,2,0,45,1,0
100,-166.666666666667,4,2,0,45,0,0
978,-166.666666666667,4,2,0,20,0,0
1124,-166.666666666667,4,2,0,45,0,0
1563,-166.666666666667,4,2,0,20,0,0
1709,-166.666666666667,4,2,0,45,0,0
2148,-166.666666666667,4,2,0,30,0,0
2295,-166.666666666667,4,2,0,45,0,0
2441,-166.666666666667,4,2,0,30,0,0
2587,-166.666666666667,4,2,0,45,0,0
3173,-166.666666666667,4,2,0,35,0,0
3319,-166.666666666667,4,2,0,45,0,0
3612,-100,4,2,0,35,0,0
3904,-125,4,2,0,60,0,0
4197,-125,4,2,0,20,0,0
4343,-100,4,2,1,60,0,0
7051,-100,4,2,1,20,0,0
7124,-100,4,2,1,60,0,0
8514,-100,4,2,1,20,0,0
8587,-100,4,2,1,60,0,0
9392,-100,4,2,1,20,0,0
9465,-100,4,2,1,60,0,0
10856,-100,4,2,1,20,0,0
10929,-100,4,2,1,60,0,0
13856,-142.857142857143,4,2,0,60,0,0
14075,-100,4,2,0,20,0,0
14148,-125,4,2,0,30,0,0
16489,-200,4,2,0,30,0,0
17367,-125,4,2,0,30,0,0
18758,-125,4,2,0,20,0,0
18830,-200,4,2,0,30,0,0
19709,-125,4,2,0,30,0,0
20001,-200,4,2,0,30,0,0
21172,-125,4,2,0,30,0,0
22343,-125,4,2,0,40,0,0
23148,-125,4,2,0,20,0,0
23221,-76.9230769230769,4,2,0,30,0,0
23441,-76.9230769230769,4,2,0,30,0,0
23514,-90.9090909090909,4,2,2,55,0,1
23587,-90.9090909090909,4,2,1,55,0,0
23734,-90.9090909090909,4,2,1,20,0,0
23806,-100,4,2,1,55,0,0
24612,-100,4,2,1,20,0,0
24685,-100,4,2,1,55,0,0
25856,-100,4,2,1,40,0,0
26002,-100,4,2,1,55,0,0
26587,-100,4,2,1,55,0,0
28124,-100,4,2,1,20,0,0
28197,-100,4,2,1,55,0,0
37490,-100,4,2,1,20,0,0
37562,-100,4,2,1,55,0,0
42246,-100,4,2,1,40,0,0
42831,-166.666666666667,4,2,0,35,0,0
51392,-166.666666666667,4,2,1,20,0,0
51465,-100,4,2,2,80,0,1
51539,-100,4,2,1,80,0,1
58636,-100,4,2,1,65,0,1
58782,-100,4,2,1,80,0,1
70270,-100,4,2,1,20,0,1
70343,-100,4,2,1,80,0,1
74953,-100,4,2,1,20,0,1
75026,-100,4,2,1,80,0,1
78685,-100,4,2,1,45,0,1
78831,-100,4,2,1,52,0,1
78978,-100,4,2,1,60,0,1
79124,-100,4,2,1,70,0,1
79563,-100,4,2,1,65,0,0

[Colours]
Combo1 : 192,192,192
Combo2 : 243,114,182
Combo3 : 252,105,105

[HitObjects]
112,96,100,6,0,P|176:116|244:92,1,119.999996337891,0|0,0:0|0:0,0:0:0:0:
248,32,539,2,0,P|248:76|320:136,1,119.999996337891,0|0,0:0|0:0,0:0:0:0:
352,48,978,2,0,L|424:36,1,59.9999981689454,8|0,0:0|0:0,0:0:0:0:
296,130,1270,5,0,0:0:0:0:
180,60,1417,1,0,0:0:0:0:
152,164,1563,2,0,L|156:236,1,59.9999981689454,8|0,0:0|0:0,0:0:0:0:
272,296,1856,2,0,L|263:225,1,59.9999981689454,0|0,0:0|0:0,0:0:0:0:
313,168,2148,2,0,P|284:164|260:148,1,59.9999981689454,8|0,0:0|0:0,0:0:0:0:
356,96,2441,6,0,L|368:244,1,119.999996337891,4|0,0:3|0:0,0:0:0:0:
336,288,2880,2,0,P|368:244|448:256,1,119.999996337891,0|4,0:0|0:3,0:0:0:0:
456,364,3319,2,0,P|418:349|405:331,1,59.9999981689454,0|0,3:0|0:0,0:0:0:0:
300,200,3612,1,4,0:3:0:0:
300,200,3758,1,0,0:0:0:0:
32,252,3904,6,0,P|128:244|152:188,1,160,0|0,0:0|0:0,0:0:0:0:
172,100,4343,5,0,1:0:0:0:
176,296,4490,1,0,1:0:0:0:
248,188,4636,6,0,B|288:168|336:200|336:200|384:180|384:180|452:188,1,200,4|0,0:0|3:0,0:0:0:0:
276,272,5075,1,10,0:0:0:0:
304,64,5221,1,0,0:0:0:0:
172,184,5368,2,0,L|180:292,1,100,2|0,0:0|3:0,0:0:0:0:
438,186,5660,2,0,L|432:76,1,100,8|2,0:0|0:0,0:0:0:0:
216,172,5953,5,0,3:0:0:0:
344,232,6099,1,2,0:0:0:0:
252,48,6246,2,0,P|152:56|104:152,1,200,8|2,0:0|0:0,0:0:0:0:
208,232,6685,1,0,3:0:0:0:
36,288,6831,2,0,P|96:280|168:344,1,150,10|0,0:0|0:0,0:0:0:0:
176,344,7124,6,0,L|296:340,1,100,2|0,3:2|0:0,0:0:0:0:
460,228,7417,2,0,L|352:224,1,100,8|0,0:0|0:0,0:0:0:0:
236,96,7709,1,2,0:0:0:0:
188,244,7856,1,0,3:0:0:0:
360,224,8002,1,8,0:0:0:0:
408,56,8148,1,2,0:0:0:0:
196,168,8295,6,0,P|156:112|196:32,1,150,0|0,3:0|0:0,0:0:0:0:
235,99,8587,2,0,B|291:83|343:103,1,100,8|0,0:0|3:0,0:0:0:0:
448,216,8880,1,2,0:0:0:0:
334,100,9026,1,0,3:0:0:0:
316,264,9173,2,0,P|244:312|180:296,1,150,10|0,0:0|0:0,0:0:0:0:
116,240,9465,6,0,P|172:208|212:216,1,100,4|0,3:2|0:0,0:0:0:0:
128,344,9758,2,0,P|78:345|39:316,1,100,8|0,0:0|0:0,0:0:0:0:
108,84,10051,1,2,0:0:0:0:
116,240,10197,1,0,3:0:0:0:
196,148,10343,1,10,0:0:0:0:
24,128,10490,1,2,0:0:0:0:
252,60,10636,6,0,P|300:112|292:192,1,150,0|0,3:0|0:0,0:0:0:0:
256,264,10929,2,0,P|219:230|210:182,1,100,8|0,0:0|0:0,0:0:0:0:
184,48,11221,1,2,0:0:0:0:
120,208,11368,1,0,3:0:0:0:
294,186,11514,1,10,0:0:0:0:
224,328,11660,1,0,0:0:0:0:
480,284,11807,6,0,L|452:172,1,100,4|0,3:2|0:0,0:0:0:0:
392,344,12099,6,0,L|368:244,1,100,4|0,3:2|0:0,0:0:0:0:
48,100,12392,6,0,L|71:197,1,100,4|0,3:2|0:0,0:0:0:0:
135,40,12684,6,0,L|159:137,1,100,4|0,3:2|0:0,0:0:0:0:
296,296,12978,5,2,3:2:0:0:
288,112,13124,1,4,3:0:0:0:
156,244,13270,1,2,3:2:0:0:
344,184,13417,1,4,3:0:0:0:
152,140,13563,2,0,L|164:76,1,50,4|0,1:2|1:0,0:0:0:0:
372,36,13709,2,0,L|380:92,1,50,0|0,1:0|1:0,0:0:0:0:
320,280,13856,6,0,P|264:248|252:184,1,104.999996795654,0|0,0:0|0:0,0:0:0:0:
328,200,14148,6,0,L|432:192,1,80,2|0,0:0|0:0,0:0:0:0:
416,320,14441,1,0,0:0:0:0:
416,320,14587,2,0,P|352:308|264:360,1,160,2|0,0:0|0:0,0:0:0:0:
164,340,15026,1,2,0:0:0:0:
164,340,15319,6,0,P|148:256|200:188,1,160,0|0,0:0|0:0,0:0:0:0:
186,196,15904,1,0,0:0:0:0:
111,62,16197,1,0,0:0:0:0:
111,62,16343,1,0,0:0:0:0:
88,152,16490,6,0,P|88:92|128:52,1,100,2|0,0:0|0:0,0:0:0:0:
116,212,16929,2,0,P|124:168|160:116,1,100,2|0,0:0|0:0,0:0:0:0:
224,204,17368,1,0,0:0:0:0:
204,328,17514,1,0,0:0:0:0:
96,284,17660,6,0,P|44:224|76:128,1,160
132,200,18099,2,0,P|172:240|152:348,1,160
284,264,18539,2,0,P|324:232|412:252,1,120,0|0,0:0|0:0,0:0:0:0:
458,208,18831,6,0,P|460:257|431:297,1,100,2|0,0:0|0:0,0:0:0:0:
431,147,19270,2,0,P|419:195|390:235,1,100,2|0,0:0|0:0,0:0:0:0:
389,235,19709,1,0,0:0:0:0:
240,320,20002,6,0,P|240:291|284:225,1,100,0|0,0:0|0:0,0:0:0:0:
276,231,20441,1,0,0:0:0:0:
344,312,20734,1,0,0:0:0:0:
344,312,20880,1,0,0:0:0:0:
212,224,21173,6,0,P|212:168|308:112,1,160,2|0,0:0|0:0,0:0:0:0:
448,248,21758,2,0,P|400:256|304:208,1,160,0|0,0:0|0:0,0:0:0:0:
328,68,22343,1,0,0:0:0:0:
328,68,22636,2,0,L|432:60,1,80,0|0,0:0|0:0,0:0:0:0:
392,280,22929,2,0,L|264:256,1,120
224,313,23221,6,0,P|206:224|288:184,1,194.999991073609,4|0,3:0|0:0,0:0:0:0:
225,135,23514,6,0,P|214:220|275:257,1,165.000005035401,12|0,3:0|0:0,0:0:0:0:
352,228,23807,1,8,0:0:0:0:
460,348,23953,1,2,0:0:0:0:
325,335,24099,2,0,P|287:305|276:240,1,100,0|0,0:0|3:0,0:0:0:0:
272,120,24392,2,0,P|216:64|128:80,1,150,10|0,0:0|0:0,0:0:0:0:
104,136,24685,6,0,P|48:144|0:128,1,100,0|0,3:0|0:0,0:0:0:0:
208,188,24978,2,0,P|312:200|368:116,1,200,10|0,0:0|0:0,0:0:0:0:
328,348,25417,1,0,3:0:0:0:
148,292,25563,2,0,L|36:276,1,100,10|0,0:0|0:0,0:0:0:0:
20,144,25856,6,0,L|132:128,1,100,4|0,3:2|0:0,0:0:0:0:
264,224,26148,1,8,0:0:0:0:
340,28,26295,2,0,P|384:56|376:196,1,200,2|0,0:0|3:0,0:0:0:0:
224,104,26734,1,10,0:0:0:0:
184,276,26880,1,0,0:0:0:0:
340,28,27026,5,2,3:2:0:0:
224,104,27173,2,0,P|176:112|112:88,1,100,0|8,0:0|0:0,0:0:0:0:
340,28,27465,2,0,P|400:44|432:196,1,200,2|0,3:2|3:0,0:0:0:0:
324,264,27904,2,4,P|312:208|388:128,1,150,10|0,0:2|0:0,0:0:0:0:
416,224,28197,6,0,P|424:296|328:360,1,200,4|8,3:2|0:0,0:0:0:0:
200,168,28636,2,0,P|88:212|104:292,1,200,2|0,0:0|3:0,0:0:0:0:
276,232,29075,2,0,P|308:176|300:128,1,100,10|0,0:0|0:0,0:0:0:0:
40,124,29368,6,0,P|140:160|156:264,1,200,2|8,3:2|0:0,0:0:0:0:
128,66,29807,2,0,P|180:142|153:255,1,200,2|0,0:0|3:0,0:0:0:0:
12,340,30246,1,10,0:0:0:0:
60,168,30392,1,0,0:0:0:0:
404,148,30539,6,0,P|304:184|288:288,1,200,6|8,3:2|0:0,0:0:0:0:
316,90,30978,2,0,P|264:166|291:279,1,200,2|0,0:0|3:0,0:0:0:0:
445,345,31417,1,8,0:0:0:0:
425,165,31563,1,0,0:0:0:0:
224,220,31709,6,0,P|332:208|348:292,1,200,4|8,3:2|0:0,0:0:0:0:
148,244,32148,2,0,P|160:176|196:144,1,100,0|0,3:0|3:0,0:0:0:0:
344,48,32441,1,0,3:0:0:0:
248,224,32587,1,0,3:0:0:0:
196,52,32734,1,0,3:0:0:0:
324,180,32880,5,2,3:2:0:0:
324,180,33026,1,0,3:0:0:0:
216,256,33173,1,0,0:0:0:0:
56,64,33319,6,0,L|48:264,1,200,10|8,0:0|0:0,0:0:0:0:
224,172,33758,1,0,3:0:0:0:
240,336,33904,1,0,3:0:0:0:
132,176,34051,5,2,0:0:0:0:
132,176,34197,1,8,0:0:0:0:
347,228,34343,1,0,0:0:0:0:
332,40,34490,5,10,0:0:0:0:
155,75,34636,2,0,L|51:63,1,100,0|0,3:0|3:0,0:0:0:0:
248,236,34929,2,0,L|360:228,1,100,8|0,0:0|0:0,0:0:0:0:
128,308,35221,5,6,3:2:0:0:
60,220,35368,2,0,P|56:124|136:72,1,200,0|10,3:0|0:0,0:0:0:0:
212,256,35953,1,8,0:0:0:0:
296,144,36099,1,2,3:2:0:0:
296,144,36246,1,0,3:0:0:0:
160,56,36539,6,0,P|72:60|92:160,1,200,10|8,0:0|0:0,0:0:0:0:
332,92,36978,1,2,3:2:0:0:
232,252,37124,1,0,3:0:0:0:
264,60,37270,2,0,P|264:132|340:172,1,150,10|0,0:0|0:0,0:0:0:0:
404,148,37563,6,0,P|400:204|364:244,1,100,4|0,3:2|3:0,0:0:0:0:
192,136,37856,1,0,0:0:0:0:
192,136,38002,1,10,0:0:0:0:
68,324,38295,5,10,0:0:0:0:
228,264,38441,1,0,3:0:0:0:
104,112,38587,1,0,3:0:0:0:
152,328,38734,5,2,0:0:0:0:
196,148,38880,1,8,0:0:0:0:
28,184,39026,1,0,0:0:0:0:
28,184,39173,1,10,0:0:0:0:
188,252,39319,6,0,L|196:144,1,100,0|0,3:0|3:0,0:0:0:0:
52,300,39612,1,8,0:0:0:0:
248,344,39758,1,0,0:0:0:0:
268,172,39904,5,4,3:2:0:0:
268,172,40051,1,0,3:0:0:0:
124,60,40197,5,10,0:0:0:0:
68,252,40343,1,0,0:0:0:0:
124,60,40490,1,10,0:0:0:0:
432,152,40782,5,0,3:0:0:0:
432,152,40929,1,0,3:0:0:0:
356,320,41075,5,10,0:0:0:0:
308,126,41221,1,0,0:0:0:0:
356,320,41368,1,10,0:0:0:0:
168,200,41660,6,0,L|52:192,1,100,0|0,3:0|3:0,0:0:0:0:
220,324,41953,1,10,0:0:0:0:
328,168,42099,1,0,3:0:0:0:
216,80,42246,1,4,0:0:0:0:
128,232,42831,6,0,L|136:156,1,59.9999981689454,0|0,0:0|0:0,0:0:0:0:
216,80,43124,2,0,L|224:152,1,59.9999981689454,2|0,0:0|0:0,0:0:0:0:
276,216,43417,2,0,P|328:196|392:208,2,119.999996337891,0|2|0,0:0|0:0|0:0,0:0:0:0:
188,280,44295,5,2,0:0:0:0:
188,280,44587,2,0,P|136:288|56:256,2,119.999996337891,0|2|0,3:0|0:0|0:0,0:0:0:0:
288,212,45465,2,0,P|348:220|392:280,1,119.999996337891,2|0,0:0|0:0,0:0:0:0:
292,340,46051,1,2,0:0:0:0:
188,280,46343,1,0,0:0:0:0:
288,212,46636,1,2,0:0:0:0:
356,304,46929,6,0,P|400:320|484:292,2,119.999996337891,0|2|0,3:0|0:0|0:0,0:0:0:0:
296,164,47807,1,2,0:0:0:0:
164,156,48099,6,0,P|120:172|36:144,2,119.999996337891,0|2|0,0:0|0:0|0:0,0:0:0:0:
248,88,48831,1,0,0:0:0:0:
256,192,49124,12,0,50441,0:0:0:0:
344,112,50880,5,0,0:0:0:0:
256,280,51026,1,0,0:0:0:0:
188,104,51173,2,0,L|92:100,1,89.9999972534181
28,128,51465,6,0,P|80:132|128:216,1,150,12|0,0:3|0:0,0:0:0:0:
48,204,51758,1,0,3:0:0:0:
256,196,51904,1,10,0:0:0:0:
168,352,52051,1,0,0:0:0:0:
128,209,52197,1,2,3:2:0:0:
128,209,52343,1,0,3:0:0:0:
272,112,52490,1,8,0:0:0:0:
308,276,52636,6,0,L|208:268,1,100,2|0,0:0|3:2,0:0:0:0:
92,120,52929,1,2,3:2:0:0:
160,328,53075,1,8,0:0:0:0:
256,116,53221,1,2,0:0:0:0:
256,116,53295,1,0,0:0:0:0:
256,116,53368,1,0,3:0:0:0:
244,316,53514,1,2,3:2:0:0:
132,240,53660,2,0,P|168:200|220:200,1,100,8|4,0:0|3:2,0:0:0:0:
48,316,53953,6,0,P|24:264|36:216,1,100,0|0,0:0|3:0,0:0:0:0:
148,68,54246,1,10,0:0:0:0:
200,280,54392,1,0,0:0:0:0:
256,92,54539,1,0,3:0:0:0:
48,132,54685,1,2,3:2:0:0:
248,168,54831,2,0,P|296:196|320:240,1,100,8|2,0:0|3:2,0:0:0:0:
208,280,55124,5,0,0:0:0:0:
132,148,55270,1,0,3:0:0:0:
364,64,55417,2,0,L|252:56,1,100,10|0,0:0|0:0,0:0:0:0:
36,240,55709,2,0,L|136:231,1,100,2|0,3:2|0:0,0:0:0:0:
288,144,56002,1,10,3:2:0:0:
340,312,56148,1,0,0:0:0:0:
76,116,56295,5,4,3:2:0:0:
344,60,56441,1,0,0:0:0:0:
160,156,56587,5,8,0:0:0:0:
436,192,56734,1,2,0:0:0:0:
160,48,56880,5,0,3:0:0:0:
268,248,57026,1,2,0:0:0:0:
344,60,57173,2,0,P|400:44|444:48,1,100,8|2,0:0|0:0,0:0:0:0:
240,156,57465,5,0,3:0:0:0:
240,156,57612,2,0,P|296:160|344:188,1,100,2|8,0:0|0:0,0:0:0:0:
108,44,57904,2,0,P|68:100|76:148,1,100,0|2,0:0|3:2,0:0:0:0:
124,320,58197,1,0,0:0:0:0:
172,124,58343,1,10,0:0:0:0:
296,272,58490,1,0,0:0:0:0:
400,48,58636,6,0,L|388:252,1,200,4|8,3:2|0:0,0:0:0:0:
200,180,59075,2,0,L|216:80,1,100,2|0,0:0|3:0,0:0:0:0:
312,48,59368,1,0,0:0:0:0:
72,56,59514,2,0,L|80:160,1,100,10|0,0:0|0:0,0:0:0:0:
224,260,59807,5,0,3:0:0:0:
232,128,59953,1,2,0:0:0:0:
88,264,60099,1,8,0:0:0:0:
308,344,60246,1,2,0:0:0:0:
308,344,60319,1,0,0:0:0:0:
308,344,60392,1,0,3:0:0:0:
264,120,60539,1,0,0:0:0:0:
184,248,60685,1,8,0:0:0:0:
396,320,60831,5,4,3:2:0:0:
396,320,60978,2,0,L|404:216,1,100,0|0,0:0|3:0,0:0:0:0:
256,52,61270,2,0,L|264:156,1,100,10|0,0:0|0:0,0:0:0:0:
296,332,61563,1,2,3:2:0:0:
144,212,61709,2,0,L|36:200,1,100,0|8,3:0|0:0,0:0:0:0:
304,60,62002,1,2,3:2:0:0:
304,60,62148,6,0,L|316:168,1,100,0|2,0:0|3:2,0:0:0:0:
248,344,62441,1,8,0:0:0:0:
204,144,62587,1,2,0:0:0:0:
400,288,62734,2,0,L|413:184,1,100,0|2,3:0|3:2,0:0:0:0:
268,92,63026,1,8,0:0:0:0:
112,268,63173,6,0,P|120:332|132:260,1,200,4|0,3:2|3:0,0:0:0:0:
124,108,63612,1,10,0:0:0:0:
264,208,63758,1,0,0:0:0:0:
344,120,63904,1,0,3:0:0:0:
344,120,64051,2,0,P|297:88|248:89,1,100,2|8,3:2|0:0,0:0:0:0:
236,280,64343,1,2,3:2:0:0:
404,188,64490,6,0,P|433:139|426:94,1,100,0|0,0:0|3:0,0:0:0:0:
200,188,64782,2,0,L|88:176,1,100,10|0,0:0|0:0,0:0:0:0:
284,56,65075,2,0,L|388:44,1,100,2|0,3:2|0:0,0:0:0:0:
420,220,65368,1,2,3:2:0:0:
212,44,65514,1,8,0:0:0:0:
176,160,65660,5,4,3:2:0:0:
344,136,65807,1,0,0:0:0:0:
140,88,65953,1,8,0:0:0:0:
232,220,66099,1,2,0:0:0:0:
276,36,66246,1,0,3:0:0:0:
276,36,66392,1,2,0:0:0:0:
140,188,66539,1,8,0:0:0:0:
352,148,66685,1,2,0:0:0:0:
176,88,66831,5,0,3:0:0:0:
176,88,66978,1,2,0:0:0:0:
288,248,67124,2,0,L|404:236,1,100,8|0,0:0|0:0,0:0:0:0:
308,64,67417,1,2,3:2:0:0:
224,292,67563,1,0,0:0:0:0:
144,108,67709,1,10,0:0:0:0:
320,160,67856,1,0,0:0:0:0:
128,224,68002,5,4,3:2:0:0:
248,64,68148,1,0,0:0:0:0:
280,296,68295,1,10,0:0:0:0:
56,264,68441,1,0,0:0:0:0:
140,108,68587,1,0,3:0:0:0:
200,328,68734,1,0,0:0:0:0:
228,104,68880,1,10,0:0:0:0:
48,136,69026,1,0,3:0:0:0:
280,220,69173,5,2,3:2:0:0:
56,264,69319,1,0,3:0:0:0:
248,148,69465,1,10,0:0:0:0:
296,136,69539,1,0,0:0:0:0:
340,160,69612,1,2,0:0:0:0:
356,208,69685,1,0,0:0:0:0:
352,256,69758,2,0,L|420:272,1,50,2|0,0:0|0:0,0:0:0:0:
272,352,69904,2,0,L|224:340,1,50,2|0,0:0|0:0,0:0:0:0:
136,296,70051,2,0,P|120:232|176:148,1,150,0|0,3:0|0:0,0:0:0:0:
196,144,70343,5,4,3:2:0:0:
348,352,70490,1,0,3:0:0:0:
328,196,70636,2,0,L|436:180,1,100,8|2,0:0|3:2,0:0:0:0:
216,52,70929,2,0,L|116:40,1,100,0|0,0:0|3:0,0:0:0:0:
20,152,71221,1,8,3:2:0:0:
144,236,71368,1,0,0:0:0:0:
248,84,71514,5,2,0:0:0:0:
208,312,71660,1,0,3:0:0:0:
144,140,71807,1,8,0:0:0:0:
208,312,71953,1,2,3:2:0:0:
332,192,72099,1,0,0:0:0:0:
144,264,72246,1,0,3:0:0:0:
176,48,72392,1,8,0:0:0:0:
144,264,72539,6,0,P|248:236|284:324,1,200,4|0,3:2|3:0,0:0:0:0:
120,348,72978,1,10,0:0:0:0:
160,120,73124,1,0,3:0:0:0:
212,300,73270,5,10,0:0:0:0:
60,200,73417,1,0,3:0:0:0:
256,172,73563,1,0,3:0:0:0:
108,348,73709,6,0,P|96:236|120:124,1,200,4|0,0:0|3:0,0:0:0:0:
208,48,74148,1,8,0:0:0:0:
280,256,74295,2,0,P|220:248|184:216,1,100,0|0,3:0|0:0,0:0:0:0:
360,100,74587,1,0,3:0:0:0:
436,340,74734,2,0,P|356:352|260:328,1,150,8|0,0:0|0:0,0:0:0:0:
256,332,75026,5,6,0:0:0:0:
272,156,75173,1,0,3:0:0:0:
148,288,75319,1,8,0:0:0:0:
252,60,75465,1,2,3:2:0:0:
356,252,75612,1,0,0:0:0:0:
164,148,75758,1,0,3:0:0:0:
392,156,75904,2,0,P|400:108|388:48,1,100,10|0,0:0|3:0,0:0:0:0:
248,100,76197,5,4,0:0:0:0:
288,204,76343,1,2,3:2:0:0:
280,28,76490,2,0,P|216:24|172:60,1,100,8|0,0:0|3:2,0:0:0:0:
176,228,76782,1,2,0:0:0:0:
284,136,76929,1,0,3:0:0:0:
112,76,77075,1,8,0:0:0:0:
92,236,77221,5,0,3:0:0:0:
92,236,77368,1,2,3:2:0:0:
228,108,77514,2,0,L|280:96,1,50,0|0,3:0|0:0,0:0:0:0:
336,40,77660,1,2,3:2:0:0:
216,204,77807,1,0,3:0:0:0:
169,186,77880,1,0,0:0:0:0:
140,147,77953,1,2,3:2:0:0:
135,97,78026,1,0,0:0:0:0:
157,53,78099,1,0,3:0:0:0:
336,40,78246,5,2,0:0:0:0:
368,232,78392,1,0,3:0:0:0:
368,232,78465,1,0,0:0:0:0:
368,232,78539,1,0,3:0:0:0:
169,186,78685,5,0,1:0:0:0:
121,202,78758,1,0,1:0:0:0:
89,242,78831,1,0,1:0:0:0:
85,294,78904,1,0,1:0:0:0:
108,336,78978,1,0,1:0:0:0:
152,348,79051,1,0,1:0:0:0:
200,340,79124,1,0,1:0:0:0:
236,308,79197,5,0,1:0:0:0:
264,268,79270,1,0,1:0:0:0:
252,220,79343,1,0,1:0:0:0:
232,172,79417,1,0,1:0:0:0:
240,124,79490,1,0,1:0:0:0:
280,92,79563,6,0,P|376:116|480:68,1,200,4|0,3:2|3:0,0:0:0:0:
432,256,80002,2,0,L|320:244,1,100,10|0,0:0|0:0,0:0:0:0:
184,216,80295,1,2,0:0:0:0:
164,76,80441,1,0,3:0:0:0:
200,296,80587,2,0,P|136:284|104:232,1,100,8|2,0:0|0:0,0:0:0:0:
264,88,80880,6,0,P|288:172|400:148,1,200,0|8,3:0|0:0,0:0:0:0:
372,44,81319,1,2,0:0:0:0:
204,200,81465,2,0,L|196:300,1,100,2|0,0:0|3:0,0:0:0:0:
416,200,81758,2,0,L|428:88,1,100,10|0,0:0|0:0,0:0:0:0:
224,52,82051,5,2,3:2:0:0:
224,52,82197,1,0,3:0:0:0:
344,140,82343,1,2,3:2:0:0:
148,244,82490,5,0,3:0:0:0:
224,52,82636,2,0,L|228:120,1,50,2|0,3:2|0:0,0:0:0:0:
297,253,82782,2,0,L|301:181,1,50,0|0,3:0|0:0,0:0:0:0:
156,152,82929,2,0,L|48:144,1,100,2|0,3:2|3:0,0:0:0:0:
320,44,83221,5,0,3:0:0:0:
300,204,83368,1,2,0:0:0:0:
160,80,83514,1,0,0:0:0:0:
160,80,83660,1,2,0:0:0:0:
192,272,83807,2,0,L|76:256,1,100,2|0,0:0|0:0,0:0:0:0:
20,176,84099,1,2,0:0:0:0:
284,352,84246,1,2,0:0:0:0:
