osu file format v14

[General]
AudioFilename: Brand-newEdit.mp3
AudioLeadIn: 2500
PreviewTime: 50734
Countdown: 0
SampleSet: Soft
StackLeniency: 0.7
Mode: 0
LetterboxInBreaks: 0
WidescreenStoryboard: 0

[Editor]
DistanceSpacing: 1
BeatDivisor: 4
GridSize: 4
TimelineZoom: 2.6

[Metadata]
Title:Brand-new World
TitleUnicode:Brand-new World
Artist:Shiena Nishizawa
ArtistUnicode:西沢幸奏
Creator:Depths
Version:Insane
Source:学戦都市アスタリスク
Tags:Gakusen Toshi Asterisk Kibbleru Crystal Sekai-nyan Sekai Meyrink pkk pkmnyab The Academy City on the water The Asterisk War opening tv size
BeatmapID:800940
BeatmapSetID:361045

[Difficulty]
HPDrainRate:6
CircleSize:4
OverallDifficulty:8
ApproachRate:9
SliderMultiplier:1.8
SliderTickRate:1

[Events]
//Background and Video events
0,0,"red.jpg",0,0
Video,-381,"AsteriskOP.flv"
//Break Periods
//Storyboard Layer 0 (Background)
//Storyboard Layer 1 (Fail)
//Storyboard Layer 2 (Pass)
//Storyboard Layer 3 (Foreground)
//Storyboard Sound Samples

[TimingPoints]
100,292.682926829268,4,2,0,45,1,0
4343,-100,4,2,1,60,0,0
7124,-100,4,2,1,60,0,0
8295,-100,4,2,1,60,0,0
9465,-100,4,2,1,60,0,0
10929,-100,4,2,1,60,0,0
13856,-100,4,2,0,60,0,0
14075,-100,4,2,0,20,0,0
14148,-125,4,2,0,30,0,0
18830,-125,4,2,0,30,0,0
21465,-125,4,2,0,30,0,0
21758,-125,4,2,0,30,0,0
22051,-125,4,2,0,30,0,0
22343,-125,4,2,0,40,0,0
22636,-125,4,2,0,40,0,0
23221,-66.6666666666667,4,2,0,30,0,0
23441,-66.6666666666667,4,2,0,30,0,0
23514,-100,4,2,2,55,0,0
23806,-100,4,2,1,55,0,0
24685,-100,4,2,1,55,0,0
25856,-100,4,2,1,40,0,0
26002,-100,4,2,1,55,0,0
28197,-100,4,2,1,55,0,0
37490,-100,4,2,1,20,0,0
37562,-100,4,2,1,55,0,0
42246,-100,4,2,1,40,0,0
42831,-125,4,2,0,35,0,0
51392,-125,4,2,1,20,0,0
51465,-100,4,2,2,80,0,1
51539,-100,4,2,1,80,0,1
58636,-100,4,2,1,80,0,1
70270,-100,4,2,1,20,0,1
70343,-100,4,2,1,80,0,1
75026,-100,4,2,1,80,0,1
78685,-100,4,2,1,45,0,1
78758,-100,4,2,1,45,0,1
78831,-100,4,2,1,52,0,1
78978,-100,4,2,1,60,0,1
79124,-100,4,2,1,70,0,1
79563,-100,4,2,1,65,0,0

[Colours]
Combo1 : 192,192,192
Combo2 : 243,114,182
Combo3 : 252,105,105

[HitObjects]
256,192,100,12,0,4051,0:0:0:0:
172,128,4343,5,0,1:0:0:0:
312,68,4490,1,0,1:0:0:0:
200,196,4636,6,4,B|164:220|116:188|116:188|84:208|84:208|12:192,1,180,4|0,0:0|3:0,0:0:0:0:
168,116,5075,1,10,0:0:0:0:
80,44,5221,1,0,0:0:0:0:
168,116,5368,2,0,L|264:108,1,90,2|0,0:0|3:0,0:0:0:0:
388,40,5660,6,0,L|396:144,1,90,8|0,0:0|0:0,0:0:0:0:
412,268,5953,1,0,3:0:0:0:
256,284,6099,2,0,L|264:176,1,90,2|8,0:0|0:0,0:0:0:0:
152,80,6392,2,0,L|144:169,1,90,0|2,0:0|0:0,0:0:0:0:
72,288,6685,1,0,3:0:0:0:
44,128,6831,1,10,0:0:0:0:
44,128,6978,1,0,0:0:0:0:
240,176,7124,6,0,L|224:264,1,90,2|0,3:2|0:0,0:0:0:0:
372,216,7417,2,0,L|389:124,1,90,8|0,0:0|0:0,0:0:0:0:
284,48,7709,1,2,0:0:0:0:
388,127,7856,1,0,3:0:0:0:
272,136,8002,2,0,P|216:108|200:60,1,90,8|0,0:0|0:0,0:0:0:0:
276,56,8295,2,0,L|368:48,1,90,0|0,3:0|0:0,0:0:0:0:
252,216,8587,6,0,L|152:208,1,90,8|0,0:0|3:0,0:0:0:0:
32,96,8880,2,0,L|144:92,1,90,2|0,0:0|3:0,0:0:0:0:
244,36,9173,1,10,0:0:0:0:
308,160,9319,1,0,0:0:0:0:
244,36,9465,5,4,3:2:0:0:
236,192,9612,1,0,0:0:0:0:
148,96,9758,2,0,L|44:88,1,90,8|0,0:0|0:0,0:0:0:0:
240,40,10051,2,0,L|336:36,1,90,2|0,0:0|3:0,0:0:0:0:
472,176,10343,2,0,L|360:160,1,90,10|2,0:0|0:0,0:0:0:0:
264,112,10636,1,0,3:0:0:0:
264,112,10782,1,0,0:0:0:0:
160,328,10929,6,0,L|176:132,1,180,8|2,0:0|0:0,0:0:0:0:
220,40,11368,1,0,3:0:0:0:
304,224,11514,1,10,0:0:0:0:
352,84,11660,1,0,0:0:0:0:
352,84,11807,5,4,3:2:0:0:
248,296,12099,1,4,3:2:0:0:
160,84,12392,1,4,3:2:0:0:
368,232,12685,1,4,3:2:0:0:
284,72,12978,5,2,3:2:0:0:
272,268,13124,1,4,3:0:0:0:
168,96,13270,1,2,3:2:0:0:
336,156,13417,1,4,3:0:0:0:
128,208,13563,2,2,L|72:188,3,45,4|0|0|0,1:2|1:0|1:0|1:0,0:0:0:0:
132,244,13856,6,0,B|228:244|228:244|268:224,1,135,0|0,0:0|0:0,0:0:0:0:
290,154,14148,2,0,L|191:147,1,72,2|0,0:0|0:0,0:0:0:0:
132,88,14441,1,0,0:0:0:0:
56,208,14587,2,0,P|48:260|120:320,1,144,2|0,0:0|0:0,0:0:0:0:
200,252,15026,2,0,P|260:236|340:264,2,144,2|0|0,0:0|0:0|0:0,0:0:0:0:
144,324,15758,6,0,L|64:316,2,72,0|0|0,0:0|0:0|0:0,0:0:0:0:
264,316,16197,1,0,0:0:0:0:
264,316,16343,1,0,0:0:0:0:
264,316,16490,2,0,B|256:212|256:212|220:184,1,144,2|0,0:0|0:0,0:0:0:0:
40,260,16929,2,0,P|128:280|200:244,1,144,2|0,0:0|0:0,0:0:0:0:
224,187,17368,5,0,0:0:0:0:
224,187,17514,1,0,0:0:0:0:
224,187,17660,2,0,P|272:200|304:288,1,144
112,188,18099,2,0,P|96:132|168:52,1,144
212,140,18539,1,0,0:0:0:0:
212,140,18831,6,0,B|288:112|288:112|368:120,1,144,2|0,0:0|0:0,0:0:0:0:
224,260,19270,2,0,P|148:250|108:196,1,144,2|0,0:0|0:0,0:0:0:0:
212,140,19709,1,0,0:0:0:0:
212,140,20002,2,0,L|224:64,1,72,0|0,0:0|0:0,0:0:0:0:
324,40,20295,2,0,L|312:112,1,72,0|0,0:0|0:0,0:0:0:0:
272,196,20587,2,0,P|328:200|396:144,1,144
384,60,21026,1,0,0:0:0:0:
484,300,21173,6,0,P|400:276|332:280,1,144,2|0,0:0|0:0,0:0:0:0:
92,208,21758,2,0,P|160:196|256:204,1,144,2|0,0:0|0:0,0:0:0:0:
480,112,22343,2,0,P|424:92|316:96,1,144,2|0,0:0|0:0,0:0:0:0:
356,280,22929,1,2,0:0:0:0:
356,280,23221,6,0,L|128:264,1,202.500007724762,4|0,3:0|0:0,0:0:0:0:
124,248,23514,6,0,L|236:232,1,90,12|0,3:0|0:0,0:0:0:0:
352,124,23807,1,8,0:0:0:0:
352,124,23953,2,0,L|240:100,1,90,2|0,0:0|0:0,0:0:0:0:
136,40,24246,1,0,3:0:0:0:
236,96,24392,2,0,L|244:216,1,90,10|0,0:0|0:0,0:0:0:0:
304,296,24685,1,0,3:0:0:0:
408,192,24831,1,0,0:0:0:0:
300,312,24978,6,0,P|256:324|208:320,1,90,10|0,0:0|0:0,0:0:0:0:
116,180,25270,2,0,P|161:180|206:197,1,90,0|0,0:0|3:0,0:0:0:0:
32,328,25563,2,0,L|44:136,1,180,10|4,0:0|3:2,0:0:0:0:
100,44,26002,1,0,0:0:0:0:
202,195,26148,1,8,0:0:0:0:
112,52,26295,2,0,L|304:44,1,180,2|0,0:0|3:0,0:0:0:0:
432,152,26734,6,0,L|316:148,1,90,10|0,0:0|0:0,0:0:0:0:
256,248,27026,1,2,3:2:0:0:
256,248,27173,2,0,L|164:240,1,90,0|8,0:0|0:0,0:0:0:0:
332,328,27465,6,0,L|348:144,1,180,2|0,3:2|3:0,0:0:0:0:
216,48,27904,2,0,L|224:144,1,90,10|0,0:2|0:0,0:0:0:0:
332,328,28197,6,0,P|388:320|396:212,1,180,4|8,3:2|0:0,0:0:0:0:
305,209,28636,2,0,B|253:181|208:220|208:220|153:197|153:197|112:204,1,180,2|0,0:0|3:0,0:0:0:0:
216,120,29075,1,10,0:0:0:0:
264,288,29221,1,0,0:0:0:0:
132,120,29368,6,0,P|144:68|260:44,1,180,2|8,3:2|0:0,0:0:0:0:
296,144,29807,2,0,B|388:108|384:160|480:128,1,180,2|0,0:0|3:0,0:0:0:0:
416,40,30246,1,10,0:0:0:0:
472,228,30392,1,0,0:0:0:0:
276,200,30539,6,0,P|236:152|312:84,1,180,6|8,3:2|0:0,0:0:0:0:
336,260,30978,2,0,P|240:268|180:216,1,180,2|0,0:0|3:0,0:0:0:0:
188,60,31417,2,0,P|128:64|80:48,1,90,8|0,0:0|0:0,0:0:0:0:
316,32,31709,1,4,3:2:0:0:
316,32,32002,2,0,L|324:140,1,90,8|0,0:0|3:0,0:0:0:0:
344,236,32295,1,0,3:0:0:0:
248,112,32441,1,0,3:0:0:0:
328,316,32587,2,0,P|388:304|416:260,1,90,0|0,3:0|3:0,0:0:0:0:
360,136,32880,1,2,3:2:0:0:
304,48,33026,5,0,3:0:0:0:
332,232,33173,1,0,0:0:0:0:
296,80,33319,2,0,L|104:68,1,180,10|8,0:0|0:0,0:0:0:0:
32,200,33758,2,0,L|140:188,1,90,0|0,3:0|3:0,0:0:0:0:
276,164,34051,1,2,0:0:0:0:
208,292,34197,1,8,0:0:0:0:
128,96,34343,1,0,0:0:0:0:
276,164,34490,2,0,L|376:152,1,90,10|0,0:0|3:0,0:0:0:0:
444,80,34782,5,0,3:0:0:0:
392,268,34929,2,0,L|288:252,1,90,8|0,0:0|0:0,0:0:0:0:
164,136,35221,1,6,3:2:0:0:
164,136,35368,2,0,L|156:328,1,180,0|10,3:0|0:0,0:0:0:0:
340,336,35953,5,8,0:0:0:0:
168,232,36099,1,2,3:2:0:0:
168,232,36246,1,0,3:0:0:0:
260,156,36539,6,0,P|344:176|424:120,1,180,10|8,0:0|0:0,0:0:0:0:
324,52,36978,1,2,3:2:0:0:
212,80,37124,1,0,3:0:0:0:
188,192,37270,2,0,L|44:192,1,135,10|0,0:0|0:0,0:0:0:0:
24,176,37563,1,4,3:2:0:0:
120,88,37709,5,0,3:0:0:0:
180,264,37856,1,0,0:0:0:0:
180,264,38002,1,10,0:0:0:0:
288,40,38295,5,10,0:0:0:0:
244,216,38441,1,0,3:0:0:0:
172,152,38587,1,0,3:0:0:0:
308,168,38734,2,0,P|320:228|308:268,1,90,2|8,0:0|0:0,0:0:0:0:
248,120,39026,2,0,P|288:92|356:100,1,90,0|10,0:0|0:0,0:0:0:0:
420,168,39319,5,0,3:0:0:0:
360,280,39465,1,0,3:0:0:0:
280,188,39612,2,0,P|236:192|184:160,1,90,8|0,0:0|0:0,0:0:0:0:
112,52,39904,5,4,3:2:0:0:
112,52,40051,1,0,3:0:0:0:
52,192,40197,5,10,0:0:0:0:
264,228,40490,1,10,0:0:0:0:
332,60,40782,5,0,3:0:0:0:
332,60,40929,1,0,3:0:0:0:
404,168,41075,5,10,0:0:0:0:
192,204,41368,1,10,0:0:0:0:
332,60,41660,6,0,L|236:48,1,90,0|0,3:0|3:0,0:0:0:0:
96,192,41953,2,0,L|188:176,1,90,10|0,0:0|3:0,0:0:0:0:
379,200,42246,5,4,0:0:0:0:
256,148,42831,6,0,P|308:148|384:208,1,144,0|2,0:0|0:0,0:0:0:0:
248,240,43417,2,0,P|196:216|168:132,1,144,0|2,0:0|0:0,0:0:0:0:
300,84,44002,5,0,0:0:0:0:
384,200,44295,1,2,0:0:0:0:
312,324,44587,2,0,B|232:328|232:328|156:288,2,144,0|2|0,3:0|0:0|0:0,0:0:0:0:
424,232,45465,5,2,0:0:0:0:
328,124,45758,2,0,B|292:116|256:128|256:128|224:140|176:116,1,144,0|2,0:0|0:0,0:0:0:0:
48,176,46343,2,0,P|116:156|192:184,1,144,0|2,0:0|0:0,0:0:0:0:
248,308,46929,5,0,3:0:0:0:
116,256,47221,1,2,0:0:0:0:
256,220,47514,2,0,P|308:248|328:344,2,144,0|2|0,0:0|0:0|0:0,0:0:0:0:
112,208,48392,5,2,0:0:0:0:
196,92,48685,1,0,0:0:0:0:
196,92,48831,1,2,0:0:0:0:
256,192,49124,12,0,50441,0:0:0:0:
344,56,50880,5,0,0:0:0:0:
228,128,51026,1,0,0:0:0:0:
228,128,51173,2,0,L|116:116,1,108,0|0,0:0|0:0,0:0:0:0:
40,72,51465,6,0,P|36:148|140:204,1,180,12|0,0:3|3:0,0:0:0:0:
272,104,51904,1,10,0:0:0:0:
272,276,52051,1,0,0:0:0:0:
188,132,52197,2,0,L|200:40,1,90,2|0,3:2|3:0,0:0:0:0:
328,52,52490,5,8,0:0:0:0:
216,200,52636,2,0,P|168:204|124:96,1,180,2|2,3:2|3:2,0:0:0:0:
244,24,53075,1,8,0:0:0:0:
308,152,53221,1,2,0:0:0:0:
308,152,53368,2,4,P|364:164|412:140,1,90,0|2,3:0|3:2,0:0:0:0:
272,48,53660,1,8,0:0:0:0:
216,200,53807,1,4,3:2:0:0:
396,52,53953,5,0,0:0:0:0:
200,120,54099,1,0,3:0:0:0:
316,256,54246,2,0,P|352:212|356:164,1,90,10|0,0:0|0:0,0:0:0:0:
264,52,54539,1,0,3:0:0:0:
192,224,54685,1,2,3:2:0:0:
328,344,54831,6,0,P|328:288|312:248,1,90,8|2,0:0|3:2,0:0:0:0:
260,128,55124,1,0,0:0:0:0:
316,256,55270,1,0,3:0:0:0:
108,248,55417,6,0,L|208:236,1,90,10|0,0:0|0:0,0:0:0:0:
360,88,55709,2,0,L|256:88,1,90,2|0,3:2|0:0,0:0:0:0:
136,52,56002,1,10,3:2:0:0:
270,88,56148,1,0,0:0:0:0:
352,228,56295,5,4,3:2:0:0:
264,344,56441,1,0,0:0:0:0:
168,235,56587,2,0,P|155:193|172:152,1,90,8|2,0:0|0:0,0:0:0:0:
292,40,56880,1,0,3:0:0:0:
288,200,57026,1,2,0:0:0:0:
176,72,57173,1,8,0:0:0:0:
232,292,57319,5,2,0:0:0:0:
171,152,57465,2,0,L|72:144,1,90,0|2,3:0|0:0,0:0:0:0:
292,40,57758,2,0,L|296:140,1,90,8|0,0:0|0:0,0:0:0:0:
232,272,58051,1,2,3:2:0:0:
168,120,58197,1,0,0:0:0:0:
384,248,58343,6,0,L|372:140,1,90,10|0,0:0|0:0,0:0:0:0:
292,40,58636,1,4,3:2:0:0:
236,196,58782,1,0,0:0:0:0:
384,76,58929,2,0,P|436:108|456:148,1,90,8|2,0:0|0:0,0:0:0:0:
480,280,59221,1,0,3:0:0:0:
344,232,59368,1,0,0:0:0:0:
440,52,59514,1,10,0:0:0:0:
488,188,59660,1,0,0:0:0:0:
364,264,59807,6,0,L|272:260,1,90,0|2,3:0|0:0,0:0:0:0:
112,128,60099,2,0,L|216:116,1,90,8|2,0:0|0:0,0:0:0:0:
316,208,60392,1,0,3:0:0:0:
356,64,60539,1,0,0:0:0:0:
356,64,60612,1,0,0:0:0:0:
356,64,60685,1,0,0:0:0:0:
252,224,60831,6,0,P|332:212|400:308,1,180,4|0,3:2|3:0,0:0:0:0:
248,344,61270,2,0,L|148:336,1,90,10|0,0:0|0:0,0:0:0:0:
44,200,61563,2,0,L|148:188,1,90,2|0,3:2|3:0,0:0:0:0:
248,124,61856,1,8,0:0:0:0:
88,120,62002,2,0,L|100:24,1,90,2|0,3:2|0:0,0:0:0:0:
264,108,62295,1,2,3:2:0:0:
60,140,62441,1,8,0:0:0:0:
204,180,62587,6,0,P|248:200|296:200,2,90,0|0|0,3:0|3:2|3:0,0:0:0:0:
84,56,63026,1,8,0:0:0:0:
64,243,63173,2,0,P|128:251|192:359,1,180,4|0,3:2|3:0,0:0:0:0:
344,344,63612,2,0,L|336:232,1,90,10|0,0:0|0:0,0:0:0:0:
216,352,63904,1,0,3:0:0:0:
360,232,64051,1,2,3:2:0:0:
360,232,64197,1,8,0:0:0:0:
256,72,64343,6,0,L|248:256,1,180,2|0,3:2|3:0,0:0:0:0:
104,328,64782,2,0,L|112:212,1,90,10|0,0:0|0:0,0:0:0:0:
144,76,65075,1,2,3:2:0:0:
232,216,65221,1,0,0:0:0:0:
144,76,65368,2,0,L|48:68,1,90,2|0,3:2|0:0,0:0:0:0:
232,216,65660,6,0,L|328:200,1,90,4|0,3:2|0:0,0:0:0:0:
208,316,65953,2,0,L|312:300,1,90,8|2,0:0|0:0,0:0:0:0:
116,148,66246,2,0,L|228:128,1,90,0|2,3:0|0:0,0:0:0:0:
364,184,66539,2,0,L|372:80,1,90,8|2,0:0|0:0,0:0:0:0:
208,40,66831,1,0,3:0:0:0:
280,196,66978,1,2,0:0:0:0:
136,144,67124,2,0,L|28:140,1,90,8|0,0:0|0:0,0:0:0:0:
208,40,67417,2,0,L|312:32,1,90,2|0,3:2|0:0,0:0:0:0:
408,124,67709,2,0,L|416:320,1,180,10|4,0:0|3:2,0:0:0:0:
308,136,68148,5,0,0:0:0:0:
232,272,68295,1,10,0:0:0:0:
120,120,68441,2,0,L|24:104,1,90,0|0,0:0|3:0,0:0:0:0:
112,264,68734,1,0,0:0:0:0:
284,208,68880,2,0,L|176:192,1,90,10|0,0:0|3:0,0:0:0:0:
172,56,69173,5,2,3:2:0:0:
376,44,69319,1,0,3:0:0:0:
324,212,69465,1,10,0:0:0:0:
216,64,69612,1,2,0:0:0:0:
172,48,69685,1,0,0:0:0:0:
132,64,69758,2,0,L|116:112,3,45,2|0|2|0,0:0|0:0|0:0|0:0,0:0:0:0:
116,152,70051,2,0,L|120:204,3,45,0|0|0|0,3:0|0:0|0:0|0:0,0:0:0:0:
140,240,70343,1,4,3:2:0:0:
332,152,70490,5,0,3:0:0:0:
232,276,70636,1,8,0:0:0:0:
216,104,70782,2,0,B|76:84|76:84|24:120,1,180,2|0,3:2|3:0,0:0:0:0:
72,232,71221,2,0,L|180:224,1,90,8|0,3:2|0:0,0:0:0:0:
328,172,71514,2,0,L|204:172,1,90,2|0,0:0|3:0,0:0:0:0:
152,64,71807,1,8,0:0:0:0:
372,108,71953,2,0,P|396:200|332:248,1,180,2|0,3:2|3:0,0:0:0:0:
160,292,72392,2,0,L|64:280,1,90,8|4,0:0|3:2,0:0:0:0:
272,148,72685,5,0,0:0:0:0:
280,324,72831,1,0,3:0:0:0:
176,108,72978,5,10,0:0:0:0:
208,344,73124,1,0,3:0:0:0:
120,200,73270,6,0,L|24:184,1,90,10|0,0:0|3:0,0:0:0:0:
228,72,73563,1,0,3:0:0:0:
244,224,73709,1,4,0:0:0:0:
228,72,73856,1,0,0:0:0:0:
328,144,74002,2,0,L|432:136,1,90,0|8,3:0|0:0,0:0:0:0:
220,40,74295,1,0,3:0:0:0:
188,272,74441,1,0,0:0:0:0:
88,152,74587,1,0,3:0:0:0:
288,200,74734,6,0,B|440:192|440:192|468:208,1,180,8|6,0:0|0:0,0:0:0:0:
328,344,75173,1,0,3:0:0:0:
174,342,75319,1,8,0:0:0:0:
174,342,75465,2,0,B|217:239|217:239|206:158,1,180,2|0,3:2|3:0,0:0:0:0:
80,48,75904,2,0,B|64:160|64:160|92:240,1,180,10|4,0:0|0:0,0:0:0:0:
196,80,76343,2,0,P|272:96|296:208,1,180,2|0,3:2|3:2,0:0:0:0:
172,320,76782,5,2,0:0:0:0:
208,176,76929,1,0,3:0:0:0:
184,316,77075,1,8,0:0:0:0:
136,88,77221,1,0,3:0:0:0:
264,124,77368,5,2,3:2:0:0:
184,280,77514,1,0,3:0:0:0:
112,164,77660,2,0,L|16:152,1,90,2|0,3:2|3:0,0:0:0:0:
184,280,77953,2,0,L|288:264,1,90,2|0,3:2|3:0,0:0:0:0:
336,124,78246,1,2,0:0:0:0:
220,44,78392,1,0,3:0:0:0:
220,44,78539,6,0,L|108:36,1,90,0|0,3:0|1:0,0:0:0:0:
88,48,78758,1,0,1:0:0:0:
48,68,78831,1,0,1:0:0:0:
24,108,78904,1,0,1:0:0:0:
20,152,78978,1,0,1:0:0:0:
28,196,79051,1,0,1:0:0:0:
44,236,79124,6,0,P|64:248|96:248,3,45,0|0|0|0,1:0|1:0|1:0|1:0,0:0:0:0:
128,232,79417,1,0,1:0:0:0:
168,208,79490,1,0,1:0:0:0:
212,204,79563,2,0,P|276:224|328:324,1,180,4|0,3:2|3:0,0:0:0:0:
148,336,80002,1,10,0:0:0:0:
148,336,80148,6,0,B|136:208|136:208|152:152,1,180,0|0,0:0|3:0,0:0:0:0:
272,36,80587,1,8,0:0:0:0:
292,224,80734,1,2,0:0:0:0:
80,64,80880,2,0,L|176:60,1,90,0|0,3:0|0:0,0:0:0:0:
349,49,81173,6,0,B|375:119|375:119|359:243,1,180,8|2,0:0|0:0,0:0:0:0:
362,224,81612,1,0,3:0:0:0:
172,180,81758,2,0,L|284:168,1,90,10|0,0:0|0:0,0:0:0:0:
360,80,82051,5,2,3:2:0:0:
360,80,82197,1,0,3:0:0:0:
340,288,82343,5,2,3:2:0:0:
340,288,82490,1,0,3:0:0:0:
140,260,82636,5,2,3:2:0:0:
120,76,82782,1,0,3:0:0:0:
284,48,82929,2,0,L|384:40,1,90,2|0,3:2|3:0,0:0:0:0:
488,220,83221,2,0,L|376:212,1,90,0|2,3:0|0:0,0:0:0:0:
304,140,83514,1,0,0:0:0:0:
304,140,83660,1,2,0:0:0:0:
152,204,83807,6,0,L|175:104,1,90,2|0,0:0|0:0,0:0:0:0:
300,36,84099,1,2,0:0:0:0:
336,184,84246,1,2,0:0:0:0:
