osu file format v13

[General]
AudioFilename: 05..mp3
AudioLeadIn: 0
PreviewTime: 92055
Countdown: 0
SampleSet: None
StackLeniency: 0.7
Mode: 0
LetterboxInBreaks: 1
WidescreenStoryboard: 0

[Editor]
Bookmarks: 122529,153002
DistanceSpacing: 0.5
BeatDivisor: 4
GridSize: 4
TimelineZoom: 2.7

[Metadata]
Title:Tobidase! Bankikki
TitleUnicode:とびだせ!バンキッキ
Artist:Shibayan feat. Sakaue Nachi
ArtistUnicode:Shibayan feat. 坂上なち
Creator:Sakaue Nachi
Version:Atama
Source:Touhou
Tags:RETRO FUTURE GIRLS TH14 C85 wash brain
BeatmapID:441746
BeatmapSetID:184539

[Difficulty]
HPDrainRate:7
CircleSize:4
OverallDifficulty:7
ApproachRate:9
SliderMultiplier:1.8
SliderTickRate:1

[Events]
//Background and Video events
0,0,"bg.jpg",0,0
//Break Periods
//Storyboard Layer 0 (Background)
//Storyboard Layer 1 (Fail)
//Storyboard Layer 2 (Pass)
//Storyboard Layer 3 (Foreground)
//Storyboard Sound Samples
//Background Colour Transformations
3,100,163,162,255

[TimingPoints]
736,476.152686294738,4,3,0,50,1,0
61683,-125,4,3,0,50,0,0
61921,-100,4,3,0,50,0,0
92157,-100,4,3,0,50,0,0
107870,-100,4,3,0,50,0,0
122631,-57.1428571428571,4,3,0,50,0,1
151200,-125,4,3,0,50,0,1
151676,-111.111111111111,4,3,0,50,0,1
152152,-100,4,3,0,50,0,1
153104,-57.1428571428571,4,3,0,50,0,0

[HitObjects]
47,201,19782,6,0,P|98:228|187:174,1,150,0|0,0:0|0:0,0:0:0:0:
219,130,20258,1,8,0:0:0:0:
219,130,20496,1,0,0:0:0:0:
193,317,20734,6,0,P|241:286|239:182,1,150,0|0,0:0|0:0,0:0:0:0:
219,130,21210,1,8,0:0:0:0:
219,130,21448,1,0,0:0:0:0:
367,244,21686,6,0,P|364:186|273:136,1,150,0|0,0:0|0:0,0:0:0:0:
219,130,22162,1,8,0:0:0:0:
219,130,22400,2,0,P|251:77|342:80,1,150,0|0,0:0|0:0,0:0:0:0:
399,137,22877,1,0,0:0:0:0:
277,223,23115,1,8,0:0:0:0:
118,176,23353,1,2,0:0:0:0:
118,176,23472,1,2,0:0:0:0:
34,97,23591,6,0,P|110:54|175:81,1,150,4|0,0:0|0:0,0:0:0:0:
219,130,24067,1,8,0:0:0:0:
219,130,24305,1,0,0:0:0:0:
98,274,24543,6,0,P|98:186|154:143,1,150,0|0,0:0|0:0,0:0:0:0:
219,130,25019,1,8,0:0:0:0:
219,130,25257,1,0,0:0:0:0:
283,306,25495,6,0,P|207:261|198:191,1,150,0|0,0:0|0:0,0:0:0:0:
219,130,25972,1,8,0:0:0:0:
219,130,26210,2,0,P|144:140|111:210,1,150,0|0,0:0|0:0,0:0:0:0:
112,295,26686,1,2,0:0:0:0:
112,295,26924,1,8,0:0:0:0:
300,237,27162,1,0,0:0:0:0:
129,91,27400,6,0,L|245:194,1,150,0|0,0:0|0:0,0:0:0:0:
300,237,27876,1,8,0:0:0:0:
300,237,28114,1,0,0:0:0:0:
345,18,28352,6,0,L|313:169,1,150,0|0,0:0|0:0,0:0:0:0:
300,237,28829,1,8,0:0:0:0:
300,237,29067,1,0,0:0:0:0:
512,172,29305,6,0,L|353:220,1,150,0|0,0:0|0:0,0:0:0:0:
300,237,29781,1,8,0:0:0:0:
300,237,30019,2,0,B|254:255|254:255|231:215|231:215|269:185|255:120,1,180,0|8,0:0|0:0,0:0:0:0:
182,28,30733,1,8,0:0:0:0:
185,154,30971,1,2,0:0:0:0:
185,154,31090,1,2,0:0:0:0:
185,154,31209,5,6,0:0:0:0:
118,265,31447,1,0,0:0:0:0:
185,154,31685,1,8,0:0:0:0:
244,265,31924,1,0,0:0:0:0:
185,154,32162,1,0,0:0:0:0:
305,157,32400,1,0,0:0:0:0:
185,154,32638,1,8,0:0:0:0:
244,50,32876,1,0,0:0:0:0:
185,154,33114,5,0,0:0:0:0:
118,48,33352,1,0,0:0:0:0:
185,154,33590,1,8,0:0:0:0:
56,157,33828,1,0,0:0:0:0:
420,155,34066,1,0,0:0:0:0:
355,61,34304,1,0,0:0:0:0:
420,155,34542,1,8,0:0:0:0:
248,139,34780,1,0,0:0:0:0:
354,183,35018,5,0,0:0:0:0:
213,250,35257,1,0,0:0:0:0:
325,229,35495,1,8,0:0:0:0:
248,365,35733,1,0,0:0:0:0:
331,287,35971,1,0,0:0:0:0:
457,372,36209,1,0,0:0:0:0:
372,298,36447,1,8,0:0:0:0:
457,372,36685,1,0,0:0:0:0:
489,250,36923,5,0,0:0:0:0:
433,136,37161,1,0,0:0:0:0:
317,85,37399,1,8,0:0:0:0:
229,117,37637,2,0,P|341:182|385:152,1,180,0|0,0:0|0:0,0:0:0:0:
371,165,38233,1,0,0:0:0:0:
371,165,38352,1,8,0:0:0:0:
317,85,38590,1,2,0:0:0:0:
317,85,38709,1,2,0:0:0:0:
317,85,38828,6,0,P|283:40|215:37,1,90,4|0,0:0|0:0,0:0:0:0:
297,191,39304,2,0,P|331:236|399:239,1,90,8|0,0:0|0:0,0:0:0:0:
219,215,39780,2,0,P|197:266|228:327,1,90,0|0,0:0|0:0,0:0:0:0:
166,155,40256,2,0,P|110:161|73:219,1,90,8|0,0:0|0:0,0:0:0:0:
156,249,40732,5,0,0:0:0:0:
252,132,40970,1,0,0:0:0:0:
139,75,41208,2,0,P|145:131|203:168,1,90,8|0,0:0|0:0,0:0:0:0:
386,304,41685,1,0,0:0:0:0:
386,304,41923,1,0,0:0:0:0:
327,145,42161,1,8,0:0:0:0:
249,285,42399,1,0,0:0:0:0:
409,188,42637,6,0,P|414:127|397:82,1,90,0|0,0:0|0:0,0:0:0:0:
386,304,43113,2,0,P|368:362|336:398,1,90,8|0,0:0|0:0,0:0:0:0:
282,80,43589,2,0,P|264:22|232:-14,1,90,0|0,0:0|0:0,0:0:0:0:
249,285,44065,2,0,P|215:335|175:361,1,90,8|0,0:0|0:0,0:0:0:0:
16,119,44542,5,0,0:0:0:0:
99,234,44780,1,0,0:0:0:0:
101,92,45018,1,8,0:0:0:0:
16,207,45256,1,2,0:0:0:0:
16,207,45375,1,2,0:0:0:0:
16,207,45494,2,0,L|16:314,1,90,0|0,0:0|0:0,0:0:0:0:
164,167,45970,2,0,L|261:166,1,90,8|12,0:0|0:0,0:0:0:0:
442,105,46446,6,0,P|416:159|461:259,1,150,0|0,0:0|0:0,0:0:0:0:
485,280,46922,2,0,L|391:280,1,90,8|0,0:0|0:0,0:0:0:0:
272,238,47398,2,0,P|304:173|273:100,1,150,0|0,0:0|0:0,0:0:0:0:
225,105,47875,2,0,L|134:105,1,90,8|0,0:0|0:0,0:0:0:0:
187,245,48351,6,0,P|241:315|318:307,1,150,0|0,0:0|0:0,0:0:0:0:
355,319,48827,1,8,0:0:0:0:
259,221,49065,2,0,P|121:205|115:270,1,240,0|0,0:0|0:0,0:0:0:0:
187,245,49779,1,8,0:0:0:0:
187,55,50017,1,0,0:0:0:0:
42,140,50255,6,0,L|42:292,1,150,0|0,0:0|0:0,0:0:0:0:
43,362,50732,2,0,P|92:342|111:291,1,90,8|0,0:0|0:0,0:0:0:0:
267,141,51208,2,0,L|267:293,1,150,0|0,0:0|0:0,0:0:0:0:
266,363,51684,2,0,P|217:343|198:292,1,90,8|0,0:0|0:0,0:0:0:0:
341,238,52160,5,0,0:0:0:0:
201,312,52398,1,0,0:0:0:0:
160,170,52636,1,8,0:0:0:0:
341,238,52874,2,0,B|286:247|286:247|205:225|152:248,1,180,0|0,0:0|0:0,0:0:0:0:
73,129,53588,1,8,0:0:0:0:
264,51,53827,1,2,0:0:0:0:
264,51,53946,1,2,0:0:0:0:
264,51,54065,5,4,0:0:0:0:
352,140,54303,1,0,0:0:0:0:
190,158,54541,1,8,0:0:0:0:
116,260,54779,1,0,0:0:0:0:
352,140,55017,1,0,0:0:0:0:
433,236,55255,1,0,0:0:0:0:
115,260,55493,1,8,0:0:0:0:
41,362,55731,1,0,0:0:0:0:
433,236,55969,5,0,0:0:0:0:
363,341,56207,1,0,0:0:0:0:
222,207,56445,2,0,L|328:208,1,90,8|0,0:0|0:0,0:0:0:0:
311,207,56802,1,0,0:0:0:0:
311,207,56922,1,0,0:0:0:0:
137,208,57160,1,0,0:0:0:0:
220,97,57398,1,8,0:0:0:0:
137,208,57636,1,0,0:0:0:0:
389,123,57874,6,0,L|276:123,1,90,0|0,0:0|0:0,0:0:0:0:
311,207,58350,2,0,L|198:207,1,90,8|0,0:0|0:0,0:0:0:0:
234,293,58826,2,0,L|121:293,1,90,0|0,0:0|0:0,0:0:0:0:
70,378,59302,2,0,L|183:378,1,90,8|0,0:0|0:0,0:0:0:0:
325,295,59778,5,0,0:0:0:0:
205,205,60017,1,0,0:0:0:0:
260,374,60255,1,8,0:0:0:0:
312,208,60493,1,0,0:0:0:0:
133,163,60731,2,0,P|125:207|133:252,1,90,0|0,0:0|0:0,0:0:0:0:
260,115,61207,1,8,0:0:0:0:
383,206,61445,1,2,0:0:0:0:
383,206,61564,1,2,0:0:0:0:
383,206,61683,6,0,P|338:212|290:199,1,72,4|0,0:0|0:0,0:0:0:0:
165,61,62159,1,8,0:0:0:0:
326,82,62397,1,2,0:0:0:0:
326,82,62516,1,2,0:0:0:0:
326,82,62635,1,2,0:0:0:0:
205,286,62873,1,0,0:0:0:0:
168,169,63112,1,8,0:0:0:0:
290,197,63350,1,0,0:0:0:0:
197,271,63588,5,0,0:0:0:0:
192,150,63826,1,0,0:0:0:0:
302,207,64064,1,8,0:0:0:0:
192,150,64302,1,0,0:0:0:0:
197,271,64540,1,0,0:0:0:0:
302,207,64778,1,0,0:0:0:0:
192,150,65016,1,8,0:0:0:0:
302,207,65254,1,0,0:0:0:0:
425,62,65492,5,0,0:0:0:0:
425,62,65730,1,0,0:0:0:0:
302,207,65968,1,8,0:0:0:0:
421,340,66206,1,0,0:0:0:0:
421,340,66445,1,0,0:0:0:0:
200,282,66683,1,0,0:0:0:0:
302,207,66921,1,8,0:0:0:0:
180,173,67159,1,0,0:0:0:0:
286,106,67397,5,0,0:0:0:0:
171,53,67635,1,0,0:0:0:0:
286,106,67873,1,8,0:0:0:0:
180,173,68111,1,0,0:0:0:0:
302,207,68349,1,0,0:0:0:0:
92,221,68587,1,2,0:0:0:0:
92,221,68706,1,2,0:0:0:0:
92,221,68825,2,0,P|81:157|103:114,1,90,8|0,0:0|0:0,0:0:0:0:
88,134,69182,1,0,0:0:0:0:
88,134,69301,5,0,0:0:0:0:
240,101,69540,1,0,0:0:0:0:
340,130,69778,1,8,0:0:0:0:
340,237,70016,1,0,0:0:0:0:
178,186,70254,1,0,0:0:0:0:
242,271,70492,1,0,0:0:0:0:
340,237,70730,1,8,0:0:0:0:
439,270,70968,1,0,0:0:0:0:
242,271,71206,5,0,0:0:0:0:
340,130,71444,1,0,0:0:0:0:
441,100,71682,1,8,0:0:0:0:
503,186,71920,1,0,0:0:0:0:
340,130,72158,1,0,0:0:0:0:
439,270,72396,1,0,0:0:0:0:
340,130,72635,1,8,0:0:0:0:
439,270,72873,1,0,0:0:0:0:
263,342,73111,6,0,P|182:317|171:250,1,150,0|0,0:0|0:0,0:0:0:0:
199,236,73587,2,0,L|93:236,1,90,8|0,0:0|0:0,0:0:0:0:
28,133,74063,2,0,L|201:133,1,150,0|0,0:0|0:0,0:0:0:0:
168,95,74539,2,0,L|259:95,1,90,8|0,0:0|0:0,0:0:0:0:
388,328,75015,6,0,B|378:284|378:284|394:258|394:258|387:234|389:173,1,150,0|0,0:0|0:0,0:0:0:0:
388,103,75491,1,8,0:0:0:0:
178,19,75730,2,0,P|101:55|104:140,1,180,0|8,0:0|0:0,0:0:0:0:
270,66,76444,1,8,0:0:0:0:
77,204,76682,2,0,P|57:194|43:178,1,45,8|8,0:0|0:0,0:0:0:0:
168,95,76920,6,0,P|239:135|250:215,1,150,4|0,0:0|0:0,0:0:0:0:
206,250,77396,2,0,P|252:268|309:241,1,90,8|0,0:0|0:0,0:0:0:0:
99,289,77872,2,0,P|57:218|87:144,1,150,0|0,0:0|0:0,0:0:0:0:
144,135,78348,2,0,P|113:96|50:91,1,90,8|0,0:0|0:0,0:0:0:0:
225,47,78825,6,0,B|348:35|348:35|377:46,1,150,0|0,0:0|0:0,0:0:0:0:
423,113,79301,1,8,0:0:0:0:
323,289,79539,2,0,B|324:148|324:148|355:109,1,180,0|0,0:0|0:0,0:0:0:0:
243,270,80253,1,8,0:0:0:0:
399,192,80491,1,0,0:0:0:0:
275,89,80729,6,0,B|252:119|252:119|252:235,1,150,0|0,0:0|0:0,0:0:0:0:
243,270,81205,2,0,L|138:270,1,90,8|0,0:0|0:0,0:0:0:0:
23,63,81681,2,0,L|23:219,1,150,0|0,0:0|0:0,0:0:0:0:
54,235,82158,2,0,L|54:330,1,90,8|0,0:0|0:0,0:0:0:0:
243,270,82634,6,0,L|243:119,1,150,0|0,0:0|0:0,0:0:0:0:
243,120,83110,1,8,0:0:0:0:
175,297,83348,2,0,P|243:345|311:295,1,180,0|0,0:0|0:0,0:0:0:0:
99,290,84062,1,8,0:0:0:0:
311,161,84300,2,0,L|311:98,1,45,8|8,0:0|0:0,0:0:0:0:
170,105,84538,6,0,L|170:211,1,90,4|0,0:0|0:0,0:0:0:0:
243,270,85015,2,0,L|243:173,1,90,8|0,0:0|0:0,0:0:0:0:
335,333,85491,2,0,L|441:334,1,90,0|0,0:0|0:0,0:0:0:0:
489,232,85967,2,0,L|394:233,1,90,8|0,0:0|0:0,0:0:0:0:
141,120,86443,5,0,0:0:0:0:
302,28,86681,1,0,0:0:0:0:
302,213,86919,1,8,0:0:0:0:
194,28,87157,1,0,0:0:0:0:
355,120,87395,1,0,0:0:0:0:
194,213,87633,1,0,0:0:0:0:
355,120,87871,1,8,0:0:0:0:
194,213,88110,1,0,0:0:0:0:
121,58,88348,5,0,0:0:0:0:
49,161,88586,1,0,0:0:0:0:
118,265,88824,1,8,0:0:0:0:
236,57,89062,1,0,0:0:0:0:
164,160,89300,1,0,0:0:0:0:
233,264,89538,1,0,0:0:0:0:
358,265,89776,1,8,0:0:0:0:
233,264,90014,1,0,0:0:0:0:
358,265,90252,5,0,0:0:0:0:
436,166,90490,1,0,0:0:0:0:
357,67,90728,1,8,0:0:0:0:
436,166,90966,1,0,0:0:0:0:
357,67,91205,1,0,0:0:0:0:
358,265,91443,1,8,0:0:0:0:
358,265,91681,1,8,0:0:0:0:
114,192,91919,1,2,0:0:0:0:
114,192,92038,1,2,0:0:0:0:
114,192,92157,6,0,L|114:42,1,150,4|0,0:0|0:0,0:0:0:0:
114,42,92633,1,8,0:0:0:0:
226,130,92871,2,0,P|303:171|380:130,1,180,2|0,0:0|0:0,0:0:0:0:
304,71,93585,1,8,0:0:0:0:
304,71,93704,2,0,L|304:210,1,135,0|0,0:0|0:0,0:0:0:0:
228,278,94300,5,0,0:0:0:0:
380,129,94538,1,8,0:0:0:0:
337,297,94776,1,0,0:0:0:0:
337,297,94895,2,0,P|322:343|249:385,1,135,0|0,0:0|0:0,0:0:0:0:
228,278,95371,1,2,0:0:0:0:
319,200,95490,2,0,P|367:200|410:235,1,90,8|0,0:0|0:0,0:0:0:0:
403,44,95966,5,4,0:0:0:0:
116,109,96204,1,2,0:0:0:0:
116,109,96323,1,2,0:0:0:0:
116,109,96442,2,0,L|212:109,1,90,8|0,0:0|0:0,0:0:0:0:
403,206,96918,1,0,0:0:0:0:
195,205,97156,1,0,0:0:0:0:
403,206,97394,1,8,0:0:0:0:
403,206,97514,2,0,L|266:206,1,135,0|0,0:0|0:0,0:0:0:0:
127,266,98109,5,0,0:0:0:0:
129,115,98347,1,8,0:0:0:0:
277,310,98585,1,2,0:0:0:0:
277,310,98704,1,2,0:0:0:0:
277,310,98823,2,0,L|379:311,1,90,0|0,0:0|0:0,0:0:0:0:
453,132,99299,1,8,0:0:0:0:
450,310,99537,1,2,0:0:0:0:
450,310,99656,1,2,0:0:0:0:
450,310,99775,6,0,L|451:158,1,150,4|0,0:0|0:0,0:0:0:0:
452,89,100251,1,8,0:0:0:0:
329,195,100489,2,0,P|264:190|240:80,1,180,2|0,0:0|0:0,0:0:0:0:
498,194,101204,1,8,0:0:0:0:
498,194,101323,2,0,L|386:194,1,90,0|0,0:0|0:0,0:0:0:0:
329,195,101680,5,0,0:0:0:0:
405,107,101918,1,0,0:0:0:0:
216,239,102156,1,8,0:0:0:0:
146,115,102394,1,0,0:0:0:0:
146,115,102513,2,0,L|288:115,1,135,0|0,0:0|0:0,0:0:0:0:
37,195,103108,2,0,L|36:287,1,90,8|0,0:0|0:0,0:0:0:0:
37,69,103584,5,4,0:0:0:0:
163,234,103823,1,0,0:0:0:0:
37,195,104061,1,8,0:0:0:0:
163,35,104299,1,0,0:0:0:0:
163,35,104418,2,0,L|298:35,1,135,0|0,0:0|0:0,0:0:0:0:
412,154,105013,1,10,0:0:0:0:
412,154,105132,1,2,0:0:0:0:
412,154,105251,2,0,L|412:217,1,45,0|0,0:0|0:0,0:0:0:0:
413,271,105489,5,4,0:0:0:0:
155,161,105727,1,0,0:0:0:0:
233,333,105965,2,0,L|233:243,1,90,8|0,0:0|0:0,0:0:0:0:
233,243,106322,1,0,0:0:0:0:
233,243,106441,1,0,0:0:0:0:
341,142,106679,1,0,0:0:0:0:
233,243,106918,1,8,0:0:0:0:
155,80,107156,1,0,0:0:0:0:
155,80,107275,1,0,0:0:0:0:
155,80,107394,6,0,P|99:106|82:201,1,150,4|0,0:0|0:0,0:0:0:0:
111,254,107870,1,8,0:0:0:0:
249,340,108108,1,0,0:0:0:0:
248,339,108227,2,0,P|305:371|363:340,1,135,0|0,0:0|0:0,0:0:0:0:
306,220,108822,2,0,L|306:290,1,45,8|0,0:0|0:0,0:0:0:0:
384,212,109060,2,0,P|360:163|307:142,1,90,0|0,0:0|0:0,0:0:0:0:
457,143,109536,5,0,0:0:0:0:
306,220,109774,1,8,0:0:0:0:
196,99,110013,1,0,0:0:0:0:
196,99,110132,1,0,0:0:0:0:
196,99,110251,2,0,L|298:99,1,90,0|0,0:0|0:0,0:0:0:0:
360,101,110608,1,0,0:0:0:0:
307,220,110727,2,0,L|259:271,1,45,8|0,0:0|0:0,0:0:0:0:
163,246,110965,2,0,L|209:197,1,45,0|0,0:0|0:0,0:0:0:0:
361,159,111203,6,0,P|387:216|335:298,1,150,4|0,0:0|0:0,0:0:0:0:
307,220,111679,1,8,0:0:0:0:
166,58,111917,1,0,0:0:0:0:
166,58,112036,2,0,P|135:116|179:189,1,135,0|0,0:0|0:0,0:0:0:0:
275,119,112631,2,0,L|207:119,1,45,8|0,0:0|0:0,0:0:0:0:
304,48,112869,2,0,P|351:105|346:147,1,90,0|0,0:0|0:0,0:0:0:0:
307,220,113346,5,0,0:0:0:0:
160,312,113584,2,0,L|160:222,1,90,8|0,0:0|0:0,0:0:0:0:
160,222,113941,1,0,0:0:0:0:
160,222,114060,1,0,0:0:0:0:
281,293,114298,1,0,0:0:0:0:
333,157,114536,1,8,0:0:0:0:
212,75,114774,1,2,0:0:0:0:
212,75,114893,1,2,0:0:0:0:
212,75,115012,6,0,L|62:75,1,150,4|0,0:0|0:0,0:0:0:0:
62,75,115488,1,8,0:0:0:0:
143,209,115726,1,0,0:0:0:0:
143,209,115845,2,0,L|294:209,1,135,0|0,0:0|0:0,0:0:0:0:
212,75,116441,1,8,0:0:0:0:
212,75,116560,2,0,L|285:75,2,45,0|0|0,0:0|0:0|0:0,0:0:0:0:
136,74,116917,6,0,L|136:174,1,90,0|0,0:0|0:0,0:0:0:0:
263,243,117393,1,8,0:0:0:0:
382,126,117631,1,0,0:0:0:0:
382,126,117750,1,0,0:0:0:0:
382,126,117869,2,0,P|335:119|272:137,1,90,0|0,0:0|0:0,0:0:0:0:
76,203,118345,2,0,L|186:161,1,90,8|0,0:0|0:0,0:0:0:0:
294,127,118821,5,8,0:0:0:0:
468,127,119059,1,8,0:0:0:0:
468,300,119298,1,8,0:0:0:0:
294,300,119536,1,8,0:0:0:0:
294,300,120012,1,8,0:0:0:0:
294,127,120250,1,8,0:0:0:0:
294,300,120488,1,12,0:0:0:0:
294,300,120726,5,12,0:0:0:0:
117,300,120964,1,12,0:0:0:0:
117,300,121202,1,12,0:0:0:0:
117,127,121440,1,12,0:0:0:0:
117,127,121678,1,12,0:0:0:0:
422,56,121916,1,0,0:0:0:0:
255,191,122154,1,8,0:0:0:0:
90,56,122393,1,2,0:0:0:0:
90,56,122512,1,2,0:0:0:0:
90,56,122631,6,0,B|149:37|185:36|209:63|209:63|258:43|294:41|369:62,1,262.500002503395,12|0,0:0|0:0,0:0:0:0:
392,160,123107,2,0,L|392:251,1,78.7500007510185,8|0,0:0|0:0,0:0:0:0:
466,295,123345,2,0,P|409:323|307:275,1,157.500001502037,2|0,0:0|0:0,0:0:0:0:
217,135,123702,1,2,0:0:0:0:
217,135,123821,2,0,P|224:184|255:232,1,78.7500007510185,8|0,0:0|0:0,0:0:0:0:
434,227,124059,2,0,P|396:235|346:226,1,78.7500007510185,8|0,0:0|0:0,0:0:0:0:
86,229,124297,2,0,P|124:237|174:228,1,78.7500007510185,8|0,0:0|0:0,0:0:0:0:
348,59,124535,6,0,L|347:153,1,78.7500007510185,12|0,0:0|0:0,0:0:0:0:
287,326,124773,2,0,L|288:228,1,78.7500007510185,8|0,0:0|0:0,0:0:0:0:
217,56,125011,2,0,L|218:150,1,78.7500007510185,8|0,0:0|0:0,0:0:0:0:
143,323,125249,2,0,L|142:225,1,78.7500007510185,8|0,0:0|0:0,0:0:0:0:
132,79,125488,2,0,P|241:141|269:126,1,157.500001502037,2|0,0:0|0:0,0:0:0:0:
132,79,125845,2,0,P|132:196|280:220,1,236.250002253056,2|0,0:0|0:0,0:0:0:0:
401,43,126440,6,0,L|226:245,1,262.500002503395,12|0,0:0|0:0,0:0:0:0:
99,281,126916,2,0,L|169:204,1,78.7500007510185,8|0,0:0|0:0,0:0:0:0:
256,135,127154,2,0,P|308:228|278:294,2,157.500001502037,8|4|8,0:0|0:0|0:0,0:0:0:0:
63,66,127749,1,2,0:0:0:0:
147,63,127868,2,0,L|247:63,1,78.7500007510185,8|0,0:0|0:0,0:0:0:0:
434,151,128106,2,0,P|393:115|361:97,1,78.7500007510185,8|0,0:0|0:0,0:0:0:0:
257,135,128344,6,0,P|206:140|158:161,1,78.7500007510185,8|0,0:0|0:0,0:0:0:0:
232,250,128582,2,0,P|190:279|159:322,1,78.7500007510185,8|0,0:0|0:0,0:0:0:0:
327,310,128821,2,0,P|305:356|300:408,1,78.7500007510185,8|0,0:0|0:0,0:0:0:0:
408,224,129059,2,0,P|430:178|435:126,1,78.7500007510185,8|0,0:0|0:0,0:0:0:0:
330,158,129297,2,0,P|326:107|304:59,1,78.7500007510185,8|0,0:0|0:0,0:0:0:0:
48,294,129535,2,0,L|138:252,1,78.7500007510185,8|0,0:0|0:0,0:0:0:0:
48,90,129773,2,0,L|138:132,1,78.7500007510185,8|0,0:0|0:0,0:0:0:0:
347,205,130011,1,2,0:0:0:0:
347,205,130130,1,2,0:0:0:0:
347,205,130249,6,0,P|344:123|185:67,1,262.500002503395,12|0,0:0|0:0,0:0:0:0:
141,119,130725,2,0,L|208:49,1,78.7500007510185,8|0,0:0|0:0,0:0:0:0:
347,205,130963,2,0,P|295:277|208:273,2,157.500001502037,8|4|8,0:0|0:0|0:0,0:0:0:0:
196,62,131558,1,2,0:0:0:0:
196,62,131677,2,0,L|239:148,1,78.7500007510185,8|0,0:0|0:0,0:0:0:0:
225,312,131916,2,0,L|177:221,1,78.7500007510185,8|0,0:0|0:0,0:0:0:0:
299,92,132154,6,0,L|222:138,1,78.7500007510185,8|0,0:0|0:0,0:0:0:0:
225,312,132392,2,0,L|302:266,1,78.7500007510185,8|0,0:0|0:0,0:0:0:0:
116,153,132630,2,0,L|165:233,1,78.7500007510185,8|0,0:0|0:0,0:0:0:0:
341,159,132868,2,0,L|292:79,1,78.7500007510185,8|0,0:0|0:0,0:0:0:0:
70,24,133106,2,0,P|164:79|207:51,1,157.500001502037,8|0,0:0|0:0,0:0:0:0:
145,7,133463,1,2,0:0:0:0:
145,7,133582,2,0,L|111:128,1,78.7500007510185,8|0,0:0|0:0,0:0:0:0:
57,301,133820,2,0,L|83:223,1,78.7500007510185,8|0,0:0|0:0,0:0:0:0:
410,51,134058,6,0,P|310:31|216:167,1,262.500002503395,12|0,0:0|0:0,0:0:0:0:
216,301,134534,2,0,L|216:136,1,157.500001502037,8|0,0:0|0:0,0:0:0:0:
344,92,134892,2,0,L|426:40,2,78.7500007510185,8|4|8,0:0|0:0|0:0,0:0:0:0:
109,238,135249,2,0,L|207:171,1,78.7500007510185,8|0,0:0|0:0,0:0:0:0:
451,199,135487,2,0,L|340:164,1,78.7500007510185,8|0,0:0|0:0,0:0:0:0:
77,86,135725,2,0,L|188:121,1,78.7500007510185,8|0,0:0|0:0,0:0:0:0:
354,324,135963,6,0,L|309:216,1,78.7500007510185,8|0,0:0|0:0,0:0:0:0:
211,0,136201,2,0,L|255:107,1,78.7500007510185,8|0,0:0|0:0,0:0:0:0:
190,311,136439,1,10,0:0:0:0:
215,293,136558,1,2,0:0:0:0:
232,266,136677,1,2,0:0:0:0:
239,235,136796,2,0,P|240:190|206:143,1,78.7500007510185,6|0,0:0|0:0,0:0:0:0:
77,86,137034,1,2,0:0:0:0:
77,86,137153,2,0,P|76:131|110:178,1,78.7500007510185,4|0,0:0|0:0,0:0:0:0:
350,112,137391,2,0,P|315:100|235:110,1,78.7500007510185,12|0,0:0|0:0,0:0:0:0:
38,221,137629,2,0,P|73:233|153:223,1,78.7500007510185,4|0,0:0|0:0,0:0:0:0:
432,151,137867,6,0,P|366:27|259:99,1,262.500002503395,12|0,0:0|0:0,0:0:0:0:
153,290,138344,2,0,P|120:218|170:156,1,157.500001502037,8|0,0:0|0:0,0:0:0:0:
230,206,138701,1,2,0:0:0:0:
234,286,138820,2,0,P|200:357|94:344,1,157.500001502037,8|0,0:0|0:0,0:0:0:0:
39,221,139177,1,2,0:0:0:0:
39,221,139296,2,0,L|122:268,1,78.7500007510185,8|0,0:0|0:0,0:0:0:0:
39,111,139534,2,0,L|122:64,1,78.7500007510185,8|0,0:0|0:0,0:0:0:0:
309,70,139772,6,0,L|176:70,1,78.7500007510185,8|0,0:0|0:0,0:0:0:0:
478,153,140010,2,0,L|345:153,1,78.7500007510185,8|0,0:0|0:0,0:0:0:0:
220,303,140248,2,0,L|87:303,1,78.7500007510185,8|0,0:0|0:0,0:0:0:0:
364,231,140486,2,0,L|231:231,1,78.7500007510185,8|0,0:0|0:0,0:0:0:0:
115,126,140724,2,0,L|226:126,1,78.7500007510185,8|0,0:0|0:0,0:0:0:0:
392,146,140962,1,2,0:0:0:0:
392,146,141082,1,2,0:0:0:0:
392,146,141201,2,0,P|449:225|383:321,1,157.500001502037,8|0,0:0|0:0,0:0:0:0:
282,358,141558,1,2,0:0:0:0:
282,358,141677,6,0,P|313:264|465:217,1,262.500002503395,12|0,0:0|0:0,0:0:0:0:
458,294,142153,2,0,L|458:180,1,78.7500007510185,8|0,0:0|0:0,0:0:0:0:
459,61,142391,2,0,L|458:140,2,78.7500007510185,8|4|8,0:0|0:0|0:0,0:0:0:0:
369,28,142748,1,2,0:0:0:0:
277,58,142867,2,0,P|249:77|205:132,1,78.7500007510185,8|0,0:0|0:0,0:0:0:0:
147,303,143105,2,0,P|175:284|219:229,1,78.7500007510185,8|0,0:0|0:0,0:0:0:0:
84,109,143343,2,0,P|103:137|158:181,1,78.7500007510185,8|0,0:0|0:0,0:0:0:0:
350,101,143581,6,0,P|326:132|297:158,1,78.7500007510185,4|0,0:0|0:0,0:0:0:0:
407,213,143819,2,0,P|371:229|332:236,1,78.7500007510185,4|0,0:0|0:0,0:0:0:0:
404,336,144057,2,0,P|364:331|327:319,1,78.7500007510185,12|0,0:0|0:0,0:0:0:0:
79,267,144296,2,0,P|111:288|148:303,1,78.7500007510185,4|0,0:0|0:0,0:0:0:0:
154,157,144534,2,0,P|171:192|195:223,1,78.7500007510185,4|0,0:0|0:0,0:0:0:0:
270,104,144772,2,0,P|267:143|272:182,1,78.7500007510185,4|0,0:0|0:0,0:0:0:0:
399,110,145010,2,0,P|377:142|362:179,1,78.7500007510185,12|0,0:0|0:0,0:0:0:0:
289,337,145248,1,2,0:0:0:0:
289,337,145367,1,2,0:0:0:0:
289,337,145486,6,0,P|418:294|428:148,1,262.500002503395,12|0,0:0|0:0,0:0:0:0:
270,104,145962,2,0,L|154:80,2,78.7500007510185,8|4|8,0:0|0:0|0:0,0:0:0:0:
321,223,146319,1,2,0:0:0:0:
321,223,146438,2,0,L|228:204,1,78.7500007510185,12|0,0:0|0:0,0:0:0:0:
476,35,146676,2,0,L|441:149,1,78.7500007510185,12|0,0:0|0:0,0:0:0:0:
105,241,146914,2,0,L|187:264,1,78.7500007510185,12|0,0:0|0:0,0:0:0:0:
378,50,147152,2,0,L|350:136,1,78.7500007510185,12|0,0:0|0:0,0:0:0:0:
365,352,147391,6,0,L|400:254,1,78.7500007510185,12|0,0:0|0:0,0:0:0:0:
150,43,147629,2,0,L|236:68,1,78.7500007510185,12|0,0:0|0:0,0:0:0:0:
454,327,147867,2,0,L|482:240,1,78.7500007510185,12|0,0:0|0:0,0:0:0:0:
159,130,148105,1,2,0:0:0:0:
159,130,148224,1,2,0:0:0:0:
159,130,148343,2,0,L|250:158,1,78.7500007510185,8|0,0:0|0:0,0:0:0:0:
150,257,148581,2,0,P|238:179|198:105,1,157.500001502037,8|8,0:0|0:0,0:0:0:0:
337,44,149057,1,8,0:0:0:0:
378,220,149295,5,8,0:0:0:0:
271,341,149533,1,8,0:0:0:0:
221,205,149771,1,8,0:0:0:0:
359,311,150009,1,8,0:0:0:0:
359,311,150486,1,12,0:0:0:0:
467,176,150724,1,12,0:0:0:0:
352,46,150962,1,12,0:0:0:0:
194,71,151200,6,0,L|217:169,1,72,4|0,0:0|0:0,0:0:0:0:
113,172,151676,2,0,L|119:252,1,80.9999975280763,4|0,0:0|0:0,0:0:0:0:
14,262,152152,2,0,L|10:379,1,90,4|0,0:0|0:0,0:0:0:0:
14,105,152628,1,8,0:0:0:0:
194,71,152866,1,2,0:0:0:0:
194,71,152985,1,2,0:0:0:0:
194,71,153104,1,2,0:0:0:0:
