osu file format v13

[General]
AudioFilename: Shibayan feat. 3L - MyonMyonMyonMyonMyonMyon!.mp3
AudioLeadIn: 0
PreviewTime: 46295
Countdown: 0
SampleSet: Soft
StackLeniency: 0.7
Mode: 0
LetterboxInBreaks: 1
EpilepsyWarning: 1
WidescreenStoryboard: 1

[Editor]
Bookmarks: 16059,46295,76531
DistanceSpacing: 0.5
BeatDivisor: 8
GridSize: 4
TimelineZoom: 1

[Metadata]
Title:MyonMyonMyonMyonMyonMyon!
TitleUnicode:MyonMyonMyonMyonMyonMyon!
Artist:Shibayan feat. 3L
ArtistUnicode:Shibayan feat. 3L
Creator:11t
Version:Myoism
Source:Touhou
Tags:
BeatmapID:383436
BeatmapSetID:156492

[Difficulty]
HPDrainRate:5
CircleSize:4
OverallDifficulty:7
ApproachRate:9
SliderMultiplier:3
SliderTickRate:1

[Events]
//Background and Video events
0,0,"sb\pink.jpg",0,0
//Break Periods
//Storyboard Layer 0 (Background)
//Storyboard Layer 1 (Fail)
//Storyboard Layer 2 (Pass)
//Storyboard Layer 3 (Foreground)
//Storyboard Sound Samples

[TimingPoints]
941,472.44094488189,4,1,0,100,1,0
16059,-100,4,2,1,80,0,0
17004,-100,4,2,2,80,0,1
17358,-100,4,2,1,80,0,0
19366,-166.666666666667,4,2,1,80,0,0
19838,-100,4,2,1,80,0,0
26452,-71.4285714285714,4,2,1,80,0,1
26571,-100,4,2,1,80,0,0
34484,-166.666666666667,4,2,1,80,0,0
34956,-100,4,2,1,80,0,0
38500,-71.4285714285714,4,2,1,80,0,0
38736,-100,4,2,1,80,0,0
41571,-71.4285714285714,4,2,1,80,0,0
41807,-100,4,2,1,80,0,0
43460,-133.333333333333,4,2,1,80,0,0
43933,-100,4,2,1,80,0,0
46295,-71.4285714285714,4,2,2,60,0,1
46413,-100,4,2,1,60,0,0
46531,-71.4285714285714,4,2,1,60,0,1
46649,-100,4,2,1,60,0,0
47240,-71.4285714285714,4,2,1,60,0,1
47358,-100,4,2,1,60,0,0
47712,-166.666666666667,4,2,1,60,0,0
47948,-71.4285714285714,4,2,1,60,0,1
48067,-100,4,2,1,60,0,0
48421,-71.4285714285714,4,2,1,60,0,1
48539,-100,4,2,1,60,0,0
48893,-100,4,2,1,65,0,0
49130,-71.4285714285714,4,2,1,60,0,1
49248,-100,4,2,1,60,0,0
49366,-71.4285714285714,4,2,1,60,0,1
49484,-100,4,2,1,60,0,0
49838,-125,4,2,1,70,0,0
49956,-125,4,2,1,60,0,0
50074,-71.4285714285714,4,2,1,60,0,1
50193,-100,4,2,1,60,0,1
50547,-125,4,2,1,60,0,1
50783,-100,4,2,1,60,0,1
51019,-71.4285714285714,4,2,1,60,0,1
51137,-100,4,2,1,60,0,1
51728,-100,4,2,2,60,0,1
52437,-100,4,2,1,60,0,1
53854,-71.4285714285714,4,2,1,60,0,1
54326,-100,4,2,1,60,0,1
54799,-71.4285714285714,4,2,1,60,0,1
55035,-100,4,2,1,60,0,1
55271,-166.666666666667,4,2,1,60,0,1
55508,-71.4285714285714,4,2,1,60,0,1
56216,-100,4,2,1,60,0,1
56689,-71.4285714285714,4,2,1,60,0,1
57161,-125,4,2,1,60,0,1
57397,-125,4,2,1,60,0,1
57634,-71.4285714285714,4,2,1,60,0,1
58106,-100,4,2,1,60,0,1
58578,-66.6666666666667,4,2,1,60,0,1
58815,-100,4,2,1,60,0,1
59287,-83.3333333333333,4,2,1,60,0,1
59760,-100,4,2,1,60,0,1
59996,-166.666666666667,4,2,1,60,0,0
61413,-71.4285714285714,4,2,2,60,0,1
61531,-71.4285714285714,4,2,1,60,0,1
61885,-100,4,2,1,60,0,1
62358,-71.4285714285714,4,2,1,60,0,1
62594,-100,4,2,1,60,0,1
62830,-50,4,2,1,60,0,1
63067,-71.4285714285714,4,2,1,60,0,1
63775,-100,4,2,1,60,0,1
64011,-100,4,2,1,60,0,1
64248,-100,4,2,1,60,0,1
64956,-125,4,2,1,60,0,1
65193,-71.4285714285714,4,2,1,60,0,1
65665,-100,4,2,1,60,0,1
66137,-71.4285714285714,4,2,1,60,0,1
66374,-100,4,2,1,60,0,1
66846,-100,4,2,2,60,0,1
67555,-100,4,2,1,60,0,1
68972,-71.4285714285714,4,2,1,60,0,1
69208,-66.6666666666667,4,2,1,60,0,1
69445,-100,4,2,1,60,0,1
69917,-71.4285714285714,4,2,1,60,0,1
70153,-100,4,2,1,60,0,1
70626,-71.4285714285714,4,2,1,60,0,1
71334,-100,4,2,1,60,0,1
71807,-71.4285714285714,4,2,1,60,0,1
72279,-100,4,2,1,60,0,1
72752,-71.4285714285714,4,2,1,60,0,1
73224,-100,4,2,1,60,0,1
73697,-71.4285714285714,4,2,1,60,0,1
73933,-100,4,2,1,60,0,1
74878,-71.4285714285714,4,2,1,60,0,1
75350,-100,4,2,1,60,0,1
75586,-90.9090909090909,4,2,1,60,0,1
76413,-100,4,2,1,60,0,0
76531,-100,4,2,1,60,0,1
76649,-100,4,2,1,60,0,0

[Colours]
Combo1 : 216,114,137
Combo2 : 200,200,200
Combo3 : 30,160,70

[HitObjects]
180,168,16059,38,0,P|220:168|268:152,1,75
416,116,16295,2,0,P|376:116|328:132,1,75,2|0,0:0|0:0,0:0:0:0:
180,168,16531,2,0,L|192:248,1,75,8|0,0:0|0:0,0:0:0:0:
354,200,16767,2,0,L|342:120,1,75,4|0,0:3|0:0,0:0:0:0:
116,292,17003,2,0,P|192:332|280:232,1,225,6|0,0:0|0:0,0:0:0:0:
260,84,17476,2,0,L|264:168,1,75,10|0,0:0|0:0,0:0:0:0:
116,292,17712,6,0,P|192:332|280:232,1,225,6|0,0:0|0:0,0:0:0:0:
427,214,18185,2,0,P|391:210|351:198,1,75,4|0,0:0|0:0,0:0:0:0:
328,60,18421,2,0,P|304:96|260:128,1,75,8|0,0:0|0:0,0:0:0:0:
128,160,18657,2,0,L|24:176,1,75,2|0,0:0|0:0,0:0:0:0:
184,16,18893,2,0,L|188:112,1,75,4|0,0:0|0:0,0:0:0:0:
224,320,19130,2,0,L|220:245,1,75,4|0,0:0|0:0,0:0:0:0:
128,160,19366,6,2,L|276:176,1,134.999995880127,8|0,0:0|0:0,0:1:0:0:
432,264,19838,54,0,L|344:268,1,75,4|0,0:0|0:0,0:0:0:0:
148,292,20074,2,0,L|222:288,1,75,4|0,0:0|0:0,0:0:0:0:
364,188,20311,2,0,L|376:80,1,75,8|0,0:0|0:0,0:0:0:0:
231,214,20547,2,0,L|219:322,1,75
380,36,20783,1,6,0:0:0:0:
380,36,21256,6,0,L|276:52,1,75,8|0,0:0|0:0,0:0:0:0:
152,128,21492,2,0,P|172:96|176:36,1,75,4|0,0:0|0:0,0:0:0:0:
306,48,21728,2,0,L|302:140,1,75
86,164,21964,2,0,L|152:128,1,75,4|0,0:0|0:0,0:0:0:0:
371,151,22200,2,0,P|339:131|302:122,1,75,8|0,0:0|0:0,0:0:0:0:
180,268,22437,2,0,B|228:252|228:252|268:216,1,75,2|0,0:0|0:0,0:0:0:0:
380,232,22673,6,0,L|392:316,1,75,4|0,0:0|0:0,0:0:0:0:
476,248,22909,2,0,L|524:224,1,37.5,2|2,0:0|0:0,0:0:0:0:
468,212,23027,2,0,L|516:188,1,37.5,2|2,0:0|0:0,0:0:0:0:
460,176,23145,2,0,P|384:140|284:244,1,225,12|0,0:0|0:0,0:0:0:0:
196,360,23618,6,0,P|216:332|220:280,1,75,6|0,0:0|0:0,0:0:0:0:
216,108,23854,2,0,L|220:200,1,75,2|0,0:0|0:0,0:0:0:0:
136,300,24090,2,0,B|96:296|96:296|52:300,1,75,10|0,0:0|0:0,0:0:0:0:
141,109,24326,2,0,B|181:105|181:105|225:109,1,75,2|0,0:0|0:0,0:0:0:0:
304,256,24563,1,6,0:0:0:0:
304,256,25035,6,0,B|364:268|364:268|388:296,1,75,10|0,0:0|0:0,0:0:0:0:
448,355,25271,2,0,P|373:239|433:167,1,225,6|0,0:0|0:0,0:0:0:0:
376,68,25744,2,0,L|288:80,1,75,4|0,0:0|0:0,0:0:0:0:
140,108,25980,2,0,P|151:143|148:180,1,75,8|0,0:0|0:0,0:0:0:0:
48,272,26216,2,0,L|124:260,1,75
236,164,26452,6,0,P|228:116|232:48,1,104.999996795654,6|0,0:0|0:0,0:0:0:0:
432,199,26689,6,0,P|399:217|363:226,1,75,4|0,0:0|0:0,0:0:0:0:
208,352,26925,2,0,L|220:252,1,75,8|0,0:0|0:0,0:0:0:0:
376,68,27161,2,0,L|364:168,1,75
151,263,27397,6,0,L|243:227,1,75,4|0,0:0|0:0,0:0:0:0:
432,200,27634,2,0,L|348:232,1,75,4|0,0:0|0:0,0:0:0:0:
220,236,27870,2,0,P|236:192|232:136,1,75,8|0,0:0|0:0,0:0:0:0:
144,92,28106,2,0,P|112:116|48:140,1,75
376,144,28342,1,6,0:0:0:0:
376,144,28815,6,0,L|348:248,1,75,8|0,0:0|0:0,0:0:0:0:
368,364,29051,2,0,B|340:322|341:256|341:256|309:314|264:336,1,225,4|0,0:0|0:0,0:0:0:0:
120,328,29523,2,0,P|152:320|196:292,1,75,4|0,0:0|0:0,0:0:0:0:
204,88,29760,2,0,P|226:118|274:142,1,75,12|0,0:0|0:0,0:0:0:0:
376,144,29996,2,0,P|351:171|332:203,1,75,0|0,0:0|0:0,0:0:0:0:
276,300,30232,6,0,L|236:228,1,75,4|0,0:0|0:0,0:0:0:0:
128,56,30468,2,0,L|128:156,1,75,8|0,0:3|0:0,0:0:0:0:
100,248,30704,2,0,B|124:146|112:44|112:44|136:60,1,225,12|0,0:0|0:0,0:0:0:0:
204,88,31118,1,2,0:0:0:0:
204,88,31177,6,0,P|240:88|300:56,1,75,4|0,0:0|0:0,0:0:0:0:
400,16,31413,2,0,L|364:108,1,75
340,240,31649,2,0,L|376:148,1,75,8|0,0:0|0:0,0:0:0:0:
484,112,31885,2,0,L|448:204,1,75
392,344,32122,2,0,P|367:266|224:228,1,225,6|0,0:0|0:0,0:0:0:0:
193,165,32594,2,0,L|242:223,1,75,8|0,0:0|0:0,0:0:0:0:
392,344,32830,6,0,P|336:300|192:356,1,225,6|0,0:0|0:0,0:0:0:0:
152,284,33303,2,0,L|201:342,1,75,4|0,0:0|0:0,0:0:0:0:
108,160,33539,2,0,B|68:161|68:161|28:156,1,75,10|0,0:0|0:0,0:0:0:0:
256,100,33775,2,0,B|294:98|294:98|336:104,1,75,2|0,0:0|0:0,0:0:0:0:
460,32,34011,2,0,L|436:144,1,75,4|0,0:0|0:0,0:0:0:0:
368,272,34248,2,0,L|392:160,1,75,4|0,0:0|0:0,0:0:0:0:
296,204,34484,6,0,P|232:224|160:188,1,134.999995880127,8|0,0:0|0:0,0:0:0:0:
368,272,34956,6,0,L|392:160,1,75,4|0,0:0|0:0,0:0:0:0:
352,64,35193,2,0,P|320:80|260:88,1,75,4|0,0:0|0:0,0:0:0:0:
48,220,35429,2,0,P|80:232|140:300,1,75,8|0,0:0|0:0,0:0:0:0:
144,156,35665,2,0,L|172:60,1,75
88,344,35901,1,4,0:0:0:0:
88,344,36374,6,0,L|184:356,1,75,8|0,0:0|0:0,0:0:0:0:
192,172,36610,2,0,P|240:173|300:180,1,75,4|0,0:0|0:0,0:0:0:0:
240,264,36846,2,0,P|283:266|348:264,1,75
96,87,37082,2,0,P|144:92|192:93,1,75,4|0,0:0|0:0,0:0:0:0:
40,240,37319,2,0,P|100:232|132:232,1,75,8|0,0:0|0:0,0:0:0:0:
256,108,37555,2,0,P|312:104|360:92,1,75,4|0,0:0|0:0,0:0:0:0:
296,248,37791,6,0,L|312:324,1,75,4|0,0:0|0:0,0:0:0:0:
444,116,38027,2,0,L|464:147,1,37.5,2|2,0:0|0:0,0:0:0:0:
428,152,38145,2,0,L|439:187,1,37.5,2|2,0:0|0:0,0:0:0:0:
412,188,38263,2,0,L|404:262,1,75,8|0,0:0|0:0,0:0:0:0:
332,120,38500,2,0,B|346:42|346:42|312:56,1,104.999996795654,2|0,0:0|0:0,0:0:0:0:
144,88,38736,6,0,P|180:80|232:44,1,75,4|0,0:0|0:0,0:0:0:0:
128,192,38972,2,0,P|92:200|36:240,1,75,4|0,0:0|0:0,0:0:0:0:
160,356,39208,2,0,L|128:284,1,75,8|0,0:0|0:0,0:0:0:0:
236,164,39445,2,0,P|232:208|208:260,1,75,4|0,0:3|0:0,0:0:0:0:
344,344,39681,2,0,L|332:104,1,225,4|0,0:0|0:0,0:0:0:0:
472,180,40153,6,0,L|428:256,1,75,8|0,0:0|0:0,0:0:0:0:
228,60,40389,1,4,0:0:0:0:
228,60,40862,6,0,L|156:144,1,75,4|0,0:0|0:0,0:0:0:0:
48,40,41098,2,0,L|148:48,1,75,8|0,0:0|0:0,0:0:0:0:
202,222,41334,2,0,L|128:220,1,75,8|0,0:3|0:0,0:0:0:0:
312,268,41571,6,0,P|340:208|328:144,1,104.999996795654,4|0,0:0|0:0,0:0:0:0:
147,147,41807,6,0,L|123:239,1,75,4|0,0:0|0:0,0:0:0:0:
339,171,42043,2,0,L|299:95,1,75,8|0,0:0|0:0,0:0:0:0:
44,256,42279,2,0,P|104:306|196:280,2,150,6|4|4,0:0|0:0|0:0,0:0:0:0:
216,52,42988,5,8,0:0:0:0:
280,348,43224,2,0,L|260:264,1,75,6|0,0:3|0:0,0:0:0:0:
301,199,43401,1,2,0:0:0:0:
301,199,43460,6,0,B|341:171|341:171|317:143|257:147|237:207,1,168.750006437302,4|0,0:0|0:0,0:0:0:0:
128,80,43933,6,0,L|196:144,1,75,8|0,0:0|0:0,0:0:0:0:
381,96,44169,2,0,P|275:72|182:131,1,225,4|0,0:0|0:0,0:0:0:0:
152,264,44641,2,0,P|144:312|132:344,1,75,14|0,0:0|0:0,0:0:0:0:
32,176,44878,2,0,L|128:188,1,75,14|0,0:0|0:0,0:0:0:0:
376,196,45114,2,0,L|276:200,1,75,2|0,0:0|0:0,0:0:0:0:
152,264,45350,6,0,L|60:272,1,75,14|0,0:0|0:0,0:0:0:0:
388,276,45586,2,0,L|472:292,1,75,10|0,0:3|0:0,0:0:0:0:
272,332,45823,2,0,B|260:364|232:344|232:344|228:196|228:196|208:172,1,225,14|0,0:0|0:0,0:0:0:0:
144,76,46236,1,2,0:0:0:0:
144,76,46295,6,0,P|194:95|276:80,1,104.999996795654,6|0,0:0|0:0,0:0:0:0:
388,56,46531,2,0,B|396:32|396:32|284:44,1,104.999996795654,4|0,0:0|0:0,0:0:0:0:
68,20,46767,2,0,P|52:60|60:112,1,75,14|0,0:0|0:0,0:0:0:0:
56,276,47004,1,8,0:3:0:0:
56,276,47122,1,4,0:3:0:0:
56,276,47240,6,0,P|84:232|80:172,1,104.999996795654,4|0,0:0|0:0,0:0:0:0:
144,76,47476,2,0,L|172:160,1,75,2|0,0:3|0:0,0:0:0:0:
0,320,47712,2,0,L|48:312,1,44.999998626709,10|0,0:0|0:0,0:0:0:0:
208,240,47948,6,0,P|284:272|408:220,1,209.999993591309,4|0,0:0|0:0,0:0:0:0:
399,230,48421,6,0,B|432:309|432:309|412:345,1,104.999996795654,4|0,0:0|0:0,0:0:0:0:
340,128,48657,2,0,L|413:141,1,75,8|0,0:0|0:0,0:0:0:0:
184,144,48893,5,2,0:0:0:0:
196,116,49011,1,2,0:0:0:0:
224,32,49130,2,0,P|280:44|336:40,1,104.999996795654,6|0,0:0|0:0,0:0:0:0:
108,104,49366,2,0,P|56:100|4:128,1,104.999996795654,4|0,0:0|0:0,0:0:0:0:
60,316,49602,6,0,P|80:260|60:180,1,112.5,10|0,0:0|0:0,0:0:0:0:
74,208,49838,2,0,L|139:236,1,60,8|0,0:3|0:0,0:0:0:0:
336,296,50074,6,0,B|300:292|300:292|220:308,1,104.999996795654,4|0,0:0|0:0,0:0:0:0:
405,189,50311,2,0,B|432:192|432:192|480:184,1,75,4|0,0:0|0:0,0:0:0:0:
438,292,50547,2,0,L|432:352,1,60,8|0,0:0|0:0,0:0:0:0:
452,88,50783,1,4,0:3:0:0:
452,88,50901,1,8,0:3:0:0:
452,88,51019,6,0,B|360:80|360:80|344:48,1,104.999996795654,4|0,0:0|0:0,0:0:0:0:
200,124,51256,2,0,P|240:124|280:108,1,75
128,200,51492,2,0,B|92:196|92:196|52:200,1,75,8|0,0:0|0:0,0:0:0:0:
36,36,51728,1,6,0:0:0:0:
472,352,52200,5,6,0:0:0:0:
360,128,52437,2,0,L|288:188,1,75,8|0,0:0|0:0,0:0:0:0:
172,276,52673,2,0,L|248:292,1,75,2|0,0:0|0:0,0:0:0:0:
303,176,52909,6,0,P|233:201|160:191,1,150,4|0,0:0|0:0,0:0:0:0:
344,48,53263,1,10,0:3:0:0:
390,202,53382,2,0,B|364:220|364:220|247:199,1,150,12|0,0:0|0:0,0:0:0:0:
144,104,53736,5,0,0:0:0:0:
132,92,53795,1,0,0:0:0:0:
120,80,53854,2,0,P|72:104|44:160,1,104.999996795654,4|0,0:0|0:0,0:0:0:0:
68,336,54090,2,0,B|84:260|84:260|56:216,1,104.999996795654,4|0,0:0|0:0,0:0:0:0:
232,16,54326,2,0,L|240:124,1,75,8|0,0:0|0:0,0:0:0:0:
256,256,54563,1,4,0:3:0:0:
232,236,54681,1,8,0:3:0:0:
328,156,54799,6,0,P|372:140|448:152,1,104.999996795654,4|0,0:0|0:0,0:0:0:0:
488,292,55035,2,0,L|388:300,1,75,2|0,0:3|0:0,0:0:0:0:
464,68,55271,2,0,L|484:0,1,44.999998626709,10|0,0:0|0:0,0:0:0:0:
256,108,55508,6,0,L|36:132,1,209.999993591309,4|0,0:0|0:0,0:0:0:0:
47,131,55980,6,0,P|62:179|55:244,1,104.999996795654,4|0,0:0|0:0,0:0:0:0:
136,380,56216,2,0,L|148:292,1,75,8|0,0:0|0:0,0:0:0:0:
212,132,56452,1,2,0:0:0:0:
224,104,56571,1,2,0:0:0:0:
264,208,56689,6,0,P|304:236|376:240,1,104.999996795654,4|0,0:0|0:0,0:0:0:0:
512,164,56925,2,0,P|460:152|408:164,1,104.999996795654,4|0,0:0|0:0,0:0:0:0:
272,344,57161,6,0,L|260:152,1,180,10|0,0:0|0:0,0:0:0:0:
96,288,57634,6,0,B|184:296|184:296|172:332,1,104.999996795654,4|0,0:0|0:0,0:0:0:0:
352,268,57870,2,0,B|432:280|432:280|464:224,1,104.999996795654,4|0,0:0|0:0,0:0:0:0:
440,72,58106,2,0,L|376:136,1,75,8|0,0:0|0:0,0:0:0:0:
272,344,58342,1,8,0:3:0:0:
260,316,58460,1,4,0:3:0:0:
176,224,58578,6,0,B|176:172|148:144|148:144|112:200,1,112.500004291535,4|0,0:0|0:0,0:0:0:0:
306,81,58815,2,0,B|269:77|269:77|231:79,1,75,2|0,0:0|0:0,0:0:0:0:
40,148,59051,2,0,B|73:149|73:149|114:146,1,75,10|0,0:0|0:0,0:0:0:0:
364,144,59287,6,0,B|347:174|312:174|312:174|295:239|295:239|241:257|195:217|206:149,1,269.999991760254,4|0,0:0|0:0,0:0:0:0:
440,96,59759,2,0,P|452:140|439:199,1,89.9999972534181,4|0,0:0|0:0,0:0:0:0:
260,352,59996,1,4,0:0:0:0:
56,52,60468,1,6,0:0:0:0:
456,52,60941,1,14,0:0:0:0:
164,48,61413,6,0,B|240:28|240:28|276:32,1,104.999996795654,6|0,0:0|0:0,0:0:0:0:
36,152,61649,2,0,B|128:140|128:140|156:116,1,104.999996795654,4|0,0:0|0:0,0:0:0:0:
304,112,61885,2,0,P|272:116|216:104,1,75,8|0,0:0|0:0,0:0:0:0:
212,288,62122,1,4,0:3:0:0:
212,288,62240,1,8,0:3:0:0:
212,288,62358,6,0,L|316:284,1,104.999996795654,4|0,0:0|0:0,0:0:0:0:
272,116,62594,2,0,L|260:220,1,75,2|0,0:3|0:0,0:0:0:0:
96,312,62830,6,0,B|120:300|120:300|216:320|216:320|264:304,1,150,10|0,0:0|0:0,0:0:0:0:
420,344,63067,6,0,P|396:296|412:216,1,104.999996795654,4|0,0:0|0:0,0:0:0:0:
398,245,63539,2,0,L|432:104,1,104.999996795654,4|0,0:0|0:0,0:0:0:0:
232,44,63775,2,0,P|196:56|136:64,1,75,8|0,0:0|0:0,0:0:0:0:
236,192,64011,1,2,0:0:0:0:
264,176,64130,1,2,0:0:0:0:
422,143,64248,6,0,P|391:89|392:32,1,112.5,4|0,0:0|0:0,0:0:0:0:
390,40,64484,2,0,P|351:57|284:56,1,75,4|0,0:0|0:0,0:0:0:0:
200,288,64720,2,0,P|259:289|320:248,1,112.5,8|0,0:0|0:0,0:0:0:0:
304,264,64956,2,0,L|310:327,1,60,8|0,0:3|0:0,0:0:0:0:
88,236,65193,6,0,L|84:112,1,104.999996795654,4|0,0:0|0:0,0:0:0:0:
48,336,65429,2,0,L|52:220,1,104.999996795654,4|0,0:0|0:0,0:0:0:0:
304,264,65665,1,8,0:0:0:0:
168,88,65901,1,4,0:3:0:0:
168,88,66019,1,8,0:3:0:0:
168,88,66137,6,0,P|212:116|280:116,1,104.999996795654,4|0,0:0|0:0,0:0:0:0:
416,152,66374,2,0,L|328:164,1,75,2|0,0:3|0:0,0:0:0:0:
124,208,66610,2,0,L|208:224,1,75,8|0,0:0|0:0,0:0:0:0:
468,40,66846,1,6,0:0:0:0:
36,348,67319,5,6,0:0:0:0:
51,199,67555,2,0,P|87:199|139:215,1,75,8|0,0:0|0:0,0:0:0:0:
220,160,67791,2,0,L|224:244,1,75,6|0,0:0|0:0,0:0:0:0:
360,296,68027,6,0,P|408:256|432:164,1,150,4|0,0:0|0:0,0:0:0:0:
224,236,68382,1,8,0:3:0:0:
280,340,68500,2,0,P|333:339|426:210,1,225,14|0,0:0|0:0,0:0:0:0:
456,84,68913,1,2,0:0:0:0:
456,84,68972,6,0,L|512:188,1,104.999996795654,6|0,0:0|0:0,0:0:0:0:
320,132,69208,2,0,B|312:88|356:56|356:56|376:92,1,112.500004291535,4|0,0:0|0:0,0:0:0:0:
297,223,69445,2,0,P|265:235|193:227,1,75,8|0,0:0|0:0,0:0:0:0:
144,72,69681,1,4,0:3:0:0:
152,44,69799,1,8,0:3:0:0:
192,156,69917,6,0,P|153:185|140:248,1,104.999996795654,4|0,0:0|0:0,0:0:0:0:
316,296,70153,2,0,L|292:208,1,75,2|0,0:3|0:0,0:0:0:0:
400,248,70389,2,0,L|452:256,2,37.5,10|0|0,0:0|0:0|0:0,0:0:0:0:
216,304,70626,6,0,P|124:344|36:256,1,209.999993591309,4|0,0:0|0:0,0:0:0:0:
43,284,71098,6,0,P|61:229|36:160,1,104.999996795654,4|0,0:0|0:0,0:0:0:0:
24,72,71334,2,0,P|60:76|116:56,1,75,8|0,0:0|0:0,0:0:0:0:
212,44,71571,2,0,L|188:176,1,112.5,10|0,0:3|0:0,0:0:0:0:
192,155,71807,6,0,P|239:135|291:140,1,104.999996795654,4|0,0:0|0:0,0:0:0:0:
388,188,72043,2,0,B|436:196|460:168|460:168|416:132,1,104.999996795654,4|0,0:0|0:0,0:0:0:0:
312,224,72279,2,0,L|284:332,1,112.5,10|0,0:0|0:0,0:0:0:0:
284,333,72515,2,0,P|246:328|198:340,1,75,10|0,0:3|0:0,0:0:0:0:
100,364,72752,6,0,P|104:315|96:260,1,104.999996795654,4|0,0:0|0:0,0:0:0:0:
32,184,72988,2,0,P|60:136|72:84,1,104.999996795654,4|0,0:0|0:0,0:0:0:0:
276,72,73224,2,0,L|184:80,1,75,8|0,0:0|0:0,0:0:0:0:
324,176,73460,1,2,0:0:0:0:
348,160,73578,1,2,0:0:0:0:
372,144,73697,6,0,P|392:88|376:36,1,104.999996795654,4|0,0:0|0:0,0:0:0:0:
240,172,73933,2,0,L|165:175,1,75,8|0,0:3|0:0,0:0:0:0:
412,232,74169,2,0,L|486:229,1,75,8|0,0:0|0:0,0:0:0:0:
216,312,74405,1,4,0:0:0:0:
216,312,74878,6,0,P|174:291|104:296,1,104.999996795654,4|0,0:0|0:0,0:0:0:0:
308,364,75114,2,0,P|320:316|300:244,1,104.999996795654,12|0,0:0|0:0,0:0:0:0:
208,92,75350,1,8,0:3:0:0:
180,76,75468,1,4,0:3:0:0:
316,128,75586,6,0,P|361:87|475:88,1,165.000005035401,12|2,0:0|0:3,0:0:0:0:
316,160,75941,1,8,0:3:0:0:
196,220,76059,2,0,P|150:179|36:180,1,165.000005035401,12|2,0:0|0:3,0:0:0:0:
196,252,76414,1,8,0:3:0:0:
256,368,76531,1,4,0:0:0:0:
