osu file format v13

[General]
AudioFilename: Shibayan feat. 3L - MyonMyonMyonMyonMyonMyon!.mp3
AudioLeadIn: 0
PreviewTime: 46295
Countdown: 0
SampleSet: None
StackLeniency: 0.7
Mode: 0
LetterboxInBreaks: 1
EpilepsyWarning: 1
WidescreenStoryboard: 1

[Editor]
Bookmarks: 16059,46295,76531
DistanceSpacing: 1
BeatDivisor: 4
GridSize: 8
TimelineZoom: 2

[Metadata]
Title:MyonMyonMyonMyonMyonMyon!
TitleUnicode:MyonMyonMyonMyonMyonMyon!
Artist:Shibayan feat. 3L
ArtistUnicode:Shibayan feat. 3L
Creator:11t
Version:K i A i
Source:Touhou
Tags:
BeatmapID:626269
BeatmapSetID:156492

[Difficulty]
HPDrainRate:5
CircleSize:4
OverallDifficulty:7
ApproachRate:9
SliderMultiplier:1.9
SliderTickRate:1

[Events]
//Background and Video events
0,0,"sb\pink.jpg",0,0
//Break Periods
//Storyboard Layer 0 (Background)
//Storyboard Layer 1 (Fail)
//Storyboard Layer 2 (Pass)
//Storyboard Layer 3 (Foreground)
//Storyboard Sound Samples

[TimingPoints]
941,472.44094488189,4,3,10,100,1,0
19129,-100,4,2,10,100,0,0
19248,-100,4,3,10,100,0,0
26689,-100,4,2,10,100,0,0
26807,-100,4,3,10,100,0,0
45822,-66.6666666666667,4,3,10,100,0,0
46295,-50,4,3,11,100,0,1
49838,-50,4,2,11,100,0,1
49956,-50,4,3,11,100,0,1
52318,-50,4,2,11,100,0,1
52437,-50,4,3,11,100,0,1
57397,-50,4,2,11,100,0,1
57515,-50,4,3,11,100,0,1
59878,-50,4,2,11,100,0,1
59996,-50,4,3,11,100,0,1
61354,-50,4,3,11,100,0,0
61413,-50,4,3,11,100,0,1
63657,-50,4,2,11,100,0,1
63775,-50,4,3,11,100,0,1
64956,-50,4,2,11,100,0,1
65074,-50,4,3,11,100,0,1
72515,-50,4,1,11,100,0,1
72633,-50,4,3,11,100,0,1
74523,-50,4,2,11,100,0,1
74641,-50,4,3,11,100,0,1
75468,-50,4,2,11,100,0,1
75586,-50,4,3,11,100,0,1
76472,-50,4,3,11,100,0,0
76531,-50,4,3,11,100,0,1
76767,-50,4,3,11,100,0,0

[Colours]
Combo1 : 216,114,137
Combo2 : 200,200,200
Combo3 : 30,160,70

[HitObjects]
40,200,16059,6,0,L|136:208,1,95,6|2,0:0|0:0,0:0:0:0:
304,312,16531,2,0,L|208:320,2,95,8|0|2,0:0|0:0|0:0,0:0:0:0:
328,320,17476,1,8,0:0:0:0:
328,320,17712,2,0,P|320:272|328:224,1,95,2|0,0:0|0:0,0:0:0:0:
480,288,18185,2,0,P|488:336|480:384,2,95,2|8|0,0:0|0:0|0:0,0:0:0:0:
512,192,18893,2,0,P|424:192|368:112,1,190,2|8,0:0|0:0,0:0:0:0:
368,114,19838,6,0,P|368:162|344:202,1,95,2|2,0:0|0:0,0:0:0:0:
280,136,20311,2,0,P|280:88|304:48,1,95,8|0,0:0|0:0,0:0:0:0:
456,96,20783,2,0,P|456:192|408:272,1,190,2|8,0:0|0:0,0:0:0:0:
336,336,21492,2,0,L|200:320,1,95,2|0,0:0|0:0,0:0:0:0:
56,152,21964,2,0,L|192:168,1,95,2|8,0:0|0:0,0:0:0:0:
296,248,22437,1,0,0:0:0:0:
296,248,22673,2,0,B|224:240|224:240|184:248|184:248|104:240,1,190,2|10,0:0|0:0,0:0:0:0:
88,224,23618,6,0,P|96:272|88:320,1,95,2|2,0:0|0:0,0:0:0:0:
40,136,24090,2,0,P|88:128|136:136,1,95,8|0,0:0|0:0,0:0:0:0:
216,184,24563,2,0,P|304:184|352:104,1,190,2|8,0:0|0:0,0:0:0:0:
256,96,25271,2,0,L|352:272,1,190,2|2,0:0|0:0,0:0:0:0:
416,336,25980,2,0,P|440:296|440:248,1,95,8|0,0:0|0:0,0:0:0:0:
504,176,26452,2,0,B|440:104|440:104|448:8,1,190,2|8,0:0|0:0,0:0:0:0:
352,40,27161,5,0,0:0:0:0:
352,40,27397,2,0,L|344:136,1,95,2|2,0:0|0:0,0:0:0:0:
256,328,27870,2,0,L|264:232,1,95,8|0,0:0|0:0,0:0:0:0:
176,0,28342,2,0,L|160:184,1,142.5,2|0,0:0|0:0,0:0:0:0:
163,141,28815,1,8,0:0:0:0:
104,256,29051,2,0,P|160:184|256:184,1,190,2|2,0:0|0:0,0:0:0:0:
120,352,29759,2,0,P|72:352|32:328,1,95,8|0,0:0|0:0,0:0:0:0:
192,288,30232,2,0,P|216:328|216:376,1,95,2|0,0:0|0:0,0:0:0:0:
104,256,30704,2,0,L|112:160,2,95,10|0|6,0:0|2:0|0:0,0:0:0:0:
168,328,31413,6,0,L|264:320,1,95,2|8,0:0|0:0,0:0:0:0:
336,256,31885,1,0,0:0:0:0:
336,256,32122,2,0,P|432:256|480:328,1,190,2|8,0:0|0:0,0:0:0:0:
248,304,32830,2,0,P|248:208|320:160,1,190,2|2,0:0|0:0,0:0:0:0:
336,360,33539,1,8,0:0:0:0:
248,304,33775,1,0,0:0:0:0:
248,200,34011,2,0,L|256:104,1,95,2|2,0:0|0:0,0:0:0:0:
255,105,34484,2,0,P|191:105|127:57,1,142.5,8|0,0:0|0:0,0:0:0:0:
112,40,34956,6,0,B|120:88|120:88|112:136,1,95,2|2,0:0|0:0,0:0:0:0:
0,208,35429,2,0,B|-8:160|-8:160|0:112,1,95,8|0,0:0|0:0,0:0:0:0:
136,64,35901,2,0,B|144:112|144:112|136:160,1,95,2|0,0:0|0:0,0:0:0:0:
24,232,36374,2,0,B|16:184|16:184|24:136,2,95,8|2|0,0:0|0:0|0:0,0:0:0:0:
88,304,37082,2,0,L|184:296,1,95,2|8,0:0|0:0,0:0:0:0:
424,328,37555,1,0,0:0:0:0:
424,328,37791,2,0,L|240:344,1,142.5,2|0,0:0|0:0,0:0:0:0:
264,320,38263,1,10,0:0:0:0:
440,352,38500,1,0,0:0:0:0:
376,104,38736,6,0,P|384:152|376:200,1,95,2|2,0:0|0:0,0:0:0:0:
248,296,39208,2,0,P|240:248|248:200,1,95,8|0,0:0|0:0,0:0:0:0:
352,112,39681,2,0,P|264:112|216:32,1,190,2|8,0:0|0:0,0:0:0:0:
312,24,40389,2,0,B|360:16|360:16|408:24,1,95,2|0,0:0|0:0,0:0:0:0:
512,176,40862,2,0,B|464:184|464:184|416:176,1,95,2|8,0:0|0:0,0:0:0:0:
328,120,41334,1,0,0:0:0:0:
328,120,41570,2,0,L|336:216,1,95,2|2,0:0|0:0,0:0:0:0:
240,384,42043,2,0,L|232:288,1,95,8|0,0:0|2:0,0:0:0:0:
120,160,42515,5,6,0:0:0:0:
0,280,42752,1,2,1:2:0:0:
24,272,42870,1,2,0:2:0:0:
48,264,42988,1,8,0:0:0:0:
272,216,43224,1,2,0:2:0:0:
248,208,43342,1,2,0:2:0:0:
224,200,43460,1,8,1:2:0:0:
0,144,43696,1,8,0:2:0:0:
24,136,43814,1,8,0:2:0:0:
48,128,43932,1,8,0:0:0:0:
272,80,44168,1,8,1:2:0:0:
248,72,44286,1,8,0:2:0:0:
224,64,44404,1,4,0:2:0:0:
0,144,44641,1,2,1:2:0:0:
24,136,44759,1,2,0:2:0:0:
48,128,44878,1,8,0:0:0:0:
72,120,44996,1,8,0:0:0:0:
96,112,45114,1,8,1:2:0:0:
120,104,45232,1,4,0:2:0:0:
144,96,45350,6,0,L|136:144,1,47.5,4|4,1:2|0:2,0:0:0:0:
232,216,45586,2,0,L|240:168,1,47.5,4|4,2:2|0:2,0:0:0:0:
320,32,45822,2,0,L|312:64,11,23.7500009059906,10|8|8|8|8|8|8|8|8|8|8|8,0:0|0:0|0:0|0:0|0:0|0:0|0:0|0:0|0:0|0:0|0:0|0:0,0:0:0:0:
304,88,46295,6,0,L|400:80,1,95,12|0,0:1|0:0,0:0:0:0:
512,200,46531,2,0,B|416:192,1,95,10|2,0:0|0:0,0:0:0:0:
344,256,46767,2,0,B|336:304|336:304|344:352,1,95,4|0,0:0|0:0,0:0:0:0:
496,216,47003,2,0,B|504:168|504:168|496:120,1,95,2|2,0:0|0:0,0:0:0:0:
392,160,47240,6,0,P|304:160|248:240,1,190,8|2,0:0|0:0,0:0:0:0:
344,256,47594,1,2,0:0:0:0:
280,328,47712,2,0,L|184:320,1,95,4|0,0:0|0:0,0:0:0:0:
8,352,47948,2,0,L|104:360,1,95,10|2,0:0|0:0,0:0:0:0:
248,240,48185,6,0,B|176:232|176:232|136:240|136:240|56:232,1,190,0|10,0:0|0:0,0:0:0:0:
0,112,48539,1,2,0:0:0:0:
0,112,48657,2,0,B|72:120|72:120|112:112|112:112|192:120,1,190,4|2,0:0|0:0,0:0:0:0:
272,168,49011,1,2,0:0:0:0:
336,96,49129,6,0,P|328:48|336:0,1,95,8|0,0:0|0:0,0:0:0:0:
472,64,49366,2,0,P|480:112|472:160,1,95,10|2,0:0|0:0,0:0:0:0:
312,128,49602,2,0,B|296:80|312:36|312:36|292:112|208:144|132:92,1,285,4|2,0:0|0:0,0:0:0:0:
128,24,50074,6,0,L|136:120,1,95,8|0,0:0|0:0,0:0:0:0:
72,288,50311,2,0,L|64:192,1,95,10|2,0:0|0:0,0:0:0:0:
16,376,50547,2,0,P|80:304|168:304,1,190,4|2,0:0|0:0,0:0:0:0:
400,312,50901,5,2,0:0:0:0:
400,312,51019,2,0,P|336:384|248:384,1,190,8|2,0:0|0:0,0:0:0:0:
176,320,51374,1,2,0:0:0:0:
232,240,51492,2,0,P|240:176|232:96,1,142.5,4|0,0:0|0:0,0:0:0:0:
208,56,51728,2,0,P|256:72|304:72,1,95,10|2,0:0|0:0,0:0:0:0:
472,32,51964,6,0,P|424:16|376:16,1,95,0|0,0:0|0:0,0:0:0:0:
320,88,52200,2,0,P|368:168|456:168,1,190,10|4,0:0|0:0,0:0:0:0:
472,151,52673,5,2,0:0:0:0:
472,151,52791,1,2,0:0:0:0:
472,151,52909,2,0,L|464:247,1,95,12|2,0:1|0:2,0:0:0:0:
512,328,53145,1,8,2:0:0:0:
512,328,53263,1,4,0:2:0:0:
336,72,53381,6,0,L|344:168,1,95,12|2,0:1|0:2,0:0:0:0:
296,248,53617,1,8,0:2:0:0:
296,248,53735,1,4,0:2:0:0:
208,32,53854,6,0,P|160:24|112:32,1,95,12|0,0:1|0:0,0:0:0:0:
0,192,54090,2,0,P|48:200|96:192,1,95,10|2,0:0|0:0,0:0:0:0:
168,128,54326,6,0,P|264:128|312:200,1,190,4|2,0:0|0:0,0:0:0:0:
216,216,54681,1,2,0:0:0:0:
264,304,54799,2,0,P|168:304|120:232,1,190,8|2,0:0|0:0,0:0:0:0:
216,216,55153,1,2,0:0:0:0:
216,216,55271,2,0,L|360:288,1,142.5,4|0,0:0|0:0,0:0:0:0:
384,304,55507,6,0,P|376:256|384:208,1,95,10|2,0:0|0:0,0:0:0:0:
496,24,55744,2,0,P|508:88|496:168,1,142.5
464,200,55980,2,0,L|368:192,1,95,10|2,0:0|0:0,0:0:0:0:
224,112,56216,2,0,B|320:120|320:120|392:56,1,190,4|2,0:0|0:0,0:0:0:0:
288,32,56570,5,2,0:0:0:0:
288,32,56689,2,0,L|192:24,1,95,8|0,0:0|0:0,0:0:0:0:
48,128,56925,2,0,L|144:136,1,95,10|2,0:0|0:0,0:0:0:0:
400,200,57161,2,0,B|308:192|308:192|344:200|384:240|400:288|376:352,1,285,4|2,0:0|0:0,0:0:0:0:
288,288,57633,6,0,P|240:288|200:312,1,95,8|0,0:0|0:0,0:0:0:0:
104,296,57870,2,0,P|104:344|128:384,1,95,10|2,0:0|0:0,0:0:0:0:
200,312,58106,2,0,P|200:264|176:224,1,95,4|0,0:0|0:0,0:0:0:0:
88,200,58342,1,2,0:0:0:0:
0,176,58460,5,2,0:0:0:0:
0,176,58578,2,0,B|8:80|8:80|80:16,1,190,8|2,0:0|0:0,0:0:0:0:
168,56,58933,1,2,0:0:0:0:
168,56,59051,2,0,L|96:120,1,95,4|0,0:0|0:0,0:0:0:0:
32,280,59287,2,0,L|104:216,1,95,10|2,0:0|0:0,0:0:0:0:
264,192,59523,6,0,B|208:240|208:240|200:272|200:272|128:336,2,190,0|10|4,0:0|0:0|0:0,0:0:0:0:
360,216,60114,2,0,P|360:168|336:128,2,95,0|2|2,0:0|0:0|0:0,0:0:0:0:
296,288,60468,5,12,0:1:0:0:
392,312,60586,2,0,L|488:304,2,95,2|8|4,0:2|0:2|0:2,0:0:0:0:
216,352,60941,5,12,0:1:0:0:
120,328,61059,2,0,L|24:336,2,95,2|8|4,0:2|2:0|0:2,0:0:0:0:
184,256,61413,6,0,P|192:208|184:160,1,95,12|0,0:1|0:0,0:0:0:0:
72,8,61649,2,0,P|64:56|72:104,1,95,10|2,0:0|0:0,0:0:0:0:
160,144,61885,2,0,L|256:136,1,95,4|0,0:0|0:0,0:0:0:0:
432,80,62122,2,0,L|336:72,1,95,2|2,0:0|0:0,0:0:0:0:
128,248,62358,6,0,L|320:232,1,190,8|2,0:0|0:0,0:0:0:0:
408,272,62712,1,2,0:0:0:0:
496,232,62830,2,0,P|456:176|384:176,1,142.5,4|0,0:0|0:0,0:0:0:0:
344,200,63066,6,0,P|368:160|368:112,1,95,10|2,0:0|0:0,0:0:0:0:
248,0,63303,2,0,P|224:40|224:88,1,95
256,176,63539,2,0,B|128:152|192:200|64:176,2,190,10|4|2,0:0|0:0|0:0,0:0:0:0:
320,248,64129,1,2,0:0:0:0:
352,160,64248,6,0,L|448:152,1,95,8|0,0:0|0:0,0:0:0:0:
264,248,64484,2,0,L|360:256,1,95,10|2,0:0|0:0,0:0:0:0:
160,320,64720,2,0,B|252:344|252:344|184:336|136:256|176:192,1,285,4|2,0:0|0:0,0:0:0:0:
152,112,65192,6,0,P|200:112|240:136,1,95,8|0,0:0|0:0,0:0:0:0:
80,176,65429,2,0,P|56:136|56:88,1,95,10|2,0:0|0:0,0:0:0:0:
168,200,65665,2,0,L|160:296,1,95,4|0,0:0|0:0,0:0:0:0:
280,384,65901,2,0,L|272:288,1,95,2|2,0:0|0:0,0:0:0:0:
152,184,66137,6,0,B|144:280|144:280|64:328,1,190,8|2,0:0|0:0,0:0:0:0:
0,192,66492,1,2,0:0:0:0:
0,192,66610,2,0,B|8:96|8:96|88:48,1,190,4|10,0:0|0:0,0:0:0:0:
176,88,66964,1,2,0:0:0:0:
248,16,67082,6,0,P|272:56|272:104,1,95
200,176,67318,2,0,P|176:136|176:88,1,95,10|2,0:0|0:0,0:0:0:0:
296,184,67555,2,0,P|248:264|160:264,1,190,4|10,0:0|0:0,0:0:0:0:
200,176,67909,1,2,0:0:0:0:
136,248,68027,6,0,L|144:344,1,95,12|2,0:1|0:2,0:0:0:0:
56,184,68263,1,8,0:2:0:0:
56,184,68381,1,4,0:2:0:0:
288,104,68500,6,0,L|280:200,1,95,12|2,0:1|0:2,0:0:0:0:
368,40,68736,1,8,0:2:0:0:
368,40,68854,1,4,0:2:0:0:
416,160,68972,6,0,L|512:152,1,95,12|0,0:1|0:0,0:0:0:0:
384,280,69208,2,0,L|288:288,1,95,10|2,0:0|0:0,0:0:0:0:
392,184,69444,2,0,P|464:232|464:328,1,190,4|2,0:0|0:0,0:0:0:0:
304,208,69799,5,2,0:0:0:0:
304,208,69917,2,0,P|304:160|328:120,1,95,8|0,0:0|0:0,0:0:0:0:
392,184,70153,2,0,P|440:184|480:208,1,95,2|2,0:0|0:0,0:0:0:0:
416,272,70389,2,0,B|352:264|352:264|304:288|304:288|232:280,1,190,4|10,0:0|0:0,0:0:0:0:
192,192,70744,5,2,0:0:0:0:
192,192,70862,2,0,L|200:288,1,95
120,344,71098,2,0,L|112:248,1,95,10|2,0:0|0:0,0:0:0:0:
272,136,71334,2,0,L|288:328,1,190,4|0,0:0|2:3,0:0:0:0:
376,368,71689,1,0,0:0:0:0:
416,280,71807,6,0,P|408:232|416:184,1,95,8|0,0:0|0:0,0:0:0:0:
512,112,72043,2,0,P|520:160|512:208,1,95,10|2,0:0|0:0,0:0:0:0:
456,368,72279,2,0,B|416:392|360:384|320:360|320:288|320:288|328:336|288:384,1,285,4|0,0:0|0:0,0:0:0:0:
232,304,72752,6,0,P|232:256|264:216,1,95,8|0,0:0|0:0,0:0:0:0:
240,128,72988,2,0,P|288:128|328:160,1,95,10|2,0:0|0:0,0:0:0:0:
352,248,73224,2,0,L|448:240,2,95,4|0|2,0:0|0:0|0:0,0:0:0:0:
312,336,73578,5,2,0:0:0:0:
312,336,73696,2,0,B|128:352,1,142.5,8|0,0:0|0:0,0:0:0:0:
128,376,73933,2,0,L|136:280,1,95,0|0,2:0|0:0,0:0:0:0:
72,208,74169,2,0,L|80:112,1,95,4|0,0:0|0:0,0:0:0:0:
32,32,74405,6,0,P|96:104|184:104,2,190,10|0|10,0:0|0:0|2:3,0:0:0:0:
480,104,75114,2,0,P|416:32|328:32,2,190,4|2|12,0:0|0:0|0:1,0:0:0:0:
416,200,75704,6,0,L|512:192,2,95,2|8|4,0:2|0:2|0:2,0:0:0:0:
256,160,76059,5,12,0:1:0:0:
96,120,76177,2,0,L|0:128,2,95,2|8|4,0:2|0:2|0:2,0:0:0:0:
256,80,76531,5,12,0:1:0:0:
