osu file format v13

[General]
AudioFilename: Shibayan feat. 3L - Love.mp3
AudioLeadIn: 0
PreviewTime: 109638
Countdown: 0
SampleSet: Soft
StackLeniency: 0.7
Mode: 0
LetterboxInBreaks: 1
EpilepsyWarning: 1
WidescreenStoryboard: 1

[Editor]
Bookmarks: 36900,66191
DistanceSpacing: 1
BeatDivisor: 4
GridSize: 4
TimelineZoom: 1.399999

[Metadata]
Title:Love
TitleUnicode:・-・・ --- ・・・- ・
Artist:Shibayan feat. 3L
ArtistUnicode:Shibayan feat. 3L
Creator:truonant
Version:Normal
Source:Touhou
Tags:Mágico Catástrofe マジコカタストロフィ Majiko Katasutrofi ShibayanRecords Comiket 83 C83 ・-・・ --- ・・・- ・ やまざきさやか ラクトガール ~ 少女密室 東方紅魔郷 ~ the Embodiment of Scarlet Devil Patchouli Knowledge Mako Sakata
BeatmapID:438533
BeatmapSetID:182633

[Difficulty]
HPDrainRate:4
CircleSize:3.5
OverallDifficulty:4
ApproachRate:5
SliderMultiplier:1.50000000596046
SliderTickRate:1

[Events]
//Background and Video events
0,0,"BG.jpg",0,0
//Break Periods
//Storyboard Layer 0 (Background)
//Storyboard Layer 1 (Fail)
//Storyboard Layer 2 (Pass)
//Storyboard Layer 3 (Foreground)
//Storyboard Sound Samples
//Background Colour Transformations
3,100,163,162,255

[TimingPoints]
31,472.44094488189,4,2,1,80,1,0
19638,-100,4,2,2,80,0,0
19874,-100,4,2,1,80,0,0
20583,-100,4,2,2,80,0,0
20819,-100,4,2,1,80,0,0
21527,-100,4,2,2,80,0,0
21764,-100,4,2,1,80,0,0
22472,-100,4,2,2,80,0,0
22709,-100,4,2,1,80,0,0
23417,-100,4,2,2,80,0,0
23653,-100,4,2,1,80,0,0
25307,-100,4,2,2,80,0,0
25543,-100,4,2,1,80,0,0
26252,-100,4,2,2,80,0,0
26488,-100,4,2,1,80,0,0
27197,-100,4,2,2,80,0,0
27433,-100,4,2,1,80,0,0
28142,-100,4,2,2,80,0,0
28378,-100,4,2,1,80,0,0
29087,-100,4,2,2,80,0,0
29323,-100,4,2,1,80,0,0
30031,-100,4,2,2,80,0,0
30268,-100,4,2,1,80,0,0
31449,-100,4,2,2,80,0,0
31685,-100,4,2,1,80,0,0
31921,-100,4,2,2,80,0,0
32157,-100,4,2,1,80,0,0
32394,-100,4,2,2,80,0,0
32630,-100,4,2,1,80,0,0
32866,-100,4,2,2,80,0,0
33102,-100,4,2,1,80,0,0
33811,-100,4,2,2,80,0,0
34047,-100,4,2,1,80,0,0
34756,-100,4,2,2,80,0,0
34992,-100,4,2,1,80,0,0
35701,-100,4,2,2,80,0,0
35937,-100,4,2,1,80,0,0
36646,-100,4,2,2,80,0,0
36882,-100,4,2,1,80,0,0
37590,-100,4,2,2,80,0,0
37827,-100,4,2,1,80,0,0
38535,-100,4,2,2,80,0,0
38772,-100,4,2,1,80,0,0
40425,-100,4,2,2,80,0,0
40661,-100,4,2,1,80,0,0
41370,-100,4,2,2,80,0,0
41606,-100,4,2,1,80,0,0
42315,-100,4,2,2,80,0,0
42551,-100,4,2,1,80,0,0
43260,-100,4,2,2,80,0,0
43496,-100,4,2,1,80,0,0
44205,-100,4,2,2,80,0,0
44441,-100,4,2,1,80,0,0
45150,-100,4,2,2,80,0,0
45386,-100,4,2,1,80,0,0
46094,-100,4,2,2,80,0,0
46331,-100,4,2,1,80,0,0
46567,-100,4,2,2,80,0,0
46803,-100,4,2,1,80,0,0
47039,-100,4,2,2,80,0,0
47275,-100,4,2,1,80,0,0
47984,-100,4,2,2,80,0,0
48220,-100,4,2,1,80,0,0
48929,-100,4,2,2,80,0,0
49165,-100,4,2,1,80,0,0
49401,-100,4,2,2,80,0,0
49638,-100,4,2,1,80,0,0
49874,-100,4,2,2,80,0,0
50110,-100,4,2,1,80,0,0
50346,-100,4,2,2,80,0,0
50583,-100,4,2,1,80,0,0
50819,-100,4,2,2,80,0,0
51055,-100,4,2,1,80,0,0
51291,-100,4,2,2,80,0,0
51527,-100,4,2,1,80,0,0
51764,-100,4,2,2,80,0,0
52000,-100,4,2,1,80,0,0
52236,-100,4,2,2,80,0,0
52472,-100,4,2,1,80,0,0
52709,-100,4,2,2,80,0,0
52945,-100,4,2,1,80,0,0
53653,-100,4,2,2,80,0,0
53890,-100,4,2,1,80,0,0
54598,-100,4,2,2,80,0,0
55071,-100,4,2,2,80,0,0
55307,-100,4,2,1,80,0,0
55543,-100,4,2,2,80,0,0
55779,-100,4,2,1,80,0,0
56016,-100,4,2,2,80,0,0
56252,-100,4,2,1,80,0,0
56488,-100,4,2,2,80,0,0
56724,-100,4,2,1,80,0,0
57905,-100,4,2,2,80,0,0
58142,-100,4,2,1,80,0,0
58378,-100,4,2,2,80,0,0
58614,-100,4,2,1,80,0,0
58850,-100,4,2,2,80,0,0
59087,-100,4,2,1,80,0,0
59323,-100,4,2,2,80,0,0
59559,-100,4,2,1,80,0,0
59795,-100,4,2,2,80,0,0
60031,-100,4,2,1,80,0,0
60268,-100,4,2,2,80,0,0
60504,-100,4,2,1,80,0,0
61212,-100,4,2,2,80,0,0
61449,-100,4,2,1,80,0,0
62157,-100,4,2,2,80,0,0
62394,-100,4,2,1,80,0,0
62630,-100,4,2,2,80,0,0
62866,-100,4,2,1,80,0,0
63102,-100,4,2,2,80,0,0
63338,-100,4,2,1,80,0,0
63575,-100,4,2,2,80,0,0
63811,-100,4,2,1,80,0,0
64047,-100,4,2,2,80,0,0
64283,-133.333333333333,4,2,1,80,0,0
64992,-100,4,2,2,80,0,0
65228,-100,4,2,1,80,0,0
65464,-100,4,2,2,80,0,0
65701,-100,4,2,1,80,0,0
65937,-100,4,2,2,80,0,0
66173,-100,4,2,1,80,0,0
66882,-100,4,2,2,80,0,0
67118,-100,4,2,1,80,0,0
67827,-100,4,2,2,80,0,0
68063,-100,4,2,1,80,0,0
68772,-100,4,2,2,80,0,0
69008,-100,4,2,1,80,0,0
69244,-100,4,2,2,80,0,0
69480,-100,4,2,1,80,0,0
69716,-100,4,2,2,80,0,0
69953,-100,4,2,1,80,0,0
70661,-100,4,2,2,80,0,0
70898,-100,4,2,1,80,0,0
71606,-100,4,2,2,80,0,0
71843,-100,4,2,1,80,0,0
71843,-100,4,2,1,80,0,0
72728,-100,4,2,2,80,0,0
72846,-100,4,2,1,80,0,0
74382,-100,4,2,2,80,0,0
74854,-100,4,2,1,80,0,0
75327,-100,4,2,2,80,0,0
75445,-100,4,2,1,80,0,0
75445,-100,4,2,1,80,0,0
79402,-100,4,2,1,90,0,1
80583,-100,4,2,2,90,0,1
80819,-100,4,2,1,90,0,1
83653,-100,4,2,2,90,0,1
83890,-100,4,2,1,90,0,1
84362,-100,4,2,2,90,0,1
84598,-100,4,2,1,90,0,1
85543,-100,4,2,2,90,0,1
85779,-100,4,2,1,90,0,1
86252,-100,4,2,2,90,0,1
86488,-100,4,2,1,90,0,1
86724,-100,4,2,2,90,0,1
86961,-100,4,2,1,90,0,1
88142,-100,4,2,2,90,0,1
88378,-100,4,2,1,90,0,1
90031,-100,4,2,2,90,0,1
90268,-100,4,2,1,90,0,1
91212,-100,4,2,2,90,0,1
91449,-100,4,2,1,90,0,1
91921,-100,4,2,2,90,0,1
92157,-100,4,2,1,90,0,1
93102,-100,4,2,2,90,0,1
93338,-100,4,2,1,90,0,1
93693,-100,4,2,2,90,0,1
94047,-100,4,2,1,90,0,1
95701,-100,4,2,2,90,0,1
95937,-100,4,2,1,90,0,1
97590,-100,4,2,2,90,0,1
97827,-100,4,2,1,90,0,1
98772,-100,4,2,2,90,0,1
99008,-100,4,2,1,90,0,1
99480,-100,4,2,2,90,0,1
99716,-100,4,2,1,90,0,1
100661,-100,4,2,2,90,0,1
100898,-100,4,2,1,90,0,1
101370,-100,4,2,2,90,0,1
101606,-100,4,2,1,90,0,1
103260,-100,4,2,2,90,0,1
103496,-100,4,2,1,90,0,1
105150,-100,4,2,2,90,0,1
105386,-100,4,2,1,90,0,1
106331,-100,4,2,2,90,0,1
106567,-100,4,2,1,90,0,1
107039,-100,4,2,2,90,0,1
107275,-100,4,2,1,90,0,1
109165,-100,4,2,2,90,0,1
109401,-100,4,2,1,90,0,1
109519,-100,4,2,1,90,0,0
109637,-100,4,2,1,90,0,1
110937,-100,4,2,2,90,0,1
111055,-100,4,2,1,90,0,1
112709,-100,4,2,2,90,0,1
112945,-100,4,2,1,90,0,1
113890,-100,4,2,2,90,0,1
114126,-100,4,2,1,90,0,1
114598,-100,4,2,2,90,0,1
114835,-100,4,2,1,90,0,1
115779,-100,4,2,2,90,0,1
116016,-100,4,2,1,90,0,1
116488,-100,4,2,2,90,0,1
116724,-100,4,2,1,90,0,1
118378,-100,4,2,2,90,0,1
118614,-100,4,2,1,90,0,1
120268,-100,4,2,2,90,0,1
120504,-100,4,2,1,90,0,1
121449,-100,4,2,2,90,0,1
121685,-100,4,2,1,90,0,1
122157,-100,4,2,2,90,0,1
122394,-100,4,2,1,90,0,1
123338,-100,4,2,2,90,0,1
123575,-100,4,2,1,90,0,1
124047,-100,4,2,2,90,0,1
124283,-100,4,2,1,90,0,1
125937,-100,4,2,2,90,0,1
126173,-100,4,2,1,90,0,1
127118,-100,4,2,2,90,0,1
127354,-100,4,2,1,90,0,1
127827,-100,4,2,2,90,0,1
128063,-100,4,2,1,90,0,1
128299,-100,4,2,2,90,0,1
128535,-100,4,2,1,90,0,1
129716,-100,4,2,2,90,0,1
129953,-100,4,2,1,90,0,1
131606,-100,4,2,2,90,0,1
131842,-100,4,2,1,90,0,1
132787,-100,4,2,2,90,0,1
133024,-100,4,2,1,90,0,1
133496,-100,4,2,2,90,0,1
133732,-100,4,2,1,90,0,1
134677,-100,4,2,2,90,0,1
134913,-100,4,2,1,90,0,1
135386,-100,4,2,2,90,0,1
135622,-100,4,2,1,90,0,1
137275,-100,4,2,2,90,0,1
137512,-100,4,2,1,90,0,1
138693,-100,4,2,2,90,0,1
138929,-100,4,2,1,90,0,1
139874,-100,4,2,1,90,0,0

[Colours]
Combo1 : 251,232,123
Combo2 : 225,225,225
Combo3 : 253,170,228
Combo4 : 197,169,235

[HitObjects]
256,192,11370,12,4,15622,0:0:0:0:
16,196,17512,5,8,0:0:0:0:
156,140,17984,1,0,0:0:0:0:
296,80,18457,1,8,0:0:0:0:
424,160,18928,6,0,P|383:234|328:268,1,150.000000596046,4|8,0:0|0:0,0:0:0:0:
256,280,19638,1,2,0:0:0:0:
183,267,19874,2,0,P|121:226|92:156,1,150.000000596046,2|8,0:0|0:0,0:0:0:0:
140,100,20582,1,2,0:0:0:0:
192,156,20819,6,0,P|236:132|308:52,1,150.000000596046,0|8,0:0|0:0,0:0:0:0:
372,100,21527,1,2,0:0:0:0:
320,156,21764,2,0,P|276:132|204:52,1,150.000000596046,2|8,0:0|0:0,0:0:0:0:
140,100,22472,1,2,0:0:0:0:
92,160,22709,6,0,B|148:190|172:249|172:249|196:229|196:198,1,150.000000596046,4|8,0:0|0:0,0:0:0:0:
256,264,23417,1,2,0:0:0:0:
322,227,23653,2,0,B|316:229|340:249|340:249|364:190|420:160,1,150.000000596046,2|8,0:0|0:0,0:0:0:0:
488,196,24362,6,0,P|480:112|408:84,1,150.000000596046,2|2,0:0|0:0,0:0:0:0:
352,88,25071,1,8,0:0:0:0:
296,36,25307,1,2,0:0:0:0:
256,109,25543,2,0,L|256:199,2,75.000000298023,2|0|8,0:0|0:0|0:0,0:0:0:0:
216,36,26252,1,2,0:0:0:0:
148,72,26488,6,0,B|128:178|128:178|168:200|168:240,1,150.000000596046,4|8,0:0|0:0,0:0:0:0:
172,280,27197,1,2,0:0:0:0:
232,232,27432,2,0,P|244:304|180:356,1,150.000000596046,2|8,0:0|0:0,0:0:0:0:
120,336,28142,1,2,0:0:0:0:
172,280,28377,6,0,P|248:308|308:244,1,150.000000596046,0|8,0:0|0:0,0:0:0:0:
352,324,29087,1,2,0:0:0:0:
404,256,29323,2,0,P|328:228|308:164,1,150.000000596046,2|8,0:0|0:0,0:0:0:0:
332,96,30031,1,2,0:0:0:0:
384,152,30268,6,0,B|368:212|432:164|512:168,2,150.000000596046,4|8|2,0:0|0:0|0:0,0:0:0:0:
408,80,31449,2,0,P|388:44|344:20,1,75.000000298023,2|8,0:0|0:0,0:0:0:0:
288,36,31921,6,0,B|252:60|256:112,1,75.000000298023,2|2,0:0|0:0,0:0:0:0:
212,160,32394,2,0,P|232:192|232:236,1,75.000000298023,2|8,0:0|0:0,0:0:0:0:
184,288,32866,1,2,0:0:0:0:
160,216,33102,2,0,P|140:132|192:88,1,150.000000596046,2|8,0:0|0:0,0:0:0:0:
256,96,33811,1,2,0:0:0:0:
212,160,34047,6,4,B|228:183|228:183|251:183|251:183|260:204|260:204|284:232|349:266,1,150.000000596046,4|8,0:0|0:0,0:0:0:0:
384,208,34756,1,2,0:0:0:0:
324,160,34992,2,0,P|264:208|200:256,1,150.000000596046,2|8,0:0|0:0,0:0:0:0:
144,296,35701,1,2,0:0:0:0:
100,360,35937,6,0,P|68:304|112:224,1,150.000000596046,0|8,0:0|0:0,0:0:0:0:
164,188,36646,1,2,0:0:0:0:
96,152,36882,2,0,P|164:112|232:152,1,150.000000596046,2|8,0:0|0:0,0:0:0:0:
300,148,37590,1,2,0:0:0:0:
276,76,37827,6,0,B|300:68|352:72|372:124|372:124|408:108,1,150.000000596046,4|8,0:0|0:0,0:0:0:0:
476,92,38535,1,2,0:0:0:0:
472,168,38772,2,0,B|332:240,1,150.000000596046,2|8,0:0|0:0,0:0:0:0:
404,276,39480,6,0,P|408:204|344:160,1,150.000000596046,2|2,0:0|0:0,0:0:0:0:
276,148,40189,2,0,P|240:152|197:175,1,75.000000298023,8|2,0:0|0:0,0:0:0:0:
132,192,40661,2,0,P|93:180|62:144,2,75.000000298023,2|0|8,0:0|0:0|0:0,0:0:0:0:
188,244,41370,1,2,0:0:0:0:
204,168,41606,6,0,P|235:85|312:84,1,150.000000596046,4|8,0:0|0:0,0:0:0:0:
276,148,42315,1,2,0:0:0:0:
260,220,42551,2,0,P|176:240|128:180,1,150.000000596046,2|8,0:0|0:0,0:0:0:0:
204,168,43260,1,2,0:0:0:0:
156,108,43496,6,0,P|226:95|275:149,1,150.000000596046,4|8,0:0|0:0,0:0:0:0:
203,169,44205,1,2,0:0:0:0:
131,181,44441,2,0,P|79:121|107:49,1,150.000000596046,4|8,0:0|0:0,0:0:0:0:
156,108,45150,1,2,0:0:0:0:
192,42,45386,2,0,P|231:102|203:169,1,150.000000596046,4|8,0:0|0:0,0:0:0:0:
176,240,46094,5,2,0:0:0:0:
140,308,46331,2,0,P|176:316|220:304,2,75.000000298023,2|2|8,0:0|0:0|0:0,0:0:0:0:
64,308,47039,1,2,0:0:0:0:
104,244,47276,6,0,P|180:228|256:244,1,150.000000596046,4|8,0:0|0:0,0:0:0:0:
292,308,47984,1,2,0:0:0:0:
216,308,48220,2,0,P|176:240|212:176,1,150.000000596046,4|8,0:0|0:0,0:0:0:0:
280,196,48929,1,2,0:0:0:0:
352,184,49165,6,0,B|352:136|352:136|312:92,1,75.000000298023,2|2,0:0|0:0,0:0:0:0:
280,56,49638,2,0,B|256:88|256:88|256:123,1,75.000000298023,8|2,0:0|0:0,0:0:0:0:
204,180,50110,2,0,B|180:152|180:152|180:112,1,75.000000298023,2|2,0:0|0:0,0:0:0:0:
104,112,50583,5,8,0:0:0:0:
100,188,50819,2,0,B|48:188|48:188|28:208,2,75.000000298023,2|2|2,0:0|0:0|0:0,0:0:0:0:
104,264,51527,6,0,B|160:264|160:264|184:284,1,75.000000298023,8|2,0:0|0:0,0:0:0:0:
236,228,52000,2,0,B|188:188|188:188|172:188,1,75.000000298023,2|2,0:0|0:0,0:0:0:0:
192,112,52472,2,0,B|143:110|143:110|120:128,1,75.000000298023,8|2,0:0|0:0,0:0:0:0:
60,176,52945,6,0,P|127:228|192:248,1,150.000000596046,4|8,0:0|0:0,0:0:0:0:
252,284,53654,1,2,0:0:0:0:
316,248,53890,2,0,P|396:208|432:152,1,150.000000596046,2|8,0:0|0:0,0:0:0:0:
380,100,54598,2,0,P|349:68|286:64,2,75.000000298023,2|2|2,0:0|0:0|0:0,0:0:0:0:
328,156,55307,6,0,P|300:179|249:187,1,75.000000298023,8|2,0:0|0:0,0:0:0:0:
200,228,55779,2,0,B|224:268|280:260,1,75.000000298023,2|2,0:0|0:0,0:0:0:0:
325,300,56252,2,0,P|299:326|264:336,1,75.000000298023,8|2,0:0|0:0,0:0:0:0:
192,320,56724,6,0,B|144:296|104:244|132:192,2,150.000000596046,4|8|2,0:0|0:0|0:0,0:0:0:0:
264,336,57905,1,2,0:0:0:0:
264,260,58142,1,8,0:0:0:0:
336,240,58378,2,0,B|376:208|376:208|376:168,2,75.000000298023,2|2|2,0:0|0:0|0:0,0:0:0:0:
264,260,59087,5,8,0:0:0:0:
192,280,59323,2,0,B|153:312|153:312|153:367,2,75.000000298023,2|2|2,0:0|0:0|0:0,0:0:0:0:
264,260,60032,1,8,0:0:0:0:
264,184,60268,1,2,0:0:0:0:
335,155,60504,6,0,P|328:227|264:260,1,150.000000596046,4|8,0:0|0:0,0:0:0:0:
192,280,61213,1,2,0:0:0:0:
120,260,61449,2,0,P|55:227|48:155,1,150.000000596046,2|8,0:0|0:0,0:0:0:0:
76,84,62157,2,0,B|156:56,1,75.000000298023,2|2,0:0|0:0,0:0:0:0:
220,40,62630,1,2,0:0:0:0:
292,60,62866,6,0,L|292:150,1,75.000000298023,8|2,0:0|0:0,0:0:0:0:
252,200,63339,2,0,L|342:200,1,75.000000298023,2|2,0:0|0:0,0:0:0:0:
392,240,63811,2,0,L|392:148,1,75.000000298023,8|2,0:0|0:0,0:0:0:0:
436,104,64283,6,0,L|324:104,1,112.500004738569,4|8,0:0|0:0,0:0:0:0:
320,180,64992,1,2,0:0:0:0:
252,143,65228,2,0,P|244:180|252:216,1,75.000000298023,2|2,0:0|0:0,0:0:0:0:
316,256,65701,2,0,P|288:284|252:292,1,75.000000298023,8|2,0:0|0:0,0:0:0:0:
256,368,66173,6,0,P|332:344|384:288,1,150.000000596046,4|8,0:0|0:0,0:0:0:0:
316,256,66882,1,2,0:0:0:0:
388,220,67118,2,0,P|335:167|263:146,1,150.000000596046,4|8,0:0|0:0,0:0:0:0:
228,212,67827,1,2,0:0:0:0:
192,148,68063,2,0,P|120:169|67:221,1,150.000000596046,4|8,0:0|0:0,0:0:0:0:
68,296,68772,6,0,L|121:349,1,75.000000298023,2|2,0:0|0:0,0:0:0:0:
180,300,69244,2,0,L|233:353,1,75.000000298023,2|10,0:0|0:0,0:0:0:0:
284,300,69716,1,2,0:0:0:0:
336,248,69953,6,0,B|320:185|344:130|344:130|280:136,1,150.000000596046,4|8,0:0|0:0,0:0:0:0:
256,180,70661,1,2,0:0:0:0:
196,228,70898,2,0,B|167:225|167:225|191:170|175:107,1,150.000000596046,4|8,0:0|0:0,0:0:0:0:
136,40,71606,1,2,0:0:0:0:
136,40,71842,5,4,0:0:0:0:
64,172,72315,2,0,L|64:260,1,75.000000298023,8|2,0:0|0:0,0:0:0:0:
112,304,72787,1,8,0:0:0:0:
196,228,73142,1,8,0:0:0:0:
276,304,73496,2,0,B|192:304,1,75.000000298023,6|0,0:0|0:0,0:0:0:0:
196,228,73968,2,0,B|272:228,1,75.000000298023,8|0,0:0|0:0,0:0:0:0:
348,228,74441,1,8,0:0:0:0:
416,264,74677,1,8,0:0:0:0:
480,300,74913,2,0,L|480:220,1,75.000000298023,8|2,0:0|0:0,0:0:0:0:
480,148,75386,1,10,0:0:0:0:
256,192,75504,12,4,77512,0:0:0:0:
72,220,79401,6,2,B|72:336,2,112.500000447034,12|8|8,0:0|0:0|0:0,0:0:0:0:
140,172,80346,2,0,P|187:159|219:128,1,75.000000298023,2|2,0:0|0:0,0:3:0:0:
265,83,80819,2,0,P|295:62|332:54,1,75.000000298023,2|8,0:0|0:0,0:3:0:0:
408,76,81291,6,2,B|453:109|453:109|453:195,2,112.500000447034,12|8|8,0:0|0:0|0:0,0:0:0:0:
340,124,82236,2,0,L|340:220,1,75.000000298023,2|0,0:0|0:0,0:0:0:0:
260,172,82709,2,0,L|260:264,1,75.000000298023,2|8,0:0|0:0,0:0:0:0:
260,328,83181,6,2,B|205:327|205:327|160:284,1,112.500000447034,12|8,0:0|0:0,0:0:0:0:
132,260,83653,1,8,0:0:0:0:
48,256,83890,2,0,P|21:272|-3:323,2,75.000000298023,8|2|2,0:0|0:0|0:0,0:0:0:0:
96,188,84598,2,0,B|116:144|152:128|152:128|152:88,1,112.500000447034,2|0,0:0|0:0,0:0:0:0:
192,100,85071,6,0,B|192:128|192:128|228:144|248:188,1,112.500000447034,12|8,0:0|0:0,0:0:0:0:
288,192,85543,1,8,0:0:0:0:
352,232,85779,2,0,P|360:268|340:324,1,75.000000298023,8|0,0:0|0:0,0:0:0:0:
288,348,86252,1,2,0:0:0:0:
220,300,86488,1,2,0:0:0:0:
156,244,86724,1,2,0:0:0:0:
156,244,86961,6,2,B|156:172|156:172|128:140,2,112.500000447034,12|8|8,0:0|0:0|0:0,0:0:0:0:
72,236,87905,2,0,B|72:204|72:204|56:180|56:180|56:144,1,75.000000298023,2|2,0:0|0:0,0:0:0:0:
60,84,88378,2,0,P|96:56|144:60,1,75.000000298023,2|8,0:0|0:0,0:0:0:0:
204,72,88850,6,2,B|240:60|280:72|280:72|296:40,2,112.500000447034,12|8|8,0:0|0:0|0:0,0:0:0:0:
152,136,89795,2,0,L|228:212,1,75.000000298023,2|0,0:0|0:0,0:0:0:0:
288,188,90268,2,0,L|346:133,1,75.000000298023,2|8,0:0|0:0,0:0:0:0:
364,56,90740,6,2,P|412:84|424:148,1,112.500000447034,12|8,0:0|0:0,0:0:0:0:
428,176,91212,1,8,0:0:0:0:
384,248,91449,1,8,0:0:0:0:
384,248,91685,2,0,B|356:329,1,75.000000298023,2|2,0:0|0:0,0:3:0:0:
276,324,92157,2,0,B|299:252,1,75.000000298023,2|8,0:0|0:0,0:3:0:0:
340,180,92630,6,2,B|340:124|340:124|284:84,1,112.500000447034,12|8,0:0|0:0,0:0:0:0:
260,72,93102,1,8,0:0:0:0:
180,56,93338,1,2,0:0:0:0:
108,96,93575,1,10,0:0:0:0:
92,136,93693,2,0,P|96:180|128:224,1,75.000000298023,8|8,0:0|0:0,0:0:0:0:
132,240,94047,2,0,B|196:288|252:260,1,112.500000447034,8|0,0:0|0:0,0:0:0:0:
280,268,94520,6,2,P|324:296|328:356,2,112.500000447034,12|8|8,0:0|0:0|0:0,0:0:0:0:
200,288,95465,2,0,L|107:338,1,75.000000298023,2|0,0:0|0:0,0:0:0:0:
132,240,95937,2,0,L|30:210,1,75.000000298023,2|8,0:0|0:0,0:0:0:0:
104,152,96409,6,0,L|47:55,2,112.500000447034,12|8|8,0:0|0:0|0:0,2:0:0:0:
188,156,97354,2,0,L|251:78,1,75.000000298023,2|2,0:0|0:0,0:0:0:0:
316,100,97827,2,0,L|394:163,1,75.000000298023,2|8,0:0|0:0,0:0:0:0:
456,156,98299,6,2,P|432:208|360:224,1,112.500000447034,12|8,0:0|0:0,0:0:0:0:
340,224,98772,1,8,0:0:0:0:
260,232,99008,2,0,P|280:280|316:300,1,75.000000298023,8|2,0:0|0:0,0:0:0:0:
376,312,99480,1,2,0:0:0:0:
444,268,99716,2,0,P|430:220|392:192,1,75.000000298023,2|8,0:0|0:0,0:0:0:0:
400,120,100189,6,2,P|352:140|332:216,1,112.500000447034,12|8,0:0|0:0,0:0:0:0:
328,236,100661,1,8,0:0:0:0:
296,312,100898,2,0,P|264:292|248:252,1,75.000000298023,8|2,0:0|0:0,0:0:0:0:
232,180,101370,1,2,0:0:0:0:
216,100,101606,2,0,P|168:128|152:184,1,112.500000447034,10|0,0:0|0:0,0:0:0:0:
112,192,102079,6,2,L|-18:192,2,112.500000447034,12|8|8,0:0|0:0|0:0,0:0:0:0:
196,192,103024,2,0,P|208:160|264:132,1,75.000000298023,2|0,0:0|0:0,0:0:0:0:
322,136,103496,2,0,P|351:157|365:192,1,75.000000298023,2|8,0:0|0:0,0:0:0:0:
362,276,103968,6,2,P|314:264|282:212,2,112.500000447034,12|8|8,0:0|0:0|0:0,0:0:0:0:
444,280,104913,2,0,P|478:255|492:216,1,75.000000298023,2|2,0:0|0:0,0:0:0:0:
412,204,105386,2,0,P|432:168|472:144,1,75.000000298023,2|8,0:0|0:0,0:0:0:0:
492,72,105858,6,2,P|420:76|380:112,1,112.500000447034,12|8,0:0|0:0,0:0:0:0:
360,128,106331,1,8,0:0:0:0:
284,92,106567,2,0,P|275:144|293:178,1,75.000000298023,8|2,0:0|0:0,0:3:0:0:
328,232,107039,1,2,0:0:0:0:
308,316,107275,2,0,P|268:296|248:260,1,75.000000298023,2|8,0:0|0:0,0:0:0:0:
216,196,107748,6,0,L|216:120,1,75.000000298023,12|0,0:0|0:0,0:0:0:0:
248,92,108101,2,0,L|312:40,1,75.000000298023,8|0,0:0|0:0,0:0:0:0:
348,44,108457,1,8,0:0:0:0:
408,100,108693,2,0,P|404:140|376:180,1,75.000000298023,8|8,0:0|0:0,0:0:0:0:
336,236,109165,1,2,0:0:0:0:
256,256,109401,1,8,0:0:0:0:
176,244,109638,6,2,L|40:244,2,112.500000447034,12|8|8,0:0|0:0|0:0,0:0:0:0:
140,168,110583,2,0,P|92:148|77:82,1,112.500000447034,2|2,0:0|0:0,0:0:0:0:
84,52,111055,2,0,P|128:33|186:37,1,75.000000298023,2|8,0:0|0:0,0:0:0:0:
236,36,111527,6,2,L|352:116,2,112.500000447034,12|8|8,0:0|0:0|0:0,0:0:0:0:
172,100,112472,2,0,L|244:148,1,75.000000298023,2|2,0:0|0:0,0:0:0:0:
300,192,112945,2,0,P|264:220|232:224,1,75.000000298023,2|8,0:0|0:0,0:0:0:0:
180,284,113417,6,2,P|240:308|292:296,1,112.500000447034,12|8,0:0|0:0,0:0:0:0:
324,284,113889,1,8,0:0:0:0:
372,216,114126,2,0,P|372:165|340:126,1,75.000000298023,8|2,0:0|0:0,0:0:0:0:
300,88,114598,1,2,0:0:0:0:
216,92,114835,2,0,P|168:109|142:152,1,75.000000298023,2|8,0:0|0:0,0:0:0:0:
104,196,115307,6,2,L|104:325,1,112.500000447034,12|8,0:0|0:0,0:0:0:0:
136,336,115780,1,8,0:0:0:0:
184,268,116016,2,0,P|220:232|271:224,1,75.000000298023,8|2,0:0|0:0,0:0:0:0:
284,296,116488,1,2,0:0:0:0:
368,296,116724,2,0,B|396:300|396:300|411:240|444:216,1,112.500000447034,10|0,0:0|0:0,0:0:0:0:
456,192,117197,6,2,L|456:80,2,112.500000447034,12|8|8,0:0|0:0|0:0,0:0:0:0:
380,164,118142,2,0,L|301:101,1,75.000000298023,2|2,0:0|0:0,0:0:0:0:
276,188,118614,2,0,L|166:196,1,75.000000298023,2|8,0:0|0:0,0:0:0:0:
200,276,119087,6,2,L|92:328,2,112.500000447034,12|8|8,0:0|0:0|0:0,0:0:0:0:
284,276,120032,2,0,P|324:273|367:294,1,75.000000298023,2|2,0:0|0:0,0:0:0:0:
432,312,120504,2,0,P|451:289|448:218,1,75.000000298023,2|8,0:0|0:0,0:0:0:0:
452,164,120976,6,2,P|424:128|360:112,1,112.500000447034,12|8,0:0|0:0,0:0:0:0:
320,124,121449,1,8,0:0:0:0:
304,204,121685,2,0,P|288:236|240:252,1,75.000000298023,8|2,0:0|0:0,0:0:0:0:
172,232,122157,1,2,0:0:0:0:
136,156,122394,2,0,P|179:148|216:160,1,75.000000298023,2|8,0:0|0:0,0:0:0:0:
284,156,122866,6,12,P|328:104|335:54,1,112.500000447034,12|8,0:0|0:0,0:0:0:0:
368,36,123338,1,8,0:0:0:0:
452,36,123575,2,0,P|488:75|480:118,1,75.000000298023,8|2,0:0|0:0,0:0:0:0:
468,176,124047,2,0,P|461:212|479:244,2,75.000000298023,2|2|8,0:0|0:0|0:0,0:0:0:0:
400,128,124756,6,2,B|348:85|297:85,2,112.500000447034,12|8|8,0:0|0:0|0:0,0:0:0:0:
392,212,125701,2,0,L|325:282,1,75.000000298023,2|2,0:0|0:0,0:0:0:0:
256,264,126173,2,0,L|201:207,1,75.000000298023,2|8,0:0|0:0,0:0:0:0:
148,152,126646,6,2,P|164:86|199:54,1,112.500000447034,12|8,0:0|0:0,0:0:0:0:
232,40,127118,1,8,0:0:0:0:
316,36,127354,2,0,P|327:82|365:133,1,112.500000447034,8|0,0:0|0:0,0:0:0:0:
408,136,127827,1,2,0:0:0:0:
432,56,128063,1,2,0:0:0:0:
488,116,128299,1,2,0:0:0:0:
488,116,128535,6,2,P|480:176|432:216,2,112.500000447034,12|8|8,0:0|0:0|0:0,0:0:0:0:
432,56,129480,2,0,L|340:56,1,75.000000298023,2|0,0:0|0:0,0:0:0:0:
320,132,129953,2,0,L|218:132,1,75.000000298023,2|8,0:0|0:0,0:0:0:0:
200,56,130425,6,2,L|63:56,2,112.500000447034,12|8|8,0:0|0:0|0:0,0:0:0:0:
244,132,131370,2,0,L|319:132,1,75.000000298023,2|8,0:0|0:0,0:0:0:0:
319,216,131842,2,0,L|237:216,1,75.000000298023,2|8,0:0|0:0,0:0:0:0:
180,168,132315,6,2,P|164:236|192:280,1,112.500000447034,12|8,0:0|0:0,0:0:0:0:
212,300,132787,1,8,0:0:0:0:
296,300,133024,2,0,P|352:296|396:248,1,112.500000447034,8|0,0:0|0:0,0:0:0:0:
404,220,133496,1,2,0:0:0:0:
376,140,133732,2,0,P|333:104|278:108,1,112.500000447034,10|0,0:0|0:0,0:0:0:0:
244,128,134205,6,2,L|244:272,1,112.500000447034,12|8,0:0|0:0,0:0:0:0:
208,264,134677,1,8,0:0:0:0:
148,204,134913,2,0,P|97:197|58:216,1,75.000000298023,8|2,0:0|0:0,0:0:0:0:
28,272,135386,1,0,0:0:0:0:
76,340,135621,2,0,P|123:348|167:321,1,75.000000298023,2|8,0:0|0:0,0:0:0:0:
216,292,136094,6,6,P|240:236|212:188,2,112.500000447034,12|8|8,0:0|0:0|0:0,0:0:0:0:
284,340,137039,2,0,P|323:336|352:316,1,75.000000298023,2|0,0:0|0:0,0:0:0:0:
408,252,137512,2,0,P|435:220|479:205,1,75.000000298023,2|8,0:0|0:0,0:0:0:0:
440,128,137984,6,0,L|356:100,1,75.000000298023,12|0,0:0|0:0,0:0:0:0:
340,132,138339,2,0,L|312:216,1,75.000000298023,8|0,0:0|0:0,0:0:0:0:
276,220,138693,1,8,0:0:0:0:
208,268,138929,2,0,P|165:295|128:300,1,75.000000298023,10|0,0:0|0:0,0:0:0:0:
60,292,139401,1,2,0:0:0:0:
20,220,139638,1,8,0:0:0:0:
44,140,139874,1,4,0:0:0:0:
