osu file format v13

[General]
AudioFilename: Shibayan feat. 3L - Love.mp3
AudioLeadIn: 0
PreviewTime: 109638
Countdown: 0
SampleSet: Soft
StackLeniency: 0.7
Mode: 0
LetterboxInBreaks: 1
EpilepsyWarning: 1
WidescreenStoryboard: 1

[Editor]
Bookmarks: 66191
DistanceSpacing: 0.6
BeatDivisor: 8
GridSize: 4
TimelineZoom: 2.600005

[Metadata]
Title:Love
TitleUnicode:・-・・ --- ・・・- ・
Artist:Shibayan feat. 3L
ArtistUnicode:Shibayan feat. 3L
Creator:truonant
Version:Lunatic
Source:Touhou
Tags:Mágico Catástrofe マジコカタストロフィ Majiko Katasutrofi ShibayanRecords Comiket 83 C83 ・-・・ --- ・・・- ・ やまざきさやか ラクトガール ~ 少女密室 東方紅魔郷 ~ the Embodiment of Scarlet Devil Patchouli Knowledge Mako Sakata
BeatmapID:440373
BeatmapSetID:182633

[Difficulty]
HPDrainRate:6
CircleSize:4
OverallDifficulty:7
ApproachRate:8
SliderMultiplier:2
SliderTickRate:2

[Events]
//Background and Video events
0,0,"BG.jpg",0,0
//Break Periods
//Storyboard Layer 0 (Background)
//Storyboard Layer 1 (Fail)
//Storyboard Layer 2 (Pass)
//Storyboard Layer 3 (Foreground)
//Storyboard Sound Samples
//Background Colour Transformations
3,100,163,162,255

[TimingPoints]
31,472.44094488189,4,2,2,80,1,0
15622,-133.333333333333,4,2,1,80,0,0
15976,-100,4,2,2,80,0,0
16094,-100,4,2,1,80,0,0
16803,-100,4,2,2,80,0,0
17512,-100,4,2,1,80,0,0
18929,-133.333333333333,4,2,1,80,0,0
19283,-100,4,2,1,80,0,0
19638,-100,4,2,2,80,0,0
19874,-100,4,2,1,80,0,0
20228,-100,4,2,2,80,0,0
20346,-100,4,2,1,80,0,0
20937,-100,4,2,1,80,0,0
21527,-100,4,2,2,80,0,0
21764,-100,4,2,1,80,0,0
22118,-100,4,2,2,80,0,0
22236,-100,4,2,1,80,0,0
22472,-100,4,2,2,80,0,0
22709,-133.333333333333,4,2,1,80,0,0
23063,-100,4,2,1,80,0,0
24008,-100,4,2,2,80,0,0
24126,-100,4,2,1,80,0,0
25307,-100,4,2,2,80,0,0
25543,-100,4,2,1,80,0,0
25898,-100,4,2,2,80,0,0
26016,-100,4,2,1,80,0,0
26252,-100,4,2,2,80,0,0
26488,-133.333333333333,4,2,1,80,0,0
26842,-100,4,2,1,80,0,0
27787,-100,4,2,2,80,0,0
27905,-100,4,2,1,80,0,0
29677,-100,4,2,2,80,0,0
29795,-100,4,2,1,80,0,0
30031,-100,4,2,2,80,0,0
30268,-133.333333333333,4,2,1,80,0,0
30622,-100,4,2,1,80,0,0
31567,-100,4,2,2,80,0,0
31685,-100,4,2,1,80,0,0
32866,-100,4,2,2,80,0,0
33102,-100,4,2,1,80,0,0
33457,-100,4,2,2,80,0,0
33575,-100,4,2,1,80,0,0
33811,-100,4,2,2,80,0,0
34047,-133.333333333333,4,2,1,80,0,0
34401,-100,4,2,1,80,0,0
35346,-100,4,2,2,80,0,0
35464,-100,4,2,1,80,0,0
36173,-100,4,2,2,80,0,0
36409,-100,4,2,1,80,0,0
37236,-100,4,2,2,80,0,0
37354,-100,4,2,1,80,0,0
37590,-100,4,2,2,80,0,0
37827,-133.333333333333,4,2,1,80,0,0
37945,-133.333333333333,4,2,1,80,0,0
38181,-100,4,2,1,80,0,0
38535,-100,4,2,2,80,0,0
38772,-100,4,2,1,80,0,0
39126,-100,4,2,2,80,0,0
39244,-100,4,2,1,80,0,0
40425,-100,4,2,2,80,0,0
40661,-100,4,2,1,80,0,0
41016,-100,4,2,2,80,0,0
41134,-100,4,2,1,80,0,0
41370,-100,4,2,2,80,0,0
41606,-133.333333333333,4,2,1,80,0,0
41961,-100,4,2,1,80,0,0
42905,-100,4,2,2,80,0,0
43024,-100,4,2,1,80,0,0
43260,-100,4,2,2,80,0,0
43496,-133.333333333333,4,2,1,80,0,0
43732,-100,4,2,1,80,0,0
43844,-100,4,2,2,80,0,0
43968,-100,4,2,1,80,0,0
44205,-100,4,2,2,80,0,0
44441,-133.333333333333,4,2,1,80,0,0
44677,-100,4,2,1,80,0,0
44789,-100,4,2,2,80,0,0
44913,-100,4,2,1,80,0,0
45150,-100,4,2,2,80,0,0
45386,-133.333333333333,4,2,1,80,0,0
45622,-100,4,2,1,80,0,0
45740,-100,4,2,2,80,0,0
45858,-100,4,2,1,80,0,0
46094,-100,4,2,2,80,0,0
46331,-100,4,2,1,80,0,0
46685,-100,4,2,2,80,0,0
46803,-100,4,2,1,80,0,0
47039,-100,4,2,2,80,0,0
47275,-133.333333333333,4,2,1,80,0,0
47512,-100,4,2,1,80,0,0
47630,-100,4,2,2,80,0,0
47748,-100,4,2,1,80,0,0
47984,-100,4,2,2,80,0,0
48220,-133.333333333333,4,2,1,80,0,0
48457,-100,4,2,1,80,0,0
48575,-100,4,2,2,80,0,0
48693,-100,4,2,1,80,0,0
48811,-133.333333333333,4,2,1,80,0,0
49165,-100,4,2,1,80,0,0
49401,-100,4,2,2,80,0,0
49638,-100,4,2,1,80,0,0
49874,-100,4,2,2,80,0,0
50110,-100,4,2,1,80,0,0
50346,-100,4,2,2,80,0,0
50583,-100,4,2,1,80,0,0
50819,-100,4,2,2,80,0,0
51055,-100,4,2,1,80,0,0
51291,-100,4,2,2,80,0,0
51527,-100,4,2,1,80,0,0
51764,-100,4,2,2,80,0,0
52000,-100,4,2,1,80,0,0
52236,-100,4,2,2,80,0,0
52472,-100,4,2,1,80,0,0
52709,-100,4,2,2,80,0,0
52945,-100,4,2,1,80,0,0
53653,-100,4,2,2,80,0,0
53890,-100,4,2,1,80,0,0
54126,-100,4,2,2,80,0,0
54362,-100,4,2,1,80,0,0
55543,-100,4,2,2,80,0,0
55779,-100,4,2,1,80,0,0
56134,-100,4,2,2,80,0,0
56252,-100,4,2,1,80,0,0
56488,-100,4,2,2,80,0,0
56724,-100,4,2,1,80,0,0
58024,-100,4,2,2,80,0,0
58142,-100,4,2,1,80,0,0
58614,-100,4,2,2,80,0,0
58850,-100,4,2,1,80,0,0
59913,-100,4,2,2,80,0,0
60031,-100,4,2,1,80,0,0
60268,-100,4,2,2,80,0,0
60504,-100,4,2,1,80,0,0
61803,-100,4,2,2,80,0,0
61921,-100,4,2,1,80,0,0
62394,-100,4,2,2,80,0,0
62630,-100,4,2,1,80,0,0
63693,-100,4,2,2,80,0,0
63811,-100,4,2,1,80,0,0
64047,-100,4,2,2,80,0,0
64283,-100,4,2,1,80,0,0
65937,-100,4,2,2,80,0,0
66173,-100,4,2,1,80,0,0
66882,-100,4,2,2,80,0,0
67118,-100,4,2,1,80,0,0
67827,-100,4,2,2,80,0,0
68063,-100,4,2,1,80,0,0
68772,-100,4,2,2,80,0,0
69008,-100,4,2,1,80,0,0
69716,-100,4,2,2,80,0,0
69953,-100,4,2,1,80,0,0
70661,-100,4,2,2,80,0,0
70898,-100,4,2,1,80,0,0
71843,-100,4,2,1,80,0,0
72728,-100,4,2,2,80,0,0
72846,-100,4,2,1,80,0,0
74382,-100,4,2,2,80,0,0
74854,-100,4,2,1,80,0,0
75327,-100,4,2,2,80,0,0
75445,-100,4,2,1,80,0,0
79401,-100,4,2,1,90,0,1
80583,-100,4,2,2,90,0,1
80701,-100,4,2,1,90,0,1
80937,-100,4,2,2,90,0,1
81055,-100,4,2,1,90,0,1
81291,-100,4,2,1,90,0,1
86252,-100,4,2,2,90,0,1
86428,-100,4,2,1,90,0,1
88142,-100,4,2,2,90,0,1
88260,-100,4,2,1,90,0,1
88496,-100,4,2,2,90,0,1
88614,-100,4,2,1,90,0,1
90031,-100,4,2,2,90,0,1
90150,-100,4,2,1,90,0,1
91921,-100,4,2,2,90,0,1
92039,-100,4,2,1,90,0,1
92275,-100,4,2,2,90,0,1
92394,-100,4,2,1,90,0,1
93693,-100,4,2,2,90,0,1
93811,-100,4,2,1,90,0,1
94165,-100,4,2,2,90,0,1
94283,-100,4,2,1,90,0,1
94401,-100,4,2,2,90,0,1
94520,-100,4,2,1,90,0,1
95701,-100,4,2,2,90,0,1
95819,-100,4,2,1,90,0,1
96291,-100,4,2,2,90,0,1
96409,-100,4,2,1,90,0,1
97472,-100,4,2,2,90,0,1
97590,-100,4,2,1,90,0,1
97827,-100,4,2,1,90,0,1
99480,-100,4,2,2,90,0,1
99598,-100,4,2,1,90,0,1
99835,-100,4,2,2,90,0,1
99953,-100,4,2,1,90,0,1
103378,-100,4,2,2,90,0,1
103496,-100,4,2,1,90,0,1
103614,-100,4,2,2,90,0,1
103732,-100,4,2,1,90,0,1
103850,-100,4,2,2,90,0,1
103968,-100,4,2,1,90,0,1
105504,-100,4,2,2,90,0,1
105622,-100,4,2,1,90,0,1
105740,-100,4,2,2,90,0,1
105858,-100,4,2,1,90,0,1
107039,-100,4,2,2,90,0,1
107157,-100,4,2,1,90,0,1
107394,-100,4,2,2,90,0,1
107512,-100,4,2,1,90,0,1
109519,-100,4,2,1,90,0,0
109637,-100,4,2,1,90,0,1
110819,-100,4,2,2,90,0,1
110937,-100,4,2,1,90,0,1
111173,-100,4,2,2,90,0,1
111291,-100,4,2,1,90,0,1
111409,-100,4,2,2,90,0,1
111527,-100,4,2,1,90,0,1
112709,-100,4,2,2,90,0,1
112827,-100,4,2,1,90,0,1
113299,-100,4,2,2,90,0,1
113417,-100,4,2,1,90,0,1
120268,-100,4,2,2,90,0,1
120386,-100,4,2,1,90,0,1
122157,-100,4,2,2,90,0,1
122275,-100,4,2,1,90,0,1
124047,-100,4,2,2,90,0,1
124165,-100,4,2,1,90,0,1
124283,-100,4,2,2,90,0,1
124401,-100,4,2,1,90,0,1
125937,-100,4,2,2,90,0,1
126055,-100,4,2,1,90,0,1
126155,-100,4,2,2,90,0,1
126409,-100,4,2,1,90,0,1
126527,-100,4,2,2,90,0,1
126646,-100,4,2,1,90,0,1
127827,-100,4,2,2,90,0,1
127945,-100,4,2,1,90,0,1
131606,-100,4,2,2,90,0,1
131842,-100,4,2,1,90,0,1
135386,-100,4,2,2,90,0,1
135622,-100,4,2,1,90,0,1
137157,-100,4,2,2,90,0,1
137275,-100,4,2,1,90,0,1
137394,-100,4,2,2,90,0,1
137512,-100,4,2,1,90,0,1
139874,-100,4,2,1,90,0,0

[Colours]
Combo1 : 251,232,123
Combo2 : 225,225,225
Combo3 : 253,170,228
Combo4 : 197,169,235

[HitObjects]
256,192,11370,12,2,15150,0:0:0:0:
256,192,15622,6,0,L|256:328,1,112.500004291535,4|0,0:0|0:0,0:0:0:0:
180,304,16094,2,0,L|132:336,1,50,2|0,0:0|0:0,0:0:0:0:
332,304,16449,2,0,L|380:336,1,50,2|0,0:0|0:0,0:0:0:0:
256,340,16803,1,2,0:0:0:0:
256,192,17039,1,2,0:0:0:0:
436,84,17512,5,8,0:0:0:0:
76,192,17983,1,0,0:0:0:0:
436,300,18457,1,8,0:0:0:0:
76,192,18929,6,0,P|136:216|196:208,1,112.500004291535,4|0,0:0|0:0,0:0:0:0:
260,172,19401,1,8,0:0:0:0:
380,112,19638,2,0,L|380:60,1,50
336,140,19874,2,0,B|336:204|336:204|312:236,1,100,2|0,0:0|0:0,0:0:0:0:
292,224,20228,1,8,0:0:0:0:
272,212,20346,1,8,0:0:0:0:
260,48,20583,6,0,B|196:48|196:48|164:68,1,100,2|0,0:0|0:0,0:0:0:0:
192,157,20937,2,0,B|192:97|192:97|160:61,1,100,2|0,0:0|0:0,0:0:0:0:
112,124,21291,1,8,0:0:0:0:
276,184,21527,2,0,L|296:236,1,50,2|0,0:0|0:0,0:0:0:0:
284,144,21764,2,0,B|320:88|320:88|320:32,1,100,2|0,0:0|0:0,0:0:0:0:
344,64,22118,1,8,0:0:0:0:
368,76,22236,1,8,0:0:0:0:
468,192,22472,2,0,L|504:252,1,50,2|0,0:0|0:0,0:0:0:0:
425,197,22709,6,0,P|428:256|392:300,1,112.500004291535,4|0,0:0|0:0,0:0:0:0:
328,328,23181,1,8,0:0:0:0:
208,328,23417,1,0,0:0:0:0:
112,264,23653,2,0,P|95:217|112:171,1,100,2|0,0:0|0:0,0:0:0:0:
111,171,24008,1,8,0:0:0:0:
111,171,24126,1,8,0:0:0:0:
272,76,24362,6,0,P|260:140|172:168,1,150,2|0,0:0|0:0,0:0:0:0:
160,244,24835,2,0,P|141:184|81:173,1,100,2|8,0:0|0:0,0:0:0:0:
76,44,25307,2,0,L|28:60,1,50,2|0,0:0|0:0,0:0:0:0:
100,36,25543,2,0,P|148:28|188:60,1,100,2|0,0:0|0:0,0:0:0:0:
196,80,25898,1,8,0:0:0:0:
204,100,26016,1,8,0:0:0:0:
104,224,26252,2,0,L|48:288,1,50
144,208,26488,6,0,B|172:200|172:200|200:240|244:236,1,112.500004291535,4|0,0:0|0:0,0:0:0:0:
240,160,26961,1,8,0:0:0:0:
308,292,27197,1,0,0:0:0:0:
384,160,27433,2,0,P|444:216|440:272,1,100,2|0,0:0|0:0,0:0:0:0:
446,229,27787,1,8,0:0:0:0:
446,229,27905,1,8,0:0:0:0:
308,292,28142,6,0,P|259:300|212:285,1,100,2|0,0:0|0:0,0:0:0:0:
127,238,28496,2,0,P|175:251|211:284,1,100,2|0,0:0|0:0,0:0:0:0:
127,341,28850,1,8,0:0:0:0:
260,172,29087,1,0,0:0:0:0:
332,40,29323,2,0,B|369:35|387:69|383:74|380:80|398:107|441:114,1,100,2|0,0:0|0:0,0:0:0:0:
404,124,29677,1,8,0:0:0:0:
404,148,29795,1,8,0:0:0:0:
396,300,30031,2,0,L|420:352,1,50,2|0,0:0|0:0,0:0:0:0:
384,276,30268,6,0,B|352:256|352:256|348:208|304:188,1,112.500004291535,4|0,0:0|0:0,0:0:0:0:
272,260,30740,1,8,0:0:0:0:
124,284,30976,1,0,0:0:0:0:
60,160,31212,2,0,P|73:102|119:73,1,100,2|0,0:0|0:0,0:0:0:0:
103,77,31567,1,8,0:0:0:0:
103,77,31685,1,8,0:0:0:0:
248,36,31921,6,0,P|296:32|338:62,1,100,2|0,0:0|0:0,0:0:0:0:
388,137,32275,2,0,P|357:118|337:60,1,100,2|0,0:0|0:0,0:0:0:0:
412,64,32630,1,8,0:0:0:0:
404,212,32866,1,2,0:0:0:0:
320,328,33102,2,0,P|268:336|204:316,1,100,2|0,0:0|0:0,0:0:0:0:
222,325,33457,1,8,0:0:0:0:
222,325,33575,1,8,0:0:0:0:
108,208,33811,2,0,L|56:188,1,50,2|0,0:0|0:0,0:0:0:0:
144,224,34047,6,0,P|196:184|208:140,1,112.500004291535,4|0,0:0|0:0,0:0:0:0:
192,64,34520,2,0,P|248:72|284:128,1,100,8|0,0:0|0:0,0:0:0:0:
276,252,34992,2,0,P|340:260|392:228,1,100,2|0,0:0|0:0,0:0:0:0:
392,232,35346,1,8,0:0:0:0:
404,212,35464,1,8,0:0:0:0:
416,60,35701,6,0,P|368:60|320:96,1,100,2|0,0:0|0:0,0:0:0:0:
276,252,36173,2,0,L|252:316,1,50,2|0,0:0|0:0,0:0:0:0:
244,188,36409,2,0,L|268:128,1,50,8|0,0:0|0:0,0:0:0:0:
272,68,36646,1,0,0:0:0:0:
164,28,36882,2,0,B|108:64|108:64|104:116,1,100,2|0,0:0|0:0,0:0:0:0:
104,124,37236,1,8,0:0:0:0:
104,148,37354,1,8,0:0:0:0:
72,296,37590,2,0,L|28:328,1,50,2|0,0:0|0:0,0:0:0:0:
104,308,37827,6,0,P|168:292|204:308,1,93.7500035762788,4|0,0:0|0:0,0:0:0:0:
280,340,38299,1,8,0:0:0:0:
408,264,38535,1,2,0:0:0:0:
276,184,38772,2,0,P|232:160|216:112,1,100,2|0,0:0|0:0,0:0:0:0:
196,116,39126,1,8,0:0:0:0:
172,116,39244,1,8,0:0:0:0:
56,204,39480,6,0,P|108:216|153:251,1,100,2|0,0:0|0:0,0:0:0:0:
83,290,39835,2,0,L|218:249,1,100,2|0,0:0|0:0,0:0:0:0:
192,192,40189,1,8,0:0:0:0:
183,340,40425,1,2,0:0:0:0:
192,192,40661,2,0,B|171:160|256:127|216:82,1,100,2|0,0:0|0:0,0:0:0:0:
226,103,41016,1,8,0:0:0:0:
226,103,41134,1,8,0:0:0:0:
360,308,41370,2,0,L|388:352,1,50,2|0,0:0|0:0,0:0:0:0:
328,284,41606,6,0,B|360:224|320:180,1,112.500004291535,4|0,0:0|0:0,0:0:0:0:
248,164,42079,2,0,P|280:116|328:108,1,100,8|0,0:0|0:0,0:0:0:0:
116,104,42551,2,0,P|156:116|180:180,1,100,2|0,0:0|0:0,0:0:0:0:
180,192,42905,1,8,0:0:0:0:
180,220,43024,1,8,0:0:0:0:
400,96,43260,2,0,L|464:52,1,50,2|0,0:0|0:0,0:0:0:0:
392,136,43496,6,0,L|316:192,1,75.0000028610231,4|0,0:0|0:0,0:0:0:0:
312,184,43850,1,8,0:0:0:0:
292,184,43968,1,8,0:0:0:0:
144,212,44205,2,0,L|80:256,1,50,2|0,0:0|0:0,0:0:0:0:
152,164,44441,6,0,L|224:108,1,75.0000028610231,4|0,0:0|0:0,0:0:0:0:
228,104,44795,1,8,0:0:0:0:
244,92,44913,1,8,0:0:0:0:
400,96,45150,2,0,L|464:52,1,50,2|0,0:0|0:0,0:0:0:0:
392,136,45386,6,0,L|316:192,1,75.0000028610231,4|0,0:0|0:0,0:0:0:0:
332,200,45740,1,8,0:0:0:0:
332,220,45858,1,8,0:0:0:0:
264,352,46094,5,2,0:0:0:0:
208,224,46331,2,0,P|256:184|304:180,1,100,2|0,0:0|0:0,0:0:0:0:
291,178,46685,1,8,0:0:0:0:
291,178,46803,1,8,0:0:0:0:
64,72,47039,2,0,L|24:32,1,50,2|0,0:0|0:0,0:0:0:0:
80,112,47275,6,0,B|152:200,1,75.0000028610231,4|0,0:0|0:0,0:0:0:0:
144,188,47630,1,8,0:0:0:0:
160,208,47748,1,8,0:0:0:0:
220,344,47984,1,2,0:0:0:0:
252,236,48220,6,0,B|295:237|295:237|328:204,1,75.0000028610231,4|0,0:0|0:0,0:0:0:0:
332,196,48575,1,8,0:0:0:0:
347,177,48693,1,8,0:0:0:0:
360,160,48811,2,0,L|424:232,1,75.0000028610231,0|0,0:0|0:0,0:0:0:0:
348,284,49165,5,6,0:0:0:0:
166,102,49401,1,2,0:0:0:0:
257,329,49638,5,8,0:0:0:0:
257,57,49874,1,2,0:0:0:0:
166,284,50110,5,2,0:0:0:0:
348,104,50346,1,2,0:0:0:0:
120,196,50583,5,8,0:0:0:0:
256,192,50819,1,2,0:0:0:0:
393,193,51055,1,2,0:0:0:0:
166,102,51291,5,2,0:0:0:0:
348,284,51527,1,8,0:0:0:0:
257,57,51764,5,2,0:0:0:0:
256,328,52000,1,2,0:0:0:0:
348,104,52236,5,2,0:0:0:0:
256,192,52472,1,8,0:0:0:0:
156,304,52709,1,2,0:0:0:0:
156,304,52945,6,0,P|208:316|260:304,1,100,6|2,0:0|0:0,0:0:0:0:
380,252,53417,1,8,0:0:0:0:
432,124,53653,1,2,0:0:0:0:
312,56,53890,1,2,0:0:0:0:
188,120,54126,2,0,L|136:96,2,50,2|0|8,0:0|0:0|0:0,0:0:0:0:
240,256,54598,6,0,P|304:308|360:292,1,100,2|0,0:0|0:0,0:0:0:0:
408,284,54953,2,0,L|328:316,1,50,2|0,0:0|0:0,0:0:0:0:
252,340,55307,1,8,0:0:0:0:
320,208,55543,2,0,L|360:144,1,50,2|0,0:0|0:0,0:0:0:0:
368,96,55779,2,0,P|291:135|253:123,1,100,2|0,0:0|0:0,0:0:0:0:
281,133,56134,1,8,0:0:0:0:
281,133,56252,1,8,0:0:0:0:
128,144,56488,2,0,L|152:208,1,50,2|0,0:0|0:0,0:0:0:0:
192,256,56724,6,0,P|188:200|216:164,1,100,4|0,0:0|0:0,0:0:0:0:
112,48,57197,2,0,P|64:60|36:104,1,100,8|0,0:0|0:0,0:0:0:0:
56,248,57669,2,0,P|100:260|124:308,1,100,2|0,0:0|0:0,0:0:0:0:
123,305,58024,1,8,0:0:0:0:
123,305,58142,1,8,0:0:0:0:
272,312,58378,5,2,0:0:0:0:
424,312,58614,1,2,0:0:0:0:
280,344,58850,1,2,0:0:0:0:
376,200,59087,2,0,P|342:171|275:136,1,100,8|0,0:0|0:0,0:0:0:0:
256,128,59441,1,0,0:0:0:0:
208,120,59559,2,0,P|153:119|112:104,1,100,2|0,0:0|0:0,0:0:0:0:
111,103,59913,1,8,0:0:0:0:
111,103,60031,1,8,0:0:0:0:
64,248,60268,2,0,L|8:264,1,50,2|0,0:0|0:0,0:0:0:0:
40,304,60504,6,0,P|72:340|120:352,1,100,4|0,0:0|0:0,0:0:0:0:
240,256,60976,2,0,P|208:220|160:208,1,100,8|0,0:0|0:0,0:0:0:0:
296,304,61449,2,0,P|328:340|376:352,1,100,2|0,0:0|0:0,0:0:0:0:
376,351,61803,1,8,0:0:0:0:
376,351,61921,1,8,0:0:0:0:
460,228,62157,6,0,B|412:228|412:228|340:196,1,100,2|2,0:0|0:0,0:0:0:0:
236,128,62630,2,0,B|188:128|188:128|116:160,1,100,2|8,0:0|0:0,0:0:0:0:
20,240,63102,1,0,0:0:0:0:
160,328,63338,2,0,P|201:278|219:219,1,100,2|0,0:0|0:0,0:0:0:0:
213,246,63693,1,8,0:0:0:0:
213,246,63811,1,8,0:0:0:0:
252,84,64047,2,0,L|185:16,1,50
248,118,64283,6,0,P|295:127|337:209,1,100,4|0,0:0|0:0,0:0:0:0:
436,228,64756,1,8,0:0:0:0:
252,304,64992,1,0,0:0:0:0:
420,160,65228,1,2,0:0:0:0:
236,236,65464,1,0,0:0:0:0:
380,100,65701,1,8,0:0:0:0:
196,176,65937,2,0,L|144:200,1,50,2|0,0:0|0:0,0:0:0:0:
168,264,66173,6,0,B|132:216|52:204,1,100,4|2,0:0|0:0,0:0:0:0:
68,132,66646,2,0,P|124:96|156:32,1,100,8|2,0:0|0:0,0:0:0:0:
344,120,67118,6,0,B|380:168|460:180,1,100,4|2,0:0|0:0,0:0:0:0:
444,252,67590,2,0,P|388:288|356:352,1,100,8|2,0:0|0:0,0:0:0:0:
228,268,68063,6,0,B|236:208|188:143,1,100,4|2,0:0|0:0,0:0:0:0:
250,103,68535,2,0,P|315:118|383:95,1,100,8|2,0:0|0:0,0:0:0:0:
360,288,69008,2,0,P|380:328|428:352,2,100,2|0|8,0:0|0:0|0:0,0:0:0:0:
356,124,69716,6,0,L|360:64,1,50,2|0,0:0|0:0,0:0:0:0:
432,136,69953,2,0,B|420:192|364:200,1,100,4|2,0:0|0:0,0:0:0:0:
248,240,70425,1,8,0:0:0:0:
92,240,70661,2,0,L|60:282,1,50,2|0,0:0|0:0,0:0:0:0:
36,352,70898,2,0,P|88:352|132:312,1,100,4|2,0:0|0:0,0:0:0:0:
200,192,71370,2,0,L|200:92,1,100,8|2,0:0|0:0,0:0:0:0:
68,160,71842,5,4,0:0:0:0:
68,160,72315,2,0,P|60:212|72:260,1,100,8|2,0:0|0:0,0:0:0:0:
216,224,72787,1,8,0:0:0:0:
0,296,73142,1,8,0:0:0:0:
216,224,73496,2,0,P|272:212|312:228,1,100,6|0,0:0|0:0,0:0:0:0:
376,360,73968,2,0,L|308:360,1,50,8|0,0:0|0:0,0:0:0:0:
344,288,74205,2,0,L|394:288,1,50,8|0,0:0|0:0,0:0:0:0:
325,360,74441,1,8,0:0:0:0:
289,368,74559,1,2,0:0:0:0:
253,376,74677,1,8,0:0:0:0:
392,288,74913,2,0,B|436:272|436:272|464:224,1,100,8|2,0:0|0:0,0:3:0:0:
492,80,75386,1,10,0:0:0:0:
256,192,75504,12,4,77512,0:0:0:0:
96,152,79401,6,0,L|216:152,1,100,12|2,0:0|0:0,0:0:0:0:
232,220,79756,2,0,L|332:220,1,100,8|2,0:0|0:0,0:0:0:0:
348,292,80109,2,0,L|464:292,2,100,8|2|2,0:0|0:0|0:0,0:0:0:0:
200,256,80819,2,0,L|248:240,1,50,2|2,0:0|0:0,0:0:0:0:
295,153,81055,2,0,L|236:176,1,50,8|0,0:0|0:0,0:0:0:0:
316,140,81291,6,8,P|352:105|403:87,1,100,12|2,0:0|0:0,0:0:0:0:
472,76,81646,2,8,P|437:112|419:163,1,100,12|2,0:0|0:0,0:0:0:0:
367,219,82000,2,8,P|413:203|460:220,2,100,8|2|0,0:0|0:0|0:0,0:3:0:0:
292,348,82709,2,0,P|360:372|436:348,1,150,2|0,0:0|0:0,0:0:0:0:
364,216,83180,6,0,P|319:180|275:179,1,100,12|2,0:0|0:0,0:0:0:0:
215,225,83535,2,0,P|198:179|220:126,1,100,8|2,0:0|0:0,0:0:0:0:
272,80,83890,2,0,L|335:51,1,50,8|0,0:0|0:0,0:0:0:0:
395,98,84126,2,0,L|331:126,1,50,2|0,0:0|0:0,0:0:0:0:
332,201,84362,2,0,L|396:172,1,50,8|2,0:0|0:0,0:0:0:0:
462,218,84598,2,0,L|397:246,1,50,2|0,0:0|0:0,0:0:0:0:
405,321,84835,2,0,L|469:292,1,50,8|0,0:0|0:0,0:0:0:0:
380,332,85070,6,0,P|339:345|285:327,1,100,12|2,0:0|0:0,0:0:0:0:
212,340,85425,2,0,P|166:314|148:271,1,100,8|2,0:0|0:0,0:0:0:0:
84,232,85779,2,0,P|73:185|96:138,1,100,8|2,0:0|0:0,0:0:0:0:
125,71,86134,1,2,0:0:0:0:
167,134,86251,2,0,P|92:212|22:138,1,200,2|0,0:0|0:0,0:0:0:0:
204,260,86961,6,0,P|227:302|217:350,1,100,12|2,0:0|0:0,0:0:0:0:
204,260,87315,2,0,P|239:226|288:223,1,100,8|2,0:0|0:0,0:0:0:0:
352,184,87669,2,8,P|363:232|328:288,2,100,8|2|2,0:0|0:0|0:0,0:0:0:0:
288,144,88260,2,0,P|334:144|376:99,1,100,2|2,0:0|0:0,0:0:0:0:
444,136,88614,2,0,L|444:76,1,50,8|0,0:0|0:0,0:0:0:0:
484,44,88849,6,0,L|384:44,1,100,12|2,0:0|0:0,0:0:0:0:
352,112,89205,2,0,L|252:112,1,100,8|2,0:0|0:0,0:0:0:0:
236,188,89559,2,0,L|136:188,2,100,8|2|2,0:0|0:0|0:0,0:0:0:0:
312,148,90150,2,0,L|296:100,1,50,2|0,0:0|0:0,0:0:0:0:
377,173,90386,2,0,L|392:220,1,50,2|8,0:0|0:0,0:0:0:0:
408,296,90622,1,0,0:0:0:0:
333,292,90740,6,0,P|349:248|397:220,1,100,12|2,0:0|0:0,0:0:0:0:
316,224,91094,2,0,P|264:208|240:160,1,100,8|2,0:0|0:0,0:0:0:0:
243,248,91449,2,0,P|227:292|179:320,2,100,8|2|2,0:0|0:0|0:0,0:0:0:0:
242,171,92039,2,0,P|226:127|178:99,1,100,2|2,0:0|0:0,0:0:0:0:
108,120,92394,2,0,L|60:168,1,50,8|0,0:0|0:0,0:0:0:0:
112,88,92629,6,0,P|152:44|208:36,1,100,12|2,0:0|0:0,0:0:0:0:
272,64,92984,2,0,P|240:108|192:120,1,100,8|2,0:0|0:0,0:0:0:0:
304,64,93338,2,0,L|364:96,1,50,8|0,0:0|0:0,0:0:0:0:
348,112,93575,1,10,0:0:0:0:
348,136,93693,1,2,0:0:0:0:
348,160,93811,1,8,0:0:0:0:
332,308,94047,2,0,L|280:296,1,50,8|2,0:0|0:0,0:0:0:0:
232,244,94283,2,0,L|280:228,1,50,8|2,0:0|0:0,0:0:0:0:
348,200,94520,6,0,L|348:96,1,100,12|2,0:0|0:0,0:0:0:0:
428,208,94874,2,0,L|428:308,1,100,8|2,0:0|0:0,0:0:0:0:
274,308,95227,2,0,L|274:208,2,100,8|2|2,0:0|0:0|0:0,0:0:0:0:
200,320,95819,1,2,0:0:0:0:
200,320,95937,2,0,P|160:288|140:244,1,100,2|8,0:0|0:0,0:0:0:0:
116,176,96291,1,2,0:0:0:0:
44,152,96409,6,0,P|80:108|120:100,1,100,12|2,0:0|0:0,0:0:0:0:
180,140,96764,2,0,P|188:196|164:232,1,100,8|2,0:0|0:0,0:0:0:0:
96,248,97118,2,0,P|52:220|40:172,1,100,8|2,0:0|0:0,0:0:0:0:
4,252,97471,2,0,B|104:184|104:184|152:184,1,150,2|8,0:0|0:0,0:0:0:0:
240,248,98063,2,0,L|188:244,1,50,8|0,0:0|0:0,0:0:0:0:
264,248,98299,6,0,L|360:172,1,100,12|2,0:0|0:0,0:0:0:0:
280,144,98653,2,0,L|376:68,1,100,8|2,0:0|0:0,0:0:0:0:
444,196,99008,2,0,L|348:272,2,100,8|2|2,0:0|0:0|0:0,0:0:0:0:
448,120,99598,2,0,L|404:72,1,50,2|8,0:0|0:0,0:0:0:0:
388,80,99835,1,2,0:0:0:0:
360,80,99953,1,8,0:0:0:0:
204,76,100188,6,2,P|164:112|158:156,1,100,12|0,0:0|0:0,0:3:0:0:
196,231,100543,2,0,P|234:199|241:151,1,100,8|2,0:0|0:0,0:3:0:0:
196,232,100898,2,0,P|157:261|149:309,1,100,8|2,0:0|0:0,0:3:0:0:
300,328,101370,2,0,L|400:328,2,100,2|2|8,0:0|0:0|0:0,0:3:0:0:
264,260,101961,1,0,0:0:0:0:
305,196,102079,6,0,L|404:176,1,100,12|2,0:0|0:0,0:0:0:0:
448,116,102433,2,0,L|324:60,1,100,8|2,0:0|0:0,0:0:0:0:
284,92,102787,2,0,L|212:180,1,100,8|2,0:0|0:0,0:0:0:0:
176,232,103142,1,0,0:0:0:0:
152,304,103260,2,0,L|136:364,1,50,8|2,0:0|0:0,0:0:0:0:
64,360,103496,2,0,L|16:308,1,50,2|0,0:0|0:0,0:0:0:0:
52,252,103732,2,0,L|120:240,1,50,8|0,0:0|0:0,0:0:0:0:
128,172,103968,6,0,B|164:128|212:120,1,100,12|2,0:0|0:0,0:0:0:0:
288,65,104322,2,0,B|272:113|204:121,1,100,8|2,0:0|0:0,0:0:0:0:
144,56,104677,2,0,P|172:104|212:120,1,100,8|2,0:0|0:0,0:0:0:0:
220,144,105031,1,2,0:0:0:0:
228,168,105150,1,10,0:0:0:0:
296,296,105386,2,0,L|376:308,1,50,8|2,0:0|0:0,0:0:0:0:
388,240,105622,2,0,L|440:248,1,50,8|2,0:0|0:0,0:0:0:0:
368,236,105858,6,0,L|268:220,1,100,12|2,0:0|0:0,0:0:0:0:
196,204,106212,2,0,L|96:188,1,100,8|2,0:0|0:0,0:0:0:0:
272,208,106566,2,0,L|371:224,2,100,8|2|2,0:0|0:0|0:0,0:0:0:0:
368,96,107275,2,0,L|404:40,1,50,2|2,0:0|0:0,0:0:0:0:
464,80,107512,2,0,L|496:28,1,50,8|0,0:0|0:0,0:0:0:0:
456,104,107748,6,0,B|428:148|428:148|428:200,1,100,12|2,0:0|0:0,0:0:0:0:
368,240,108102,2,0,B|320:288|320:288|280:288,1,100,8|2,0:0|0:0,0:0:0:0:
216,308,108457,2,0,B|174:307|139:330|139:330|116:320,1,100,8|2,0:0|0:0,0:0:0:0:
52,296,108811,1,8,0:0:0:0:
108,248,108929,2,0,P|128:198|115:135,1,100,8|8,0:0|0:0,0:0:0:0:
212,32,109401,1,8,0:0:0:0:
124,154,109638,6,0,P|176:118|228:110,1,100,12|2,0:0|0:0,0:0:0:0:
211,110,109992,2,0,P|263:146|315:154,1,100,8|2,0:0|0:0,0:0:0:0:
298,154,110345,2,0,P|350:118|402:110,2,100,8|2|2,0:0|0:0|0:0,0:0:0:0:
232,200,110937,2,0,L|312:176,1,50,2|0,0:0|0:0,0:0:0:0:
296,200,111173,1,2,0:0:0:0:
312,216,111291,1,8,0:0:0:0:
328,232,111409,1,2,0:0:0:0:
344,248,111527,6,0,L|448:232,1,100,12|2,0:0|0:0,0:0:0:0:
424,88,111882,2,0,L|326:104,1,100,8|2,0:0|0:0,0:0:0:0:
336,176,112236,2,0,L|440:160,2,100,8|2|2,0:0|0:0|0:0,0:0:0:0:
260,188,112827,2,0,L|196:176,1,50,2|0,0:0|0:0,0:0:0:0:
220,252,113063,2,0,L|148:240,1,50,2|8,0:0|0:0,0:0:0:0:
136,176,113299,1,2,0:0:0:0:
136,176,113417,6,0,P|152:128|196:104,1,100,12|2,0:0|0:0,0:0:0:0:
144,44,113772,2,0,P|204:28|244:48,1,100,8|2,0:0|0:0,0:0:0:0:
284,100,114126,2,0,P|244:120|184:96,1,100,8|2,0:0|0:0,0:0:0:0:
124,132,114480,1,2,0:0:0:0:
128,208,114598,2,0,P|156:244|220:260,1,100,0|2,0:0|0:0,0:0:0:0:
280,256,114953,1,0,0:0:0:0:
344,216,115071,2,0,P|359:201|390:163,1,50,8|0,0:0|0:0,0:0:0:0:
378,101,115307,6,0,P|330:85|278:105,1,100,12|2,0:0|0:0,0:0:0:0:
192,100,115661,2,0,P|238:114|285:98,1,100,8|2,0:0|0:0,0:0:0:0:
284,4,116015,2,0,P|269:50|285:97,1,100,8|2,0:0|0:0,0:0:0:0:
324,172,116370,2,0,L|380:172,1,50,2|0,0:0|0:0,0:0:0:0:
284,188,116606,2,0,B|236:208|188:189|188:189|188:244,1,150,2|8,0:0|0:0,0:0:0:0:
59,321,117197,6,0,L|179:321,1,100,12|2,0:0|0:0,0:0:0:0:
188,240,117551,2,0,L|76:240,1,100,8|2,0:0|0:0,0:0:0:0:
59,161,117905,2,4,L|187:161,1,100,8|2,0:0|0:0,0:0:0:0:
336,264,118378,1,8,0:0:0:0:
392,120,118614,1,2,0:0:0:0:
312,248,118850,1,8,0:0:0:0:
364,108,119087,6,0,P|320:128|301:181,1,100,12|2,0:0|0:0,0:3:0:0:
311,245,119440,2,0,P|354:224|373:171,1,100,8|2,0:0|0:0,0:3:0:0:
302,172,119795,2,0,P|258:192|239:245,1,100,8|2,0:0|0:0,0:3:0:0:
239,258,120150,1,2,0:0:0:0:
239,277,120268,1,2,0:0:0:0:
239,296,120386,2,0,P|193:312|142:287,1,100,2|0,0:0|0:0,0:3:0:0:
83,182,120740,2,0,L|15:234,1,50,8|0,0:0|0:0,0:0:0:0:
56,148,120976,6,0,P|76:104|124:80,1,100,12|2,0:0|0:0,0:0:0:0:
196,84,121331,2,0,P|240:104|264:152,1,100,8|2,0:0|0:0,0:0:0:0:
264,224,121685,2,0,P|244:268|196:292,2,100,8|2|0,0:0|0:0|0:0,0:0:0:0:
188,216,122275,1,2,0:0:0:0:
132,164,122394,2,0,L|132:76,1,50,0|0,0:0|0:0,0:0:0:0:
160,44,122630,2,0,L|220:44,1,50,8|0,0:0|0:0,0:0:0:0:
284,48,122866,6,0,P|316:84|312:144,1,100,12|2,0:0|0:0,0:0:0:0:
296,204,123220,2,0,P|348:200|384:164,1,100,8|2,0:0|0:0,0:0:0:0:
420,108,123574,2,0,P|452:144|444:204,1,100,8|8,0:0|0:0,0:0:0:0:
440,216,123929,1,2,0:0:0:0:
424,236,124047,1,2,0:0:0:0:
408,256,124165,1,2,0:0:0:0:
392,276,124283,2,0,P|352:304|292:316,1,100,2|8,0:0|0:0,0:0:0:0:
228,316,124638,1,0,0:0:0:0:
156,292,124755,6,0,P|208:272|240:236,1,100,12|2,0:0|0:0,0:0:0:0:
312,240,125110,2,0,P|334:189|331:141,1,100,8|2,0:0|0:0,0:0:0:0:
408,132,125464,2,0,P|388:80|352:48,2,100,8|2|2,0:0|0:0|0:0,0:0:0:0:
412,192,126055,1,2,0:0:0:0:
408,252,126173,2,0,P|388:304|352:336,1,100,0|8,0:0|0:0,0:0:0:0:
284,312,126527,1,2,0:0:0:0:
232,260,126645,6,0,P|236:320|196:360,1,100,12|2,0:0|0:0,0:0:0:0:
180,212,127000,2,0,P|184:272|144:312,1,100,8|2,0:0|0:0,0:0:0:0:
128,164,127354,2,0,P|132:224|92:264,2,100,8|2|2,0:0|0:0|0:0,0:0:0:0:
124,88,127945,2,0,L|180:76,1,50,2|0,0:0|0:0,0:0:0:0:
248,64,128181,1,0,0:0:0:0:
324,72,128299,2,0,L|380:84,1,50,8|0,0:0|0:0,0:0:0:0:
368,156,128535,6,0,L|476:132,1,100,12|2,0:0|0:0,0:0:0:0:
412,188,128890,2,0,L|520:212,1,100,8|2,0:0|0:0,0:0:0:0:
472,276,129244,1,10,0:0:0:0:
472,276,129362,1,0,0:0:0:0:
424,344,129480,2,0,L|396:292,1,50,2|0,0:0|0:0,0:0:0:0:
344,252,129716,2,0,L|316:304,1,50,10|2,0:0|0:0,0:0:0:0:
268,348,129953,2,0,L|240:296,1,50,2|0,0:0|0:0,0:0:0:0:
192,252,130189,2,0,L|164:304,1,50,10|0,0:0|0:0,0:0:0:0:
176,220,130425,6,0,L|196:120,1,100,12|2,0:0|0:0,0:0:0:0:
120,132,130779,2,0,L|140:32,1,100,8|2,0:0|0:0,0:0:0:0:
272,112,131134,2,0,L|252:210,2,100,8|2|2,0:0|0:0|0:0,0:0:0:0:
408,48,131842,2,0,L|512:48,1,100,2|10,0:0|0:0,0:0:0:0:
368,180,132314,6,0,B|360:248|360:248|324:284,1,100,12|2,0:0|0:0,0:0:0:0:
244,288,132669,2,0,B|316:288|316:288|340:268,1,100,8|2,0:0|0:0,0:0:0:0:
368,180,133024,2,0,L|412:224,1,50,8|0,0:0|0:0,0:0:0:0:
336,270,133260,2,0,L|288:317,1,50,2|0,0:0|0:0,0:0:0:0:
245,238,133496,2,0,L|201:195,1,50,10|2,0:0|0:0,0:0:0:0:
277,148,133732,2,0,L|321:104,1,50,2|0,0:0|0:0,0:0:0:0:
368,180,133968,2,0,L|412:224,1,50,10|0,0:0|0:0,0:0:0:0:
332,192,134205,6,0,B|284:228|284:228|236:240,1,100,12|2,0:0|0:0,0:0:0:0:
172,240,134558,2,0,B|133:230|133:230|85:194,1,100,8|2,0:0|0:0,0:0:0:0:
84,120,134913,2,0,L|84:20,2,100,8|2|2,0:0|0:0|0:0,0:0:0:0:
256,104,135622,1,2,0:0:0:0:
256,104,135740,1,2,0:0:0:0:
256,104,135858,1,8,0:0:0:0:
256,104,135976,1,2,0:0:0:0:
256,104,136094,6,0,L|256:208,1,100,12|2,0:0|0:0,0:0:0:0:
256,204,136449,2,0,L|256:304,1,100,8|2,0:0|0:0,0:0:0:0:
328,288,136803,2,0,L|372:252,1,50,8|0,0:0|0:0,0:0:0:0:
387,235,137039,1,2,0:0:0:0:
408,213,137157,1,2,0:0:0:0:
429,191,137275,1,2,0:0:0:0:
450,169,137394,2,0,P|430:109|450:25,1,150,2|8,0:0|0:0,0:0:0:0:
448,164,137984,6,0,P|424:206|384:242,1,100,12|2,0:0|0:0,0:0:0:0:
328,286,138338,2,0,P|277:313|221:312,1,100,8|2,0:0|0:0,0:0:0:0:
162,307,138693,2,0,P|108:274|89:216,1,100,8|2,0:0|0:0,0:0:0:0:
65,174,139047,1,0,0:0:0:0:
65,174,139165,2,0,L|32:127,1,50
102,169,139401,2,0,B|145:172|168:190|168:190|206:170,1,100,2|8,0:0|0:0,0:0:0:0:
310,83,139874,1,4,0:0:0:0:
