osu file format v13

[General]
AudioFilename: Shibayan feat. 3L - Love.mp3
AudioLeadIn: 0
PreviewTime: 109638
Countdown: 0
SampleSet: Soft
StackLeniency: 0.7
Mode: 0
LetterboxInBreaks: 1
EpilepsyWarning: 1
WidescreenStoryboard: 1

[Editor]
DistanceSpacing: 1
BeatDivisor: 4
GridSize: 4
TimelineZoom: 1.200005

[Metadata]
Title:Love
TitleUnicode:・-・・ --- ・・・- ・
Artist:Shibayan feat. 3L
ArtistUnicode:Shibayan feat. 3L
Creator:truonant
Version:Hard
Source:Touhou
Tags:Mágico Catástrofe マジコカタストロフィ Majiko Katasutrofi ShibayanRecords Comiket 83 C83 ・-・・ --- ・・・- ・ やまざきさやか ラクトガール ~ 少女密室 東方紅魔郷 ~ the Embodiment of Scarlet Devil Patchouli Knowledge Mako Sakata
BeatmapID:437882
BeatmapSetID:182633

[Difficulty]
HPDrainRate:6
CircleSize:4
OverallDifficulty:6
ApproachRate:7
SliderMultiplier:1.8
SliderTickRate:2

[Events]
//Background and Video events
0,0,"BG.jpg",0,0
//Break Periods
//Storyboard Layer 0 (Background)
//Storyboard Layer 1 (Fail)
//Storyboard Layer 2 (Pass)
//Storyboard Layer 3 (Foreground)
//Storyboard Sound Samples
//Background Colour Transformations
3,100,163,162,255

[TimingPoints]
31,472.44094488189,4,2,1,80,1,0
15150,-200,4,2,1,80,0,0
18929,-100,4,2,1,80,0,0
19638,-100,4,2,2,80,0,0
19874,-100,4,2,1,80,0,0
21527,-100,4,2,2,80,0,0
21764,-100,4,2,1,80,0,0
22000,-100,4,2,2,80,0,0
22236,-100,4,2,1,80,0,0
22472,-100,4,2,2,80,0,0
22709,-100,4,2,1,80,0,0
23417,-100,4,2,2,80,0,0
23653,-100,4,2,1,80,0,0
24835,-100,4,2,2,80,0,0
25071,-100,4,2,1,80,0,0
26252,-100,4,2,2,80,0,0
26488,-100,4,2,1,80,0,0
27669,-100,4,2,2,80,0,0
27905,-100,4,2,1,80,0,0
28378,-100,4,2,2,80,0,0
28614,-100,4,2,1,80,0,0
29087,-100,4,2,2,80,0,0
29323,-100,4,2,1,80,0,0
30031,-100,4,2,2,80,0,0
30268,-100,4,2,1,80,0,0
31449,-100,4,2,2,80,0,0
31685,-100,4,2,1,80,0,0
32866,-100,4,2,2,80,0,0
33102,-100,4,2,1,80,0,0
34047,-100,4,2,1,80,0,0
35228,-100,4,2,2,80,0,0
35464,-100,4,2,1,80,0,0
36173,-100,4,2,2,80,0,0
36409,-100,4,2,1,80,0,0
36646,-100,4,2,2,80,0,0
36882,-100,4,2,1,80,0,0
37590,-100,4,2,2,80,0,0
37827,-100,4,2,1,80,0,0
40425,-100,4,2,2,80,0,0
40661,-100,4,2,1,80,0,0
41370,-100,4,2,2,80,0,0
41606,-100,4,2,1,80,0,0
42315,-100,4,2,2,80,0,0
42551,-100,4,2,1,80,0,0
42787,-100,4,2,2,80,0,0
43024,-100,4,2,1,80,0,0
43260,-100,4,2,2,80,0,0
43496,-100,4,2,1,80,0,0
44205,-100,4,2,2,80,0,0
44441,-100,4,2,1,80,0,0
45150,-100,4,2,2,80,0,0
45386,-100,4,2,1,80,0,0
46094,-100,4,2,2,80,0,0
46331,-100,4,2,1,80,0,0
47039,-100,4,2,2,80,0,0
47275,-100,4,2,1,80,0,0
47984,-100,4,2,2,80,0,0
48220,-100,4,2,1,80,0,0
48929,-100,4,2,2,80,0,0
49165,-100,4,2,1,80,0,0
49401,-100,4,2,2,80,0,0
49638,-100,4,2,1,80,0,0
49874,-100,4,2,2,80,0,0
50110,-100,4,2,1,80,0,0
50346,-100,4,2,2,80,0,0
50583,-100,4,2,1,80,0,0
50819,-100,4,2,2,80,0,0
51055,-100,4,2,1,80,0,0
51764,-100,4,2,2,80,0,0
52000,-100,4,2,1,80,0,0
52236,-100,4,2,2,80,0,0
52472,-100,4,2,1,80,0,0
52709,-100,4,2,2,80,0,0
52945,-100,4,2,1,65,0,0
53181,-100,4,2,2,80,0,0
53417,-100,4,2,1,80,0,0
53653,-100,4,2,2,80,0,0
53890,-100,4,2,1,80,0,0
54126,-100,4,2,2,80,0,0
54362,-100,4,2,1,80,0,0
55071,-100,4,2,2,80,0,0
55307,-100,4,2,1,80,0,0
55543,-100,4,2,2,80,0,0
55779,-100,4,2,1,80,0,0
56134,-100,4,2,2,80,0,0
56370,-100,4,2,1,80,0,0
57433,-100,4,2,2,80,0,0
57669,-100,4,2,1,80,0,0
57905,-100,4,2,2,80,0,0
58142,-100,4,2,1,80,0,0
58850,-100,4,2,2,80,0,0
59087,-100,4,2,1,80,0,0
60268,-100,4,2,2,80,0,0
60504,-100,4,2,1,80,0,0
61212,-100,4,2,2,80,0,0
61449,-100,4,2,1,80,0,0
61685,-100,4,2,2,80,0,0
61921,-100,4,2,1,80,0,0
62630,-100,4,2,2,80,0,0
62866,-100,4,2,1,80,0,0
63102,-100,4,2,2,80,0,0
63338,-100,4,2,1,80,0,0
63575,-100,4,2,2,80,0,0
63811,-100,4,2,1,80,0,0
64047,-100,4,2,2,80,0,0
64283,-100,4,2,1,80,0,0
64992,-100,4,2,2,80,0,0
65228,-100,4,2,1,80,0,0
65464,-100,4,2,2,80,0,0
65701,-100,4,2,1,80,0,0
65937,-100,4,2,2,80,0,0
66173,-100,4,2,1,80,0,0
66882,-100,4,2,2,80,0,0
67118,-100,4,2,1,80,0,0
67827,-100,4,2,2,80,0,0
68063,-100,4,2,1,80,0,0
68772,-100,4,2,2,80,0,0
69008,-100,4,2,1,80,0,0
70661,-100,4,2,2,80,0,0
70898,-100,4,2,1,80,0,0
71606,-100,4,2,2,80,0,0
71843,-100,4,2,1,80,0,0
72728,-100,4,2,2,80,0,0
72846,-100,4,2,1,80,0,0
74382,-100,4,2,2,80,0,0
74854,-100,4,2,1,80,0,0
75327,-100,4,2,2,80,0,0
75445,-100,4,2,1,80,0,0
79401,-100,4,2,1,90,0,1
83653,-100,4,2,2,90,0,1
83890,-100,4,2,1,90,0,1
85543,-100,4,2,2,90,0,1
85779,-100,4,2,1,90,0,1
86252,-100,4,2,2,90,0,1
86488,-100,4,2,1,90,0,1
86724,-100,4,2,2,90,0,1
86961,-100,4,2,1,90,0,1
90150,-100,4,2,2,90,0,1
90268,-100,4,2,1,90,0,1
91212,-100,4,2,2,90,0,1
91449,-100,4,2,1,90,0,1
93102,-100,4,2,2,90,0,1
93338,-100,4,2,1,90,0,1
93693,-100,4,2,2,90,0,1
94047,-100,4,2,1,90,0,1
98772,-100,4,2,2,90,0,1
99008,-100,4,2,1,90,0,1
99480,-100,4,2,2,90,0,1
99716,-100,4,2,1,90,0,1
100661,-100,4,2,2,90,0,1
100898,-100,4,2,1,90,0,1
101370,-100,4,2,2,90,0,1
101606,-100,4,2,1,90,0,1
103614,-100,4,2,2,90,0,1
103968,-100,4,2,1,90,0,1
106331,-100,4,2,2,90,0,1
106567,-100,4,2,1,90,0,1
107039,-100,4,2,2,90,0,1
107275,-100,4,2,1,90,0,1
108693,-100,4,2,1,90,0,1
108929,-100,4,2,2,90,0,1
109165,-100,4,2,1,90,0,1
109519,-100,4,2,1,90,0,0
109637,-100,4,2,1,90,0,1
113890,-100,4,2,2,90,0,1
114126,-100,4,2,1,90,0,1
114598,-100,4,2,2,90,0,1
114835,-100,4,2,1,90,0,1
115779,-100,4,2,2,90,0,1
116016,-100,4,2,1,90,0,1
116488,-100,4,2,2,90,0,1
116724,-100,4,2,1,90,0,1
121449,-100,4,2,2,90,0,1
121685,-100,4,2,1,90,0,1
122157,-100,4,2,2,90,0,1
122394,-100,4,2,1,90,0,1
123338,-100,4,2,2,90,0,1
123575,-100,4,2,1,90,0,1
124638,-100,4,2,2,90,0,1
124756,-100,4,2,1,90,0,1
127118,-100,4,2,2,90,0,1
127354,-100,4,2,1,90,0,1
127827,-100,4,2,2,90,0,1
128063,-100,4,2,1,90,0,1
132787,-100,4,2,2,90,0,1
133024,-100,4,2,1,90,0,1
134087,-100,4,2,2,90,0,1
134205,-100,4,2,1,90,0,1
134677,-100,4,2,2,90,0,1
134913,-100,4,2,1,90,0,1
135386,-100,4,2,2,90,0,1
135622,-100,4,2,1,90,0,1
138693,-100,4,2,2,90,0,1
138929,-100,4,2,1,90,0,1
139874,-100,4,2,1,90,0,0

[Colours]
Combo1 : 251,232,123
Combo2 : 225,225,225
Combo3 : 253,170,228
Combo4 : 197,169,235

[HitObjects]
256,192,11370,12,2,15150,0:0:0:0:
256,192,15622,6,0,L|256:288,1,90,4|0,0:0|0:0,0:0:0:0:
256,282,17039,1,0,0:0:0:0:
380,232,17512,1,8,0:0:0:0:
256,192,17983,1,0,0:0:0:0:
132,232,18457,1,8,0:0:0:0:
128,64,18929,6,0,B|163:55|194:103|194:103|225:152|265:109,1,135,4|0,0:0|0:0,0:0:0:0:
276,108,19402,1,8,0:0:0:0:
344,176,19638,1,2,0:0:0:0:
412,248,19874,2,0,B|366:247|366:247|320:248,1,90,2|2,0:0|0:0,0:0:0:0:
376,100,20346,1,8,0:0:0:0:
322,248,20583,6,0,L|230:248,2,90,0|0|0,0:0|0:0|0:0,0:0:0:0:
376,100,21291,1,8,0:0:0:0:
248,160,21528,1,2,0:0:0:0:
322,248,21764,2,0,L|322:152,1,90,2|2,0:0|0:0,0:0:0:0:
248,36,22236,1,8,0:0:0:0:
136,112,22472,1,2,0:0:0:0:
248,160,22709,6,0,B|232:192|232:192|264:248|264:248|248:288,1,135,4|0,0:0|0:0,0:0:0:0:
296,312,23181,1,8,0:0:0:0:
352,224,23417,1,2,0:0:0:0:
400,136,23654,2,0,L|496:136,1,90,2|2,0:0|0:0,0:0:0:0:
352,136,24126,1,8,0:0:0:0:
236,140,24362,6,0,B|272:140|272:140|272:196|344:220,1,135,2|0,0:0|0:0,0:0:0:0:
372,216,24835,1,0,0:0:0:0:
272,308,25071,1,8,0:0:0:0:
172,216,25307,1,2,0:0:0:0:
272,308,25543,2,0,P|344:308|368:224,1,135,2|0,0:0|0:0,0:0:0:0:
372,216,26016,1,8,0:0:0:0:
268,128,26252,1,2,0:0:0:0:
136,92,26488,6,0,P|91:142|84:208,1,135,4|0,0:0|0:0,0:0:0:0:
92,252,26961,2,8,P|128:284|176:284,1,90,8|0,0:0|0:0,0:0:0:0:
244,176,27433,1,2,0:0:0:0:
328,68,27669,1,2,0:0:0:0:
260,184,27906,1,8,0:0:0:0:
396,176,28142,6,0,L|360:264,1,90,2|2,0:0|0:0,0:0:0:0:
240,316,28614,1,2,0:0:0:0:
132,232,28850,1,8,0:0:0:0:
248,304,29087,1,2,0:0:0:0:
260,168,29323,2,0,L|188:108,1,90,2|2,0:0|0:0,0:0:0:0:
120,224,29795,1,8,0:0:0:0:
240,164,30032,1,2,0:0:0:0:
260,296,30268,6,0,P|328:292|408:248,1,135,4|0,0:0|0:0,0:0:0:0:
416,228,30740,2,8,B|432:184|432:184|416:112,1,90,8|0,0:0|0:0,0:0:0:0:
348,92,31212,2,0,B|332:136|332:136|348:208,1,90,2|2,0:0|0:0,0:0:0:0:
268,64,31685,1,8,0:0:0:0:
176,188,31921,6,0,B|216:148|264:180|264:180|312:148|356:192,1,180,2|2,0:0|0:0,0:0:0:0:
340,316,32630,1,8,0:0:0:0:
224,248,32866,1,2,0:0:0:0:
341,180,33102,2,0,L|449:180,1,90,2|2,0:0|0:0,0:0:0:0:
372,308,33575,1,8,0:0:0:0:
240,336,33811,1,2,0:0:0:0:
100,328,34047,6,0,B|80:312|36:324|36:324|36:252,1,135,4|0,0:0|0:0,0:0:0:0:
36,212,34520,2,8,B|36:152|36:152|92:116,1,90,8|0,0:0|0:0,0:0:0:0:
172,64,34992,2,0,B|204:43|204:43|256:43,1,90,2|2,0:0|0:0,0:0:0:0:
380,96,35465,1,8,0:0:0:0:
256,43,35701,6,0,L|256:139,1,90,2|2,0:0|0:0,0:0:0:0:
380,188,36173,1,2,0:0:0:0:
256,133,36409,2,8,L|256:225,1,90,8|2,0:0|0:0,0:0:0:0:
256,356,36882,2,0,L|256:252,1,90,2|2,0:0|0:0,0:0:0:0:
144,192,37354,1,8,0:0:0:0:
176,60,37591,1,2,0:0:0:0:
260,156,37827,6,0,P|284:216|336:260,1,135,4|0,0:0|0:0,0:0:0:0:
336,260,38299,2,8,P|301:294|293:353,1,90,8|0,0:0|0:0,0:0:0:0:
392,316,38772,2,0,P|416:256|380:196,1,135,2|0,0:0|0:0,0:0:0:0:
344,180,39244,1,8,0:0:0:0:
290,121,39480,6,0,P|270:204|336:260,1,180,2|2,0:0|0:0,0:0:0:0:
344,180,40189,1,8,0:0:0:0:
404,112,40425,1,2,0:0:0:0:
404,112,40661,1,2,0:0:0:0:
344,180,40898,1,2,0:0:0:0:
288,248,41134,1,8,0:0:0:0:
232,320,41370,1,0,0:0:0:0:
232,320,41606,6,0,P|168:296|124:228,1,135,4|0,0:0|0:0,0:0:0:0:
128,244,42079,1,8,0:0:0:0:
188,176,42315,1,0,0:0:0:0:
248,108,42551,2,0,P|196:76|136:84,1,90,2|0,0:0|0:0,0:0:0:0:
84,104,43024,1,8,0:0:0:0:
56,192,43260,1,2,0:0:0:0:
68,284,43496,6,0,P|124:336|200:332,1,135,4|0,0:0|0:0,0:0:0:0:
224,336,43969,1,8,0:0:0:0:
196,252,44205,1,2,0:0:0:0:
280,220,44441,2,0,P|292:292|356:328,1,135,4|0,0:0|0:0,0:0:0:0:
384,332,44912,1,8,0:0:0:0:
364,244,45150,1,2,0:0:0:0:
424,188,45386,6,0,P|448:244|384:320,1,135,4|0,0:0|0:0,0:0:0:0:
384,332,45858,1,8,0:0:0:0:
364,244,46094,1,2,0:0:0:0:
296,184,46331,2,0,P|280:140|304:92,1,90,2|2,0:0|0:0,0:0:0:0:
360,40,46803,1,8,0:0:0:0:
448,28,47039,1,2,0:0:0:0:
496,104,47275,6,0,P|460:160|388:188,1,135,4|0,0:0|0:0,0:0:0:0:
356,192,47748,1,8,0:0:0:0:
408,268,47984,1,0,0:0:0:0:
332,316,48220,2,0,P|268:249|224:256,1,135,4|0,0:0|0:0,0:0:0:0:
192,268,48693,1,8,0:0:0:0:
244,340,48929,1,2,0:0:0:0:
296,220,49165,5,2,0:0:0:0:
168,175,49401,1,2,0:0:0:0:
119,302,49638,1,8,0:0:0:0:
248,348,49874,1,2,0:0:0:0:
261,211,50110,5,2,0:0:0:0:
136,257,50346,1,2,0:0:0:0:
240,344,50583,1,8,0:0:0:0:
261,211,50819,1,2,0:0:0:0:
261,211,51055,6,0,L|210:97,1,90,2|2,0:0|0:0,0:0:0:0:
90,132,51527,1,8,0:0:0:0:
224,129,51764,1,2,0:0:0:0:
90,132,52000,5,2,0:0:0:0:
224,129,52236,1,2,0:0:0:0:
144,20,52472,1,8,0:0:0:0:
57,128,52709,1,2,0:0:0:0:
192,145,52945,6,0,L|272:200,1,90,6|2,0:0|0:0,0:0:0:0:
356,196,53417,1,8,0:0:0:0:
396,116,53654,1,2,0:0:0:0:
312,276,53890,2,0,L|216:304,1,90,2|2,0:0|0:0,0:0:0:0:
136,292,54362,1,8,0:0:0:0:
192,220,54598,6,0,L|284:192,1,90,2|2,0:0|0:0,0:0:0:0:
344,132,55071,1,2,0:0:0:0:
300,52,55307,1,8,0:0:0:0:
212,44,55543,1,2,0:0:0:0:
136,96,55780,2,0,B|137:175|73:209|73:209|138:239|140:335,1,270,2|2,0:0|0:0,0:0:0:0:
64,288,56724,6,0,P|120:240|192:256,1,135,4|0,0:0|0:0,0:0:0:0:
216,272,57197,1,8,0:0:0:0:
264,344,57433,1,0,0:0:0:0:
256,256,57669,2,0,P|272:216|320:184,1,90,2|2,0:0|0:0,0:0:0:0:
392,160,58142,1,8,0:0:0:0:
336,88,58378,6,0,P|384:68|428:76,1,90,2|2,0:0|0:0,0:0:0:0:
480,144,58850,1,2,0:0:0:0:
448,232,59087,1,8,0:0:0:0:
416,312,59323,1,2,0:0:0:0:
416,312,59441,1,0,0:0:0:0:
416,312,59559,2,0,L|312:312,1,90,2|2,0:0|0:0,0:0:0:0:
256,256,60032,1,8,0:0:0:0:
328,208,60268,1,0,0:0:0:0:
256,152,60504,6,0,P|192:136|136:56,1,135,4|0,0:0|0:0,0:0:0:0:
120,48,60976,1,8,0:0:0:0:
48,104,61213,1,0,0:0:0:0:
104,176,61449,2,0,P|112:232|96:280,1,90,2|2,0:0|0:0,0:0:0:0:
48,336,61921,1,8,0:0:0:0:
0,264,62157,2,0,P|-8:220|0:176,1,90,2|2,0:0|0:0,0:0:0:0:
48,104,62630,5,2,0:0:0:0:
128,56,62866,2,0,P|168:40|216:40,1,90,8|2,0:0|0:0,0:0:0:0:
304,44,63339,1,2,0:0:0:0:
380,92,63575,1,2,0:0:0:0:
384,180,63811,2,0,P|352:212|304:224,1,90,8|2,0:0|0:0,0:0:0:0:
256,296,64283,6,0,L|256:120,1,135,4|0,0:0|0:0,0:0:0:0:
256,161,64756,1,8,0:0:0:0:
336,176,64991,1,2,0:0:0:0:
176,232,65228,1,2,0:0:0:0:
336,256,65464,1,2,0:0:0:0:
176,312,65701,1,8,0:0:0:0:
336,336,65937,1,2,0:0:0:0:
256,296,66173,6,0,P|200:240|136:232,1,135,4|0,0:0|0:0,0:0:0:0:
104,232,66645,1,8,0:0:0:0:
84,144,66882,1,2,0:0:0:0:
156,196,67118,2,0,P|212:140|220:76,1,135,4|0,0:0|0:0,0:0:0:0:
220,44,67590,1,8,0:0:0:0:
308,24,67827,1,2,0:0:0:0:
256,96,68063,6,0,P|312:152|376:160,1,135,4|0,0:0|0:0,0:0:0:0:
408,160,68535,1,8,0:0:0:0:
428,248,68772,1,2,0:0:0:0:
356,196,69008,2,0,P|300:252|288:316,2,135,2|2|2,0:0|0:0|0:0,0:0:0:0:
356,196,69953,6,0,P|300:140|236:132,1,135,4|0,0:0|0:0,0:0:0:0:
204,132,70425,1,8,0:0:0:0:
184,44,70660,1,2,0:0:0:0:
204,132,70898,6,0,P|148:188|140:252,1,135,4|0,0:0|0:0,0:0:0:0:
140,284,71370,1,8,0:0:0:0:
56,320,71606,1,2,0:0:0:0:
60,232,71842,5,4,0:0:0:0:
20,52,72315,2,0,L|112:52,1,90,8|2,0:0|0:0,0:0:0:0:
200,32,72787,1,8,0:0:0:0:
136,152,73142,1,8,0:0:0:0:
184,296,73496,2,0,P|208:332|256:352,1,90,6|0,0:0|0:0,0:0:0:0:
264,264,73968,2,0,L|312:264,1,45,8|0,0:0|0:0,0:0:0:0:
312,308,74205,2,0,L|368:308,1,45,8|0,0:0|0:0,0:0:0:0:
400,304,74441,1,8,0:0:0:0:
420,264,74559,1,2,0:0:0:0:
420,220,74677,1,8,0:0:0:0:
496,176,74913,2,0,P|508:216|492:272,1,90,8|2,0:0|0:0,0:0:0:0:
420,220,75386,1,10,0:0:0:0:
256,192,75504,12,4,77512,0:0:0:0:
60,176,79401,6,0,B|4:132|4:132|4:44,2,135,12|8|8,0:0|0:0|0:0,0:0:0:0:
136,220,80346,2,0,P|180:236|224:216,1,90,2|2,0:0|0:0,0:0:0:0:
288,164,80819,2,0,P|332:148|376:168,1,90,2|10,0:0|0:0,0:0:0:0:
408,188,81173,1,8,0:0:0:0:
444,216,81291,6,0,B|500:260|500:260|500:348,2,135,12|8|8,0:0|0:0|0:0,0:0:0:0:
376,272,82236,2,0,P|350:308|304:322,1,90,2|0,0:0|0:0,0:0:0:0:
220,296,82709,2,0,P|172:280|124:300,1,90,2|8,0:0|0:0,0:0:0:0:
56,332,83181,6,0,B|4:292|4:292|48:204,1,135,12|8,0:0|0:0,0:0:0:0:
56,188,83653,1,8,0:0:0:0:
84,100,83890,2,0,P|64:56|12:32,2,90,8|2|0,0:0|0:0|0:0,0:0:0:0:
168,64,84598,2,0,P|208:68|256:124,1,90,2|0,0:0|0:0,0:0:0:0:
164,140,85071,6,0,P|192:64|260:28,1,135,12|8,0:0|0:0,0:0:0:0:
280,32,85543,1,8,0:0:0:0:
256,120,85780,2,0,P|300:132|356:96,1,90,8|2,0:0|0:0,0:0:0:0:
416,68,86251,1,2,0:0:0:0:
484,124,86488,1,2,0:0:0:0:
412,180,86724,1,2,0:0:0:0:
352,248,86961,6,0,P|416:272|488:232,2,135,12|8|8,0:0|0:0|0:0,0:0:0:0:
308,168,87906,2,0,P|264:144|212:176,1,90,2|0,0:0|0:0,0:0:0:0:
148,192,88378,2,0,P|140:140|160:96,1,90,2|10,0:0|0:0,0:0:0:0:
180,68,88732,1,8,0:0:0:0:
220,48,88850,6,0,P|280:20|344:44,2,135,12|8|8,0:0|0:0|0:0,0:0:0:0:
284,108,89795,2,0,P|304:160|260:200,1,90,2|0,0:0|0:0,0:0:0:0:
264,224,90149,1,2,0:0:0:0:
236,260,90268,2,0,P|228:304|244:348,1,90,2|8,0:0|0:0,0:0:0:0:
320,296,90740,6,0,P|324:232|256:184,1,135,12|8,0:0|0:0,0:0:0:0:
232,180,91212,1,8,0:0:0:0:
152,220,91449,2,0,P|124:252|43:245,2,90,8|2|0,0:0|0:0|0:0,0:0:0:0:
156,132,92157,2,0,P|188:100|244:92,1,90,2|8,0:0|0:0,0:0:0:0:
232,180,92630,6,0,P|204:244|112:248,1,135,12|8,0:0|0:0,0:0:0:0:
100,252,93102,1,8,0:0:0:0:
64,172,93338,1,8,0:0:0:0:
92,88,93575,1,10,0:0:0:0:
124,68,93693,2,0,P|180:44|228:40,1,90,8|0,0:0|0:0,0:0:0:0:
252,40,94047,2,0,B|320:40|320:40|360:76,1,90,10|8,0:0|0:0,0:0:0:0:
336,100,94401,1,8,0:0:0:0:
336,144,94520,6,0,L|336:280,2,135,12|8|8,0:0|0:0|0:0,0:0:0:0:
248,144,95464,2,0,P|304:152|336:144,1,90,2|0,0:0|0:0,0:0:0:0:
404,88,95937,2,0,P|460:80|492:88,1,90,2|8,0:0|0:0,0:0:0:0:
460,172,96409,6,0,P|432:228|436:304,2,135,12|8|8,0:0|0:0|0:0,0:0:0:0:
372,192,97354,2,0,L|304:284,1,90,2|0,0:0|0:0,0:0:0:0:
228,264,97827,2,0,L|148:172,1,90,2|8,0:0|0:0,0:0:0:0:
140,264,98299,6,0,P|202:241|244:184,1,135,12|8,0:0|0:0,0:0:0:0:
248,144,98772,1,8,0:0:0:0:
228,56,99008,2,0,P|184:32|128:32,1,90,8|2,0:0|0:0,0:0:0:0:
56,48,99480,1,2,0:0:0:0:
24,132,99716,2,0,P|16:172|24:228,1,90,2|8,0:0|0:0,0:0:0:0:
84,288,100189,6,0,P|132:334|195:357,1,135,12|8,0:0|0:0,0:0:0:0:
240,356,100661,1,8,0:0:0:0:
288,280,100898,2,2,P|324:244|380:240,1,90,8|2,0:0|0:0,0:0:0:0:
408,312,101370,1,2,0:0:0:0:
456,236,101606,2,0,P|460:168|456:96,1,135,10|0,0:0|0:0,0:0:0:0:
408,84,102079,6,0,L|272:84,2,135,12|8|8,0:0|0:0|0:0,0:0:0:0:
364,164,103024,2,0,L|268:164,1,90,2|0,0:0|0:0,0:0:0:0:
274,253,103496,1,8,0:0:0:0:
274,253,103614,2,0,L|182:253,1,90,2|0,0:0|0:0,0:0:0:0:
184,296,103968,6,0,P|229:332|320:332,2,135,12|8|8,0:0|0:0|0:0,0:0:0:0:
112,244,104913,2,0,P|79:196|80:156,1,90,2|0,0:0|0:0,0:0:0:0:
68,76,105386,2,0,P|112:81|146:109,1,90,2|8,0:0|0:0,0:0:0:0:
204,176,105858,6,0,P|252:222|315:245,1,135,12|8,0:0|0:0,0:0:0:0:
360,240,106331,1,8,0:0:0:0:
412,168,106567,2,0,P|448:128|496:124,1,90,8|2,0:0|0:0,0:0:0:0:
488,212,107039,1,2,0:0:0:0:
412,256,107275,2,0,P|360:240|328:192,1,90,2|8,0:0|0:0,0:0:0:0:
276,148,107748,6,0,L|276:240,1,90,12|0,0:0|0:0,0:0:0:0:
220,192,108102,2,0,L|220:284,1,90,8|0,0:0|0:0,0:0:0:0:
164,236,108457,2,0,L|164:328,1,90,8|8,0:0|0:0,0:0:0:0:
124,348,108811,1,8,0:0:0:0:
80,348,108929,1,0,0:0:0:0:
84,260,109165,1,8,0:0:0:0:
84,260,109283,2,0,P|134:231|187:250,1,90,8|0,0:0|0:0,0:0:0:0:
188,272,109638,6,0,L|344:272,2,135,12|8|8,0:0|0:0|0:0,0:0:0:0:
96,272,110583,2,0,P|48:248|24:216,1,90,2|0,0:0|0:0,0:0:0:0:
24,132,111055,2,0,P|52:92|88:72,1,90,2|10,0:0|0:0,0:0:0:0:
136,72,111409,1,8,0:0:0:0:
180,72,111527,6,0,L|348:72,2,135,12|8|8,0:0|0:0|0:0,0:0:0:0:
132,148,112471,2,0,P|160:184|232:188,1,90,2|0,0:0|0:0,0:0:0:0:
288,176,112945,2,0,P|332:208|352:268,1,90,2|8,0:0|0:0,0:0:0:0:
304,296,113417,6,0,P|376:240|452:236,1,135,12|8,0:0|0:0,0:0:0:0:
444,196,113890,1,8,0:0:0:0:
472,108,114126,2,0,P|472:56|432:16,1,90,8|2,0:0|0:0,0:0:0:0:
360,24,114598,1,2,0:0:0:0:
312,100,114835,2,0,L|312:196,1,90,2|8,0:0|0:0,0:0:0:0:
380,132,115307,6,0,P|316:144|236:132,1,135,12|8,0:0|0:0,0:0:0:0:
204,120,115779,1,8,0:0:0:0:
144,188,116016,2,0,P|108:224|52:228,1,90,8|2,0:0|0:0,0:0:0:0:
59,123,116488,1,2,0:0:0:0:
59,123,116724,2,0,B|103:111|103:111|111:171|171:207,1,135,10|0,0:0|0:0,0:0:0:0:
145,188,117197,6,0,P|209:196|305:180,2,135,12|8|8,0:0|0:0|0:0,0:0:0:0:
80,248,118142,2,0,L|160:320,1,90,2|0,0:0|0:0,0:0:0:0:
220,312,118613,2,0,L|352:308,1,90,2|10,0:0|0:0,0:0:0:0:
352,292,118968,1,8,0:0:0:0:
384,260,119087,6,0,P|432:204|448:132,2,135,12|8|8,0:0|0:0|0:0,0:0:0:0:
316,320,120032,2,0,L|224:320,1,90,2|0,0:0|0:0,0:0:0:0:
168,256,120503,2,0,P|148:232|156:152,1,90,2|8,0:0|0:0,0:0:0:0:
192,100,120976,6,0,P|112:92|60:152,1,135,12|8,0:0|0:0,0:0:0:0:
56,168,121449,1,8,0:0:0:0:
144,176,121685,2,0,P|124:224|84:252,1,90,8|2,0:0|0:0,0:0:0:0:
16,292,122157,1,2,0:0:0:0:
92,336,122394,2,0,P|132:336|204:368,1,90,2|8,0:0|0:0,0:0:0:0:
268,340,122866,6,0,P|284:272|336:240,1,135,12|8,0:0|0:0,0:0:0:0:
380,232,123338,1,8,0:0:0:0:
428,156,123575,2,0,P|464:196|468:248,1,90,8|2,0:0|0:0,0:0:0:0:
460,276,123929,1,8,0:0:0:0:
432,312,124047,2,0,P|384:324|316:308,2,90,8|2|8,0:0|0:0|0:0,0:0:0:0:
460,276,124638,1,8,0:0:0:0:
472,232,124756,6,0,B|488:165|465:119|465:119|422:131,2,135,12|8|8,0:0|0:0|0:0,0:0:0:0:
384,248,125701,2,0,L|308:332,1,90,2|0,0:0|0:0,0:0:0:0:
232,312,126173,2,0,L|172:246,1,90,2|10,0:0|0:0,0:0:0:0:
140,212,126527,1,8,0:0:0:0:
112,176,126646,6,0,P|128:108|180:76,1,135,12|8,0:0|0:0,0:0:0:0:
208,112,127118,1,8,0:0:0:0:
252,192,127354,2,0,P|296:172|340:124,1,90,8|2,0:0|0:0,0:0:0:0:
400,196,127827,1,2,0:0:0:0:
468,252,128063,2,0,L|520:216,2,45,8|0|8,0:0|0:0|0:0,0:0:0:0:
380,276,128535,6,0,P|432:336|488:340,2,135,12|8|8,0:0|0:0|0:0,0:0:0:0:
316,340,129480,2,0,L|204:340,1,90,2|0,0:0|0:0,0:0:0:0:
266,264,129953,2,0,L|176:264,1,90,2|8,0:0|0:0,0:0:0:0:
224,184,130425,6,0,L|388:184,2,135,12|8|8,0:0|0:0|0:0,0:0:0:0:
172,108,131370,2,0,L|284:108,1,90,2|0,0:0|0:0,0:0:0:0:
220,28,131843,2,0,L|104:28,1,90,2|10,0:0|0:0,0:0:0:0:
88,48,132197,1,8,0:0:0:0:
56,80,132315,6,0,P|36:148|64:216,1,135,12|8,0:0|0:0,0:0:0:0:
84,232,132787,1,8,0:0:0:0:
80,320,133024,2,0,P|128:312|160:276,1,90,8|2,0:0|0:0,0:0:0:0:
160,192,133496,1,8,0:0:0:0:
240,148,133732,2,0,P|276:180|320:184,1,90,2|10,0:0|0:0,0:0:0:0:
316,140,134087,1,8,0:0:0:0:
316,96,134205,6,0,L|480:92,1,135,12|8,0:0|0:0,0:0:0:0:
476,132,134677,1,8,0:0:0:0:
412,196,134913,2,0,P|368:184|320:204,1,90,8|2,0:0|0:0,0:0:0:0:
372,264,135386,1,2,0:0:0:0:
332,332,135622,2,0,P|376:344|424:324,1,90,2|8,0:0|0:0,0:0:0:0:
372,264,136094,6,0,P|288:268|256:316,2,135,12|8|8,0:0|0:0|0:0,0:0:0:0:
452,236,137039,2,0,P|428:200|384:180,1,90,2|0,0:0|0:0,0:0:0:0:
308,136,137512,2,0,P|336:104|384:92,1,90,2|8,0:0|0:0,0:0:0:0:
388,180,137984,6,0,P|360:212|312:224,1,90,12|0,0:0|0:0,0:0:0:0:
272,228,138339,2,0,P|229:239|200:272,1,90,8|0,0:0|0:0,0:0:0:0:
188,316,138693,1,8,0:0:0:0:
112,360,138929,2,0,P|74:324|59:265,1,90,10|0,0:0|0:0,2:0:0:0:
52,264,139283,1,0,2:0:0:0:
48,236,139401,1,2,2:0:0:0:
60,148,139638,1,8,0:0:0:0:
108,72,139874,1,4,0:0:0:0:
