osu file format v14

[General]
AudioFilename: yu.mp3
AudioLeadIn: 0
PreviewTime: 44516
Countdown: 1
SampleSet: Normal
StackLeniency: 0.7
Mode: 0
LetterboxInBreaks: 1
WidescreenStoryboard: 1

[Editor]
DistanceSpacing: 1.2
BeatDivisor: 4
GridSize: 4
TimelineZoom: 1.1

[Metadata]
Title:Osakana Tengoku
TitleUnicode:おさかな天国
Artist:Shibaya Yumi
ArtistUnicode:柴矢裕美
Creator:Naryuga
Version:Hard
Source:リッキーマリンのおさかな天国お魚パワーだ!全開だ!
Tags:Fish Heaven ゆ ゅ
BeatmapID:667168
BeatmapSetID:297181

[Difficulty]
HPDrainRate:5
CircleSize:4
OverallDifficulty:6
ApproachRate:7
SliderMultiplier:1.6
SliderTickRate:2

[Events]
//Background and Video events
0,0,"yu.png",0,0
//Break Periods
//Storyboard Layer 0 (Background)
//Storyboard Layer 1 (Fail)
//Storyboard Layer 2 (Pass)
//Storyboard Layer 3 (Foreground)
//Storyboard Sound Samples

[TimingPoints]
256,425.583226346439,4,1,0,70,1,0
44516,-100,4,1,0,77,0,1
71753,-100,4,1,0,77,0,0

[HitObjects]
100,60,7065,6,0,L|160:112,1,80,4|0,0:0|0:0,0:0:0:0:
156,208,7490,2,0,L|216:260,1,80,8|0,0:0|0:3,0:0:0:0:
296,316,7916,1,0,0:3:0:0:
296,316,8128,1,2,0:3:0:0:
308,220,8341,1,8,0:0:0:0:
308,220,8554,1,8,0:3:0:0:
320,124,8767,6,0,P|372:96|464:124,1,160,4|8,0:3|0:0,0:0:0:0:
308,220,9405,2,0,P|256:248|164:220,1,160,4|2,0:3|0:3,0:0:0:0:
192,92,10044,2,0,P|220:119|236:156,1,80,8|0,0:0|0:0,0:0:0:0:
164,220,10469,6,0,L|96:264,1,80
16,208,10895,2,0,L|84:164,1,80,8|0,0:0|0:0,0:0:0:0:
100,68,11321,1,0,0:0:0:0:
100,68,11533,1,2,0:3:0:0:
192,92,11746,1,8,0:0:0:0:
232,180,11959,1,8,0:3:0:0:
204,272,12172,5,4,0:3:0:0:
116,188,12385,1,6,0:0:0:0:
328,76,12810,2,0,B|396:40|396:40|384:132|440:192,1,240,2|8,0:0|0:0,0:0:0:0:
416,284,13661,1,2,0:3:0:0:
412,300,13768,1,8,0:3:0:0:
408,316,13874,6,0,P|372:340|336:352,1,80,4|0,0:0|0:0,0:0:0:0:
260,296,14300,2,0,P|224:272|188:260,1,80,8|2,0:0|0:2,0:0:0:0:
96,288,14725,2,0,P|96:232|108:208,1,80,8|8,0:3|0:3,0:0:0:0:
201,91,15151,2,0,P|205:130|192:168,1,80,8|2,0:0|0:3,0:0:0:0:
112,124,15576,5,8,0:3:0:0:
132,28,15789,1,0,0:0:0:0:
224,0,16002,1,8,0:0:0:0:
292,76,16215,1,2,0:2:0:0:
260,168,16428,2,0,P|264:232|312:312,1,160,8|8,0:3|0:0,0:0:0:0:
492,248,17279,6,0,P|488:184|440:104,1,160,8|8,0:3|0:0,0:0:0:0:
352,64,17917,1,2,0:2:0:0:
268,108,18130,2,0,P|232:104|184:88,1,80,8|8,0:3|0:3,0:0:0:0:
124,160,18556,2,0,P|138:193|148:242,1,80,8|2,0:0|0:3,0:0:0:0:
144,332,18981,5,8,0:3:0:0:
236,312,19194,1,0,0:0:0:0:
260,220,19407,1,8,0:0:0:0:
352,200,19620,1,2,0:2:0:0:
412,276,19832,2,0,L|332:292,2,80,8|2|8,0:3|0:2|0:1,0:0:0:0:
476,96,20683,6,0,L|396:80,1,80,8|0,0:3|0:3,0:0:0:0:
312,128,21109,1,8,0:0:0:0:
228,80,21322,2,0,L|148:64,1,80,2|8,0:2|0:3,0:0:0:0:
64,112,21747,2,0,P|39:79|24:40,2,80,8|8|2,0:3|0:0|0:3,0:0:0:0:
64,208,22386,6,0,P|40:240|24:280,2,80,8|0|8,0:3|0:0|0:0,0:0:0:0:
148,160,23024,1,2,0:2:0:0:
232,208,23237,2,0,P|216:280|168:356,1,160,8|8,0:3|0:0,0:0:0:0:
148,236,23875,5,0,0:0:0:0:
300,284,24088,2,0,L|376:308,1,80,8|0,0:3|0:0,0:0:0:0:
444,240,24514,2,0,L|368:216,1,80,8|2,0:0|0:3,0:0:0:0:
352,120,24939,2,0,L|428:144,2,80,8|8|8,0:3|0:3|0:0,0:0:0:0:
212,284,25790,6,0,L|136:308,1,80,8|0,0:3|0:0,0:0:0:0:
68,240,26216,2,0,L|144:216,1,80,8|2,0:0|0:3,0:0:0:0:
160,120,26641,2,0,L|84:144,2,80,8|8|8,0:3|0:3|0:0,0:0:0:0:
208,36,27280,1,0,0:0:0:0:
304,36,27493,6,0,P|320:112|304:192,1,160,4|8,0:0|0:0,0:0:0:0:
408,156,28131,1,2,0:3:0:0:
408,156,28344,2,0,P|400:208|384:236,1,80,8|8,0:3|0:3,0:3:0:0:
304,284,28770,1,8,0:0:0:0:
220,240,28982,6,0,B|184:224|144:236|144:236|144:184|100:164,1,160,2|2,0:0|1:3,0:0:0:0:
48,244,29621,2,0,P|16:280|4:308,1,80,10|8,0:3|0:3,0:3:0:0:
176,328,30046,2,0,P|223:337|253:334,1,80,10|8,0:3|0:3,0:3:0:0:
204,152,30472,2,0,P|188:106|170:81,1,80,14|12,0:3|0:3,0:3:0:0:
240,16,30897,5,4,0:0:0:0:
240,16,31110,2,0,B|272:16|272:16|284:24|284:24|320:24,1,80,0|8,0:3|0:0,0:0:0:0:
408,56,31536,1,8,0:3:0:0:
472,128,31749,2,0,L|456:208,1,80,2|8,0:3|0:3,0:0:0:0:
364,236,32174,2,0,L|380:316,1,80,8|2,0:1|0:3,0:0:0:0:
292,272,32600,2,0,B|272:216|312:176|312:176|300:120,1,160,8|8,0:3|0:0,0:0:0:0:
216,81,33238,2,0,L|232:160,1,80,0|2,0:1|0:3,0:0:0:0:
124,172,33664,5,8,0:3:0:0:
220,180,33877,1,4,0:3:0:0:
112,192,34089,1,8,0:3:0:0:
196,264,34302,5,8,0:3:0:0:
232,160,34515,2,0,L|310:175,1,80,2|8,0:3|0:0,0:0:0:0:
380,240,34941,1,8,0:3:0:0:
444,172,35153,2,0,P|464:136|468:96,1,80,8|8,0:3|0:3,0:0:0:0:
400,32,35579,2,0,P|380:68|376:108,1,80,8|2,0:0|0:3,0:0:0:0:
444,172,36004,2,0,P|471:244|432:312,2,160,8|8|2,0:3|0:0|0:2,0:0:0:0:
304,240,37068,5,8,0:3:0:0:
416,312,37281,1,4,0:3:0:0:
416,172,37494,1,8,0:3:0:0:
384,240,37707,5,4,0:0:0:0:
304,240,37920,2,0,P|264:244|228:264,1,80,0|8,0:3|0:0,0:0:0:0:
172,340,38345,1,0,0:0:0:0:
108,268,38558,1,2,0:3:0:0:
108,172,38771,1,8,0:3:0:0:
204,176,38984,2,0,P|244:172|280:152,1,80,8|2,0:0|0:3,0:0:0:0:
356,92,39409,6,0,B|428:68|468:108|468:108|448:144,1,160,8|8,0:3|0:0,0:0:0:0:
448,240,40048,2,0,B|468:276|468:276|428:316|356:292,1,160,2|8,0:3|0:3,0:0:0:0:
284,192,40686,1,8,0:0:0:0:
380,192,40899,1,0,0:0:0:0:
356,91,41111,6,0,L|280:72,1,80,2|0,0:3|3:3,0:0:0:0:
204,192,41537,1,10,0:3:0:0:
204,192,41750,2,0,L|284:192,1,80,10|0,0:3|3:3,0:3:0:0:
356,292,42175,1,6,0:3:0:0:
356,292,42388,2,0,L|280:312,2,80,6|0|0,0:3|1:3|1:3,0:3:0:0:
380,192,43027,5,2,0:0:0:0:
132,192,43452,1,2,0:0:0:0:
472,192,43878,1,2,0:0:0:0:
412,268,44091,1,2,0:0:0:0:
412,116,44303,1,2,0:0:0:0:
320,92,44516,6,0,P|260:88|232:92,1,80,4|0,0:0|0:0,0:0:0:0:
200,176,44942,1,8,0:0:0:0:
156,92,45155,2,0,P|96:88|68:92,1,80,8|0,0:3|0:0,0:0:0:0:
36,176,45580,1,8,0:3:0:0:
80,260,45793,2,0,P|140:264|168:260,1,80,8|0,0:0|0:0,0:0:0:0:
256,244,46218,6,0,P|232:324|168:356,1,160,12|10,0:3|0:1,0:0:0:0:
36,176,47070,1,10,0:3:0:0:
36,176,47282,1,2,0:0:0:0:
52,80,47495,2,0,P|92:96|120:124,1,80,8|8,0:0|0:3,0:0:0:0:
152,212,47921,6,0,B|168:248|168:248|224:212|284:244,2,160,4|8|8,0:3|0:0|0:3,0:0:0:0:
224,148,48985,2,0,P|272:152|308:164,2,80,8|8|0,0:3|0:0|0:0,0:0:0:0:
152,212,49623,2,0,P|104:208|68:196,1,80,4|0,0:3|0:0,0:0:0:0:
36,108,50049,1,2,0:0:0:0:
256,12,50474,1,2,0:0:0:0:
476,108,50900,1,2,0:0:0:0:
256,204,51325,6,0,P|224:232|208:268,1,80,6|0,0:0|0:0,0:0:0:0:
304,288,51751,1,8,0:0:0:0:
352,372,51964,2,0,P|384:344|400:308,1,80,8|0,0:3|0:0,0:0:0:0:
360,220,52390,1,8,0:3:0:0:
444,172,52602,2,0,P|418:141|382:124,1,80,8|0,0:0|0:0,0:0:0:0:
288,112,53028,6,0,P|208:104|140:64,1,160,2|8,0:0|0:0,0:0:0:0:
60,240,53879,2,0,L|24:316,1,80,10|8,0:3|0:3,0:0:0:0:
116,348,54305,2,0,L|152:272,1,80,8|0,0:0|0:0,0:0:0:0:
192,188,54730,6,0,P|224:208|244:248,1,80,4|0,0:3|0:0,0:0:0:0:
224,340,55156,2,0,B|208:376|208:376|272:360|328:376,1,160,8|8,0:0|0:3,0:0:0:0:
360,284,55794,1,8,0:3:0:0:
456,284,56007,1,8,0:0:0:0:
488,192,56220,1,0,0:0:0:0:
456,100,56432,5,10,0:3:0:0:
256,192,56858,1,10,0:3:0:0:
256,192,57071,1,10,0:3:0:0:
48,44,57496,1,10,0:3:0:0:
144,60,57709,1,8,0:3:0:0:
160,156,57922,1,4,0:3:0:0:
96,228,58135,6,0,P|76:264|68:304,2,80,4|0|10,0:0|0:0|0:0,0:0:0:0:
160,300,58773,2,0,L|160:380,2,80,0|8|2,0:0|0:3|0:0,0:0:0:0:
224,228,59412,2,0,P|244:264|252:304,1,80,8|0,0:0|0:3,0:0:0:0:
343,329,59837,6,0,P|435:288|464:239,1,160,2|8,0:0|0:0,0:0:0:0:
416,52,60688,2,0,P|376:48|336:52,1,80,10|2,0:3|0:0,0:0:0:0:
256,104,61114,2,0,P|216:108|176:104,1,80,8|8,0:0|0:3,0:0:0:0:
88,144,61539,6,0,B|47:192|112:245|68:295,2,160,4|8|8,0:3|0:0|0:3,0:0:0:0:
172,188,62603,2,0,P|212:184|252:188,1,80,8|8,0:3|0:1,0:0:0:0:
336,232,63029,1,0,0:0:0:0:
396,312,63242,5,4,0:3:0:0:
396,312,63455,1,0,0:0:0:0:
432,224,63667,2,0,P|444:180|448:144,1,80,2|0,0:0|0:0,0:0:0:0:
356,44,64093,2,0,P|316:40|276:44,1,80,2|8,0:0|0:3,0:0:0:0:
184,144,64519,2,0,P|188:183|199:222,1,80,2|8,0:0|0:3,0:0:0:0:
128,284,64944,6,0,P|116:328|112:364,2,80,6|0|8,0:0|0:0|0:0,0:0:0:0:
52,224,65583,1,8,0:3:0:0:
32,132,65795,1,0,0:0:0:0:
68,44,66008,1,8,0:3:0:0:
160,16,66221,2,0,P|208:16|244:24,1,80,8|0,0:0|0:0,0:0:0:0:
320,72,66646,6,0,P|360:92|472:72,1,160,2|8,0:0|0:0,0:0:0:0:
296,160,67498,2,0,L|276:244,1,80,10|8,0:3|0:3,0:0:0:0:
372,240,67923,2,0,L|352:324,1,80,8|0,0:0|0:3,0:0:0:0:
256,320,68349,6,0,B|188:320|188:320|172:304|172:304|100:304,2,160,4|8|8,0:3|0:0|0:3,0:0:0:0:
224,228,69413,2,0,L|304:228,1,80,8|8,0:3|0:0,0:0:0:0:
392,192,69838,1,0,0:0:0:0:
432,104,70051,2,0,P|384:56|296:72,1,160,6|12,0:3|0:0,0:0:0:0:
80,104,70902,2,0,P|128:56|216:72,1,160,10|8,0:3|0:0,0:0:0:0:
256,156,71541,1,0,0:0:0:0:
160,136,71753,6,0,B|145:180|92:192|92:192|92:260,1,160,4|8,0:0|0:0,0:0:0:0:
144,340,72392,1,0,0:0:0:0:
172,248,72605,1,8,0:3:0:0:
224,328,72817,1,8,0:3:0:0:
252,236,73030,6,0,P|288:220|328:224,1,80,8|0,0:0|0:0,0:0:0:0:
392,296,73456,2,0,P|420:252|392:152,1,160,4|8,0:3|0:0,0:0:0:0:
328,84,74094,2,0,P|284:56|184:84,1,160,0|10,0:3|0:3,0:0:0:0:
136,164,74733,1,8,0:0:0:0:
92,248,74945,1,8,0:3:0:0:
48,332,75158,6,0,P|112:340|128:336,1,80,4|0,0:3|0:0,0:0:0:0:
184,260,75584,2,0,P|224:268|260:292,1,80,8|2,0:0|0:3,0:0:0:0:
324,356,76009,1,8,0:3:0:0:
416,332,76222,1,8,0:3:0:0:
468,252,76435,2,0,P|480:212|468:176,1,80,8|0,0:1|0:0,0:3:0:0:
380,216,76860,6,0,B|364:176|380:140|380:140|324:80,1,160,4|8,0:3|0:0,0:0:0:0:
256,12,77499,1,0,0:0:0:0:
188,80,77712,2,0,B|132:140|132:140|148:176|132:216,1,160,10|8,0:3|0:0,0:0:0:0:
284,336,78563,5,4,0:0:0:0:
376,311,78776,1,0,0:0:0:0:
351,218,78988,1,8,0:0:0:0:
259,243,79201,1,8,0:3:0:0:
188,308,79414,2,0,P|148:320|108:320,1,80,4|8,0:3|0:3,0:0:0:0:
132,192,79840,2,0,P|88:176|64:152,1,80,8|0,0:0|0:0,0:0:0:0:
160,68,80265,6,0,P|240:36|312:40,1,160,4|8,0:3|0:0,0:0:0:0:
404,72,80904,1,0,0:0:0:0:
480,132,81116,1,4,0:3:0:0:
392,192,81329,1,2,0:3:0:0:
480,252,81542,1,8,0:0:0:0:
404,312,81755,2,0,L|372:312,3,26.6666666666667,8|8|8|4,0:3|0:3|0:3|0:0,0:0:0:0:
184,312,82393,5,4,0:3:0:0:
160,236,82819,1,4,0:3:0:0:
136,160,83244,1,4,0:3:0:0:
184,312,83457,6,0,L|348:312,1,160,10|2,0:3|0:3,0:0:0:0:
400,236,84095,1,10,0:3:0:0:
416,332,84308,1,8,0:3:0:0:
332,200,84521,2,0,L|252:200,1,80,8|4,0:0|0:3,0:0:0:0:
204,116,84947,1,10,0:0:0:0:
64,312,85372,1,4,0:0:0:0:
