osu file format v12

[General]
AudioFilename: Bilibili Douga - Shi Pin Bu He Xie.mp3
AudioLeadIn: 0
PreviewTime: 47405
Countdown: 0
SampleSet: Soft
StackLeniency: 0.7
Mode: 0
LetterboxInBreaks: 0

[Editor]
DistanceSpacing: 1
BeatDivisor: 4
GridSize: 8

[Metadata]
Title:Shi Pin Bu He Xie
TitleUnicode:视频不和谐
Artist:Shi Kong You Ke
ArtistUnicode:时空游客
Creator:buhei
Version:Hard
Source:Bilibili Douga
Tags:33娘 啪啪啪 初演唱 哔哩哔哩 Lady Gaga ft. Beyonce Telephone
BeatmapID:190195
BeatmapSetID:64712

[Difficulty]
HPDrainRate:6
CircleSize:4
OverallDifficulty:6
ApproachRate:7
SliderMultiplier:1.8
SliderTickRate:1

[Events]
//Background and Video events
0,0,"BG.jpg",0,0
//Break Periods
//Storyboard Layer 0 (Background)
//Storyboard Layer 1 (Fail)
//Storyboard Layer 2 (Pass)
//Storyboard Layer 3 (Foreground)
//Storyboard Sound Samples
//Background Colour Transformations
3,100,163,162,255

[TimingPoints]
8061,491.803278688525,4,2,1,20,1,0
23798,-100,4,2,1,50,0,0
31667,-100,4,2,1,40,0,0
47405,-100,4,2,1,60,0,1
63142,-100,4,2,1,50,0,0
78880,-100,4,2,1,35,0,0
92651,-100,4,2,1,40,0,0
93634,-142.857142857143,4,2,1,40,0,0
94618,-100,4,2,1,20,0,0

[Colours]
Combo1 : 255,157,111
Combo2 : 128,255,255
Combo3 : 255,128,191
Combo4 : 255,255,255

[HitObjects]
136,80,8060,2,0,P|120:128|128:168,1,90,4|0,0:0|0:0,0:0:0:0:
200,216,8552,2,0,P|216:168|208:128,1,90
216,40,9044,2,0,P|264:56|312:48,1,90
384,16,9536,2,0,P|408:64|400:104,1,90
376,184,10028,5,2,0:0:0:0:
464,208,10274,1,0,0:0:0:0:
440,296,10520,1,0,0:0:0:0:
352,272,10765,1,0,0:0:0:0:
264,304,11011,2,0,P|176:320|88:304,1,180
88,120,11995,6,0,P|80:72|88:32,1,90,2|0,0:0|0:0,0:0:0:0:
168,72,12487,2,0,P|216:88|264:88,1,90
344,72,12979,1,0,0:0:0:0:
432,96,13224,1,0,0:0:0:0:
408,8,13470,1,0,0:0:0:0:
344,72,13716,1,0,0:0:0:0:
368,160,13962,6,0,P|408:184|464:176,1,90,2|0,0:0|0:0,0:0:0:0:
448,272,14454,2,0,B|432:296|424:328|424:328|368:360|312:328,2,180
208,256,15929,6,0,P|168:280|120:280,1,90,4|0,0:0|0:0,0:0:0:0:
56,224,16421,2,0,L|48:192,4,22.5
136,184,16913,2,0,P|128:136|136:96,1,90
216,144,17405,2,0,P|256:120|304:112,1,90
288,200,17897,6,0,P|328:216|368:256,1,90,2|0,0:0|0:0,0:0:0:0:
400,328,18388,2,0,P|432:304|464:256,1,90
488,176,18880,2,0,B|496:128|496:128|464:56|400:48,1,180
224,72,19864,6,0,L|136:96,1,90,2|0,0:0|0:0,0:0:0:0:
120,184,20356,2,0,L|208:160,1,90
288,128,20847,1,0,0:0:0:0:
368,160,21093,1,0,0:0:0:0:
400,240,21339,1,0,0:0:0:0:
368,320,21585,1,0,0:0:0:0:
288,352,21831,6,0,P|248:336|216:296,1,90,2|0,0:0|0:0,0:0:0:0:
248,216,22323,2,0,B|216:296|136:304|136:304|104:288,2,180,0|2|8,0:0|0:0|0:0,0:0:0:0:
264,128,23552,1,0,0:0:0:0:
352,152,23798,6,0,L|440:176,2,90,4|0|8,0:0|0:0|0:0,0:0:0:0:
352,152,24782,1,0,0:0:0:0:
288,32,25028,1,8,0:0:0:0:
176,104,25274,1,8,0:0:0:0:
136,184,25520,1,2,0:0:0:0:
136,184,25642,1,0,0:0:0:0:
136,184,25765,6,0,L|144:280,2,90,2|0|8,0:0|0:0|0:0,0:0:0:0:
136,184,26749,1,0,0:0:0:0:
248,96,26995,1,8,0:0:0:0:
256,240,27241,1,8,0:0:0:0:
344,280,27487,1,0,0:0:0:0:
440,272,27733,6,0,P|472:240|480:192,1,90,4|0,0:0|0:0,0:0:0:0:
416,136,28224,2,0,P|384:104|376:56,1,90,8|0,0:0|0:0,0:0:0:0:
464,64,28716,1,0,0:0:0:0:
288,56,28962,1,8,0:0:0:0:
288,56,29085,1,0,0:0:0:0:
288,56,29208,2,0,L|192:64,1,90,8|0,0:0|0:0,0:0:0:0:
112,88,29700,6,0,P|80:120|72:168,1,90,2|0,0:0|0:0,0:0:0:0:
96,248,30192,2,0,P|192:232|272:264,1,180,8|0,0:0|0:0,0:0:0:0:
216,336,30929,1,8,0:0:0:0:
352,312,31175,2,0,B|376:296|376:296|416:248|392:192,1,135,4|0,0:0|0:0,0:0:0:0:
384,168,31667,6,0,L|360:120,2,45,4|0|2,0:0|0:0|0:0,0:0:0:0:
320,232,32159,1,8,0:0:0:0:
320,232,32405,1,0,0:0:0:0:
272,160,32651,2,0,P|232:136|184:136,1,90
112,176,33142,1,8,0:0:0:0:
112,176,33388,1,0,0:0:0:0:
56,248,33634,6,0,P|40:296|48:336,1,90,2|0,0:0|0:0,0:0:0:0:
112,176,34126,2,0,P|152:96|128:8,1,180,8|0,0:0|0:0,0:0:0:0:
224,24,34864,2,0,L|320:40,1,90,8|8,0:0|0:0,0:0:0:0:
400,64,35356,1,2,0:0:0:0:
400,64,35479,1,0,0:0:0:0:
400,64,35601,6,0,P|408:112|392:152,1,90,4|0,0:0|0:0,0:0:0:0:
328,216,36093,1,8,0:0:0:0:
328,216,36339,1,0,0:0:0:0:
248,256,36585,2,0,P|272:288|320:304,1,90
400,272,37077,1,8,0:0:0:0:
400,272,37323,1,0,0:0:0:0:
472,216,37569,6,0,P|456:168|464:128,1,90,2|0,0:0|0:0,0:0:0:0:
480,304,38061,2,0,P|408:360|328:320,1,180,8|0,0:0|0:0,0:0:0:0:
272,264,38798,2,0,P|248:304|248:352,2,90,8|8|2,0:0|0:0|0:0,0:0:0:0:
288,256,39413,1,0,0:0:0:0:
304,248,39536,6,0,P|312:200|296:160,1,90,4|0,0:0|0:0,0:0:0:0:
240,88,40028,2,0,L|216:128,3,45,8|0|2|0,0:0|0:0|0:0|0:0,0:0:0:0:
200,144,40520,2,0,P|168:168|120:176,1,90,2|0,0:0|0:0,0:0:0:0:
32,160,41011,1,8,0:0:0:0:
32,160,41257,1,0,0:0:0:0:
16,248,41503,6,0,P|16:296|40:336,1,90,2|0,0:0|0:0,0:0:0:0:
120,368,41995,2,0,P|192:320|288:328,1,180
352,384,42733,1,8,0:0:0:0:
256,240,42979,1,8,0:0:0:0:
336,128,43224,1,2,0:0:0:0:
344,112,43347,1,0,0:0:0:0:
352,96,43470,6,0,L|360:48,2,45,4|0|0,0:0|0:0|0:0,0:0:0:0:
424,152,43962,1,8,0:0:0:0:
424,152,44208,1,0,0:0:0:0:
456,240,44454,2,0,P|464:288|448:328,1,90
328,360,44946,2,0,P|320:312|336:272,1,90,8|0,0:0|0:0,0:0:0:0:
376,192,45438,6,0,P|336:200|288:192,1,90,2|0,0:0|0:0,0:0:0:0:
248,112,45929,2,0,P|176:56|88:64,1,180,8|0,0:0|0:0,0:0:0:0:
16,128,46667,1,8,0:0:0:0:
96,216,46913,2,0,B|120:256|112:312|112:312|144:328,1,135,4|0,0:0|0:0,0:0:0:0:
168,336,47405,6,0,P|256:320|344:336,1,180,4|8,0:0|0:0,0:0:0:0:
400,168,48142,1,0,0:0:0:0:
400,168,48388,2,0,P|312:184|264:176,1,135
240,160,48880,2,0,P|216:120|216:72,1,90,8|0,0:0|0:0,0:0:0:0:
256,0,49372,5,2,0:0:0:0:
136,112,49618,1,2,0:0:0:0:
120,128,49741,1,0,0:0:0:0:
104,144,49864,2,0,L|88:232,1,90,8|0,0:0|0:0,0:0:0:0:
160,336,50356,2,0,L|176:248,1,90,0|8,0:0|0:0,0:0:0:0:
240,160,50847,1,8,0:0:0:0:
312,240,51093,2,0,P|392:280|480:264,1,180,4|0,0:0|0:0,0:0:0:0:
488,160,51831,6,0,L|480:64,1,90,8|0,0:0|0:0,0:0:0:0:
392,160,52323,2,0,L|384:64,1,90,0|2,0:0|0:0,0:0:0:0:
368,48,52692,1,0,0:0:0:0:
344,32,52815,2,0,P|296:32|256:48,1,90,8|0,0:0|0:0,0:0:0:0:
200,152,53306,6,0,P|248:152|288:136,2,90,2|0|8,0:0|0:0|0:0,0:0:0:0:
128,104,54044,2,0,P|88:184|96:272,1,180,0|8,0:0|0:0,0:0:0:0:
160,360,54782,1,4,0:0:0:0:
264,264,55028,1,2,0:0:0:0:
264,264,55151,1,0,0:0:0:0:
264,264,55274,6,0,P|352:280|440:264,1,180,4|8,0:0|0:0,0:0:0:0:
360,128,56011,1,0,0:0:0:0:
360,128,56257,2,0,P|272:112|224:120,1,135
200,136,56749,2,0,P|176:176|176:224,1,90,8|0,0:0|0:0,0:0:0:0:
112,336,57241,6,0,P|104:288|80:256,1,90,2|2,0:0|0:0,0:0:0:0:
64,240,57610,1,0,0:0:0:0:
48,224,57733,2,0,P|48:176|72:136,1,90,8|0,0:0|0:0,0:0:0:0:
168,112,58224,2,0,P|168:160|144:200,2,90,0|8|8,0:0|0:0|0:0,0:0:0:0:
256,176,58962,2,0,P|336:216|424:200,1,180,4|0,0:0|0:0,0:0:0:0:
496,152,59700,6,0,P|464:120|416:112,1,90,8|0,0:0|0:0,0:0:0:0:
344,160,60192,2,0,L|328:256,1,90,0|2,0:0|0:0,0:0:0:0:
312,272,60561,1,0,0:0:0:0:
288,288,60683,2,0,P|240:304|200:296,1,90,8|0,0:0|0:0,0:0:0:0:
136,232,61175,6,0,P|96:208|40:208,2,90,2|0|8,0:0|0:0|0:0,0:0:0:0:
224,208,61913,2,0,B|256:152|208:80|208:80|256:112,1,180,0|8,0:0|0:0,0:0:0:0:
332,172,62651,1,4,0:0:0:0:
432,120,62897,1,2,0:0:0:0:
432,120,63020,1,0,0:0:0:0:
432,120,63142,6,0,L|448:208,1,90,2|0,0:0|0:0,0:0:0:0:
464,296,63634,2,0,L|496:328,2,45,8|0|2,0:0|0:0|0:0,0:0:0:0:
376,264,64126,1,0,0:0:0:0:
376,264,64372,1,0,0:0:0:0:
312,328,64618,2,0,L|296:392,2,45,8|0|2,0:0|0:0|0:0,0:0:0:0:
288,240,65110,5,2,0:0:0:0:
288,240,65356,1,0,0:0:0:0:
248,160,65601,2,0,P|224:120|184:96,1,90,8|0,0:0|0:0,0:0:0:0:
104,128,66093,2,0,P|88:176|96:216,1,90,0|8,0:0|0:0,0:0:0:0:
184,224,66585,2,0,P|272:192|352:216,1,180,8|4,0:0|0:0,0:0:0:0:
416,280,67323,5,0,0:0:0:0:
464,200,67569,2,0,L|488:152,2,45,8|0|2,0:0|0:0|0:0,0:0:0:0:
376,176,68061,1,0,0:0:0:0:
376,176,68306,1,0,0:0:0:0:
368,88,68552,2,0,L|364:40,2,45,8|0|2,0:0|0:0|0:0,0:0:0:0:
296,136,69044,6,0,P|256:152|200:144,1,90,2|0,0:0|0:0,0:0:0:0:
128,112,69536,2,0,P|176:184|184:240,1,135,8|0,0:0|0:0,0:0:0:0:
184,264,70028,1,2,0:0:0:0:
112,336,70274,1,8,0:0:0:0:
280,280,70520,2,0,P|320:264|352:224,1,90,8|2,0:0|0:0,0:0:0:0:
360,200,70888,1,0,0:0:0:0:
360,168,71011,6,0,L|344:80,1,90,4|0,0:0|0:0,0:0:0:0:
432,72,71503,2,0,L|440:24,2,45,8|0|2,0:0|0:0|0:0,0:0:0:0:
464,160,71995,2,0,L|448:248,1,90
376,304,72487,2,0,L|384:352,2,45,8|0|2,0:0|0:0|0:0,0:0:0:0:
304,248,72979,5,2,0:0:0:0:
168,200,73224,1,0,0:0:0:0:
304,248,73470,2,0,P|256:272|216:272,1,90,8|0,0:0|0:0,0:0:0:0:
168,200,73962,2,0,P|176:160|224:120,1,90,0|8,0:0|0:0,0:0:0:0:
296,160,74454,2,0,P|336:248|408:288,1,180,8|4,0:0|0:0,0:0:0:0:
496,288,75192,5,0,0:0:0:0:
480,200,75438,2,0,L|472:152,2,45,8|0|2,0:0|0:0|0:0,0:0:0:0:
392,184,75929,1,0,0:0:0:0:
392,184,76175,1,0,0:0:0:0:
328,120,76421,2,0,L|296:88,2,45,8|0|2,0:0|0:0|0:0,0:0:0:0:
256,176,76913,5,2,0:0:0:0:
400,64,77159,1,0,0:0:0:0:
256,176,77405,2,0,P|184:224|128:216,1,135,8|0,0:0|0:0,0:0:0:0:
104,208,77897,1,2,0:0:0:0:
16,168,78142,1,8,0:0:0:0:
80,304,78388,2,0,P|136:336|208:336,1,135,4|2,0:0|0:0,0:0:0:0:
232,320,78880,5,4,0:0:0:0:
232,320,79003,2,0,P|280:296|328:296,1,90,2|2,0:0|0:0,0:0:0:0:
336,296,79372,2,0,P|352:248|344:208,1,90,8|0,0:0|0:0,0:0:0:0:
344,210,80110,1,8,0:0:0:0:
264,72,80356,1,8,0:0:0:0:
392,88,80601,1,2,0:0:0:0:
392,88,80724,1,0,0:0:0:0:
392,88,80847,6,0,L|440:88,1,45,2|0,0:0|0:0,0:0:0:0:
480,168,81216,2,0,L|432:168,1,45,0|8,0:0|0:0,0:0:0:0:
344,168,81585,1,8,0:0:0:0:
232,248,81831,1,2,0:0:0:0:
328,264,82077,1,8,0:0:0:0:
248,152,82323,2,0,P|208:104|136:112,1,135,8|2,0:0|0:0,0:0:0:0:
120,128,82815,6,0,L|112:176,1,45,4|0,0:0|0:0,0:0:0:0:
152,312,83214,2,0,L|136:264,1,45
224,120,83706,2,0,L|216:168,1,45,0|0,0:0|0:0,0:0:0:0:
248,304,84198,2,0,L|232:256,1,45
400,192,84782,5,2,0:0:0:0:
408,224,84905,2,0,P|416:272|408:312,1,90,2|0,0:0|0:0,0:0:0:0:
384,336,85274,2,0,L|480:336,1,90,8|8,0:0|0:0,0:0:0:0:
304,288,85765,2,0,L|208:288,1,90,2|8,0:0|0:0,0:0:0:0:
152,360,86257,2,0,P|120:320|136:232,1,135,8|2,0:0|0:0,0:0:0:0:
144,216,86749,5,4,0:0:0:0:
160,192,86872,2,0,P|176:144|168:104,1,90,2|2,0:0|0:0,0:0:0:0:
152,80,87241,2,0,P|192:56|240:56,1,90,8|0,0:0|0:0,0:0:0:0:
234,54,87979,1,8,0:0:0:0:
360,152,88224,1,8,0:0:0:0:
344,264,88470,1,2,0:0:0:0:
344,264,88593,1,0,0:0:0:0:
344,264,88716,6,0,L|344:312,1,45,4|0,0:0|0:0,0:0:0:0:
448,240,89085,2,0,L|448:192,1,45,0|8,0:0|0:0,0:0:0:0:
344,264,89454,2,0,P|296:280|256:272,2,90,8|2|8,0:0|0:0|0:0,0:0:0:0:
288,192,90192,2,0,P|248:240|176:264,1,135,8|0,0:0|0:0,0:0:0:0:
152,264,90683,6,0,L|104:256,1,45,4|0,0:0|0:0,0:0:0:0:
24,184,91083,2,0,L|72:176,1,45
160,104,91575,2,0,L|112:96,1,45
248,72,92067,2,0,L|296:64,1,45
424,192,92651,6,0,L|432:288,1,90,4|2,0:0|0:0,0:0:0:0:
352,360,93142,2,0,L|320:272,1,90,8|2,0:0|0:0,0:0:0:0:
336,192,93634,2,0,P|288:240|232:256,1,125.999996154785,2|8,0:0|0:0,0:0:0:0:
56,240,94618,6,0,L|64:192,3,45
72,160,95110,2,0,P|120:152|160:160,1,90
