osu file format v12

[General]
AudioFilename: Bilibili Douga - Shi Pin Bu He Xie.mp3
AudioLeadIn: 0
PreviewTime: 47405
Countdown: 0
SampleSet: Soft
StackLeniency: 0.7
Mode: 0
LetterboxInBreaks: 0

[Editor]
DistanceSpacing: 1
BeatDivisor: 4
GridSize: 8

[Metadata]
Title:Shi Pin Bu He Xie
TitleUnicode:视频不和谐
Artist:Shi Kong You Ke
ArtistUnicode:时空游客
Creator:buhei
Version:Easy
Source:Bilibili Douga
Tags:33娘 啪啪啪 初演唱 哔哩哔哩 Lady Gaga ft. Beyonce Telephone
BeatmapID:190194
BeatmapSetID:64712

[Difficulty]
HPDrainRate:2
CircleSize:3
OverallDifficulty:2
ApproachRate:3
SliderMultiplier:1
SliderTickRate:1

[Events]
//Background and Video events
0,0,"BG.jpg",0,0
//Break Periods
//Storyboard Layer 0 (Background)
//Storyboard Layer 1 (Fail)
//Storyboard Layer 2 (Pass)
//Storyboard Layer 3 (Foreground)
//Storyboard Sound Samples
//Background Colour Transformations
3,100,163,162,255

[TimingPoints]
8061,491.803278688525,4,2,1,20,1,0
23798,-100,4,2,1,50,0,0
31667,-100,4,2,1,40,0,0
47405,-100,4,2,1,60,0,1
63142,-100,4,2,1,50,0,0
78880,-100,4,2,1,35,0,0
92651,-100,4,2,1,40,0,0
94618,-100,4,2,1,20,0,0

[Colours]
Combo1 : 255,157,111
Combo2 : 128,255,255
Combo3 : 255,128,191
Combo4 : 255,255,255

[HitObjects]
128,80,8060,2,0,P|104:152|192:232,1,200,4|0,0:0|0:0,0:0:0:0:
216,136,9536,1,0,0:0:0:0:
312,112,10028,2,0,L|416:80,2,100,2|0|0,0:0|0:0|0:0,0:0:0:0:
424,280,11995,6,0,P|368:352|256:320,1,200,2|0,0:0|0:0,0:0:0:0:
328,256,13470,1,0,0:0:0:0:
384,176,13962,2,0,P|440:168|480:184,2,100,2|0|0,0:0|0:0|0:0,0:0:0:0:
200,264,15929,6,0,B|120:288|56:232|56:232|96:208,1,200,4|0,0:0|0:0,0:0:0:0:
176,152,17405,1,0,0:0:0:0:
256,96,17897,2,0,P|208:56|168:56,2,100,2|0|0,0:0|0:0|0:0,0:0:0:0:
320,288,19864,6,0,B|368:296|416:272|416:272|440:224|416:168,1,200,2|0,0:0|0:0,0:0:0:0:
384,80,21339,1,0,0:0:0:0:
288,64,21831,2,0,L|184:48,1,100,2|0,0:0|0:0,0:0:0:0:
152,144,22815,2,0,L|256:160,1,100,0|8,0:0|0:0,0:0:0:0:
344,192,23798,6,0,P|312:232|304:280,1,100,4|8,0:0|0:0,0:0:0:0:
392,320,24782,2,0,P|424:280|432:232,1,100,0|8,0:0|0:0,0:0:0:0:
424,136,25765,2,0,P|376:96|336:96,1,100,2|8,0:0|0:0,0:0:0:0:
264,32,26749,2,0,P|216:72|176:72,1,100,0|8,0:0|0:0,0:0:0:0:
104,144,27733,6,0,P|80:112|80:48,2,100,4|8|0,0:0|0:0|0:0,0:0:0:0:
192,192,29208,1,8,0:0:0:0:
280,240,29700,2,0,P|304:272|304:336,2,100,2|8|0,0:0|0:0|0:0,0:0:0:0:
336,160,31175,1,8,0:0:0:0:
376,72,31667,6,0,B|424:88|424:88|472:80,2,100,4|8|0,0:0|0:0|0:0,0:0:0:0:
280,40,33142,2,0,P|232:24|184:40,1,100,8|0,0:0|0:0,0:0:0:0:
128,120,34126,2,0,B|152:168|152:168|144:216,2,100,8|0|8,0:0|0:0|0:0,0:0:0:0:
56,192,35601,6,0,B|48:240|48:240|72:288,1,100,2|8,0:0|0:0,0:0:0:0:
160,336,36585,2,0,P|208:352|256:336,1,100,0|8,0:0|0:0,0:0:0:0:
312,256,37569,1,0,0:0:0:0:
320,160,38061,1,8,0:0:0:0:
280,72,38552,2,0,L|240:40,2,50,0|8|8,0:0|0:0|0:0,0:0:0:0:
376,80,39536,6,0,P|432:80|472:112,1,100,4|8,0:0|0:0,0:0:0:0:
440,200,40520,2,0,P|424:248|440:296,1,100,0|8,0:0|0:0,0:0:0:0:
344,336,41503,2,0,P|320:304|264:280,1,100,0|8,0:0|0:0,0:0:0:0:
272,184,42487,2,0,P|320:176|360:128,1,100,0|8,0:0|0:0,0:0:0:0:
272,88,43470,6,0,L|168:80,1,100,2|8,0:0|0:0,0:0:0:0:
72,104,44454,2,0,P|96:152|144:176,1,100,0|8,0:0|0:0,0:0:0:0:
200,248,45438,2,0,P|192:296|152:328,1,100,0|8,0:0|0:0,0:0:0:0:
96,240,46421,2,0,L|40:208,2,50,0|8|4,0:0|0:0|0:0,0:0:0:0:
152,152,47405,5,4,0:0:0:0:
240,104,47897,2,0,L|296:96,2,50,8|0|2,0:0|0:0|0:0,0:0:0:0:
272,200,48880,2,0,L|328:208,2,50,8|0|2,0:0|0:0|0:0,0:0:0:0:
176,232,49864,2,0,P|200:272|264:296,2,100,8|2|8,0:0|0:0|0:0,0:0:0:0:
144,136,51339,6,0,P|120:96|56:72,2,100,4|8|2,0:0|0:0|0:0,0:0:0:0:
240,112,52815,1,8,0:0:0:0:
320,56,53306,2,0,P|368:48|416:72,2,100,2|8|2,0:0|0:0|0:0,0:0:0:0:
352,152,54782,1,8,0:0:0:0:
344,248,55274,5,4,0:0:0:0:
280,328,55765,2,0,L|328:344,2,50,8|0|2,0:0|0:0|0:0,0:0:0:0:
184,296,56749,2,0,L|168:344,2,50,8|0|2,0:0|0:0|0:0,0:0:0:0:
208,200,57733,2,0,P|160:200|112:176,2,100,8|2|8,0:0|0:0|0:0,0:0:0:0:
304,176,59208,6,0,P|328:224|328:272,2,100,4|8|2,0:0|0:0|0:0,0:0:0:0:
232,104,60683,1,8,0:0:0:0:
136,88,61175,2,0,L|64:16,2,100,2|8|2,0:0|0:0|0:0,0:0:0:0:
168,184,62651,1,8,0:0:0:0:
128,280,63142,6,0,P|80:296|32:280,1,100,2|8,0:0|0:0,0:0:0:0:
80,192,64126,2,0,P|96:144|80:96,1,100,0|8,0:0|0:0,0:0:0:0:
176,56,65110,1,2,0:0:0:0:
232,136,65601,1,8,0:0:0:0:
216,232,66093,2,0,P|264:244|312:232,1,100,0|8,0:0|0:0,0:0:0:0:
400,280,67077,6,0,P|448:296|496:280,1,100,4|8,0:0|0:0,0:0:0:0:
448,192,68061,2,0,P|400:176|352:192,1,100,0|8,0:0|0:0,0:0:0:0:
264,232,69044,2,0,P|248:184|264:136,1,100,2|8,0:0|0:0,0:0:0:0:
352,88,70028,2,0,L|400:64,2,50,0|8|8,0:0|0:0|0:0,0:0:0:0:
264,32,71011,6,0,P|216:16|168:32,1,100,4|8,0:0|0:0,0:0:0:0:
112,112,71995,2,0,P|120:168|152:200,1,100,0|8,0:0|0:0,0:0:0:0:
232,248,72979,2,0,P|280:232|328:240,1,100,2|8,0:0|0:0,0:0:0:0:
424,256,73962,2,0,P|436:208|424:160,1,100,0|8,0:0|0:0,0:0:0:0:
344,104,74946,6,0,P|304:136|256:144,1,100,4|8,0:0|0:0,0:0:0:0:
168,104,75929,2,0,P|120:80|72:80,1,100,0|8,0:0|0:0,0:0:0:0:
96,176,76913,2,0,P|88:232|120:280,1,100,2|8,0:0|0:0,0:0:0:0:
200,312,77897,2,0,L|256:312,2,50,0|8|4,0:0|0:0|0:0,0:0:0:0:
200,208,78880,6,0,P|280:200|328:152,2,150,4|2|2,0:0|0:0|0:0,0:0:0:0:
104,176,80847,1,4,0:0:0:0:
104,176,82815,6,0,B|88:224|88:224|104:272,1,100,2|8,0:0|0:0,0:0:0:0:
192,320,83798,2,0,B|208:272|208:272|192:224,1,100,0|8,0:0|0:0,0:0:0:0:
232,136,84782,1,4,0:0:0:0:
232,136,86749,6,0,B|256:104|296:104|296:104|328:72|368:72,2,150,4|2|2,0:0|0:0|0:0,0:0:0:0:
192,232,88716,1,4,0:0:0:0:
192,232,90683,6,0,B|240:248|240:248|288:240,1,100,2|8,0:0|0:0,0:0:0:0:
384,216,91667,2,0,B|392:264|392:264|368:312,1,100,0|8,0:0|0:0,0:0:0:0:
256,192,92651,12,0,94618,0:0:0:0:
