osu file format v14

[General]
AudioFilename: Sheila On7 - Lapang Dada.mp3
AudioLeadIn: 0
PreviewTime: -1
Countdown: 1
SampleSet: Normal
StackLeniency: 0.7
Mode: 0
LetterboxInBreaks: 1
WidescreenStoryboard: 0

[Editor]
DistanceSpacing: 1.2
BeatDivisor: 6
GridSize: 4
TimelineZoom: 0.9

[Metadata]
Title:Lapang Dada
TitleUnicode:Lapang Dada
Artist:Sheila On 7
ArtistUnicode:Sheila On 7
Creator:AldiTok
Version:Lapang Dada
Source:
Tags:indonesia pop song
BeatmapID:1813459
BeatmapSetID:867482

[Difficulty]
HPDrainRate:5
CircleSize:3.4
OverallDifficulty:5
ApproachRate:6.5
SliderMultiplier:1.6
SliderTickRate:2

[Events]
//Background and Video events
0,0,"944030.jpg",0,0
//Break Periods
2,68730,76492
2,128730,132024
2,156816,159789
//Storyboard Layer 0 (Background)
//Storyboard Layer 1 (Fail)
//Storyboard Layer 2 (Pass)
//Storyboard Layer 3 (Foreground)
//Storyboard Sound Samples

[TimingPoints]
233.063829787234,638.297872340426,4,1,0,100,1,0
39169,-133.333333333333,4,1,0,100,0,0
41722,-100,4,1,0,100,0,0
46828,-100,4,1,0,100,0,1
68530,-100,4,1,0,100,0,0
85764,-133.333333333333,4,1,0,100,0,0
87679,-100,4,1,0,100,0,0
97892,-100,4,1,0,100,0,1
118956,-100,4,1,0,100,0,0
122147,-133.333333333333,4,1,0,100,0,0
125977,-100,4,1,0,100,0,0
161722,-100,4,1,0,100,0,1
180871,-100,4,1,0,100,0,0
182147,-133.333333333333,4,1,0,100,0,0
184062,-100,4,1,0,100,0,0
187254,-133.333333333333,4,1,0,100,0,0
189169,-100,4,1,0,100,0,0
192360,-133.333333333333,4,1,0,100,0,0
194275,-100,4,1,0,100,0,0
197467,-133.333333333333,4,1,0,100,0,0
199382,-100,4,1,0,100,0,0

[HitObjects]
113,77,233,5,0,0:0:0:0:
307,75,871,6,0,L|396:56,2,80
239,142,1828,1,0,0:0:0:0:
171,210,2147,2,0,L|82:249,2,80
260,246,3105,1,0,0:0:0:0:
394,241,3424,1,0,0:0:0:0:
454,186,3743,1,0,0:0:0:0:
460,99,4062,1,0,0:0:0:0:
406,37,4382,1,0,0:0:0:0:
313,49,4701,2,0,L|289:83,5,26.6666666666667
258,32,5339,1,4,0:0:0:0:
108,151,5977,1,0,0:0:0:0:
111,246,6296,6,0,L|73:323,2,80
207,242,7254,1,0,0:0:0:0:
302,243,7573,2,0,L|378:278,2,80
359,165,8530,1,0,0:0:0:0:
439,112,8850,1,0,0:0:0:0:
376,39,9169,1,0,0:0:0:0:
280,34,9488,1,0,0:0:0:0:
173,58,9807,2,0,L|159:88,5,26.6666666666667
132,59,10445,1,4,0:0:0:0:
141,200,11084,2,0,P|57:185|54:188,2,80
122,281,12041,5,0,0:0:0:0:
95,352,12360,2,0,L|-8:347,2,80
190,339,13318,1,0,0:0:0:0:
278,301,13637,2,0,L|271:380,2,80
341,228,14594,1,0,0:0:0:0:
261,173,14913,2,0,L|250:209,5,26.6666666666667
226,180,15552,1,4,0:0:0:0:
80,64,16190,2,0,L|-3:48,2,80
175,66,17147,5,0,0:0:0:0:
271,64,17467,2,0,L|359:56,2,80
226,148,18424,1,0,0:0:0:0:
147,225,18743,1,0,0:0:0:0:
75,288,19062,1,0,0:0:0:0:
16,211,19382,1,0,0:0:0:0:
20,115,19701,1,0,0:0:0:0:
138,66,20020,2,0,L|128:99,5,26.6666666666667
170,67,20658,1,4,0:0:0:0:
306,202,21296,2,0,L|311:118,2,80
304,296,22254,5,0,0:0:0:0:
208,312,22573,1,0,0:0:0:0:
112,312,22892,1,0,0:0:0:0:
16,312,23211,1,4,0:0:0:0:
16,216,23530,2,0,L|16:128,1,80
104,104,24169,2,0,L|184:72,1,80
272,104,24807,2,0,L|376:112,1,80
408,184,25445,1,0,0:0:0:0:
408,280,25764,1,4,0:0:0:0:
224,232,26403,2,0,L|216:264,5,26.6666666666667
192,208,27041,5,4,0:0:0:0:
112,152,27360,2,0,L|48:200,2,80
184,88,28318,2,0,L|184:0,2,80
264,136,29275,1,0,0:0:0:0:
352,176,29594,2,0,P|416:136|432:144,2,80
360,272,30552,1,0,0:0:0:0:
264,272,30871,2,0,L|264:312,5,26.6666666666667
232,288,31509,1,4,0:0:0:0:
160,224,31828,2,0,L|104:280,2,80
240,176,32786,1,0,0:0:0:0:
160,120,33105,2,0,L|88:72,2,80
240,64,34062,1,0,0:0:0:0:
336,64,34382,1,0,0:0:0:0:
432,64,34701,1,0,0:0:0:0:
440,160,35020,1,0,0:0:0:0:
440,256,35339,2,0,L|464:280,5,26.6666666666667
432,296,35977,1,4,0:0:0:0:
256,224,36616,2,0,L|224:304,2,80
184,168,37573,5,0,0:0:0:0:
104,112,37892,2,0,L|16:120,2,80
192,72,38850,1,0,0:0:0:0:
288,48,39169,2,0,P|360:64|384:88,1,100.000003814697
368,104,39807,2,0,P|432:144|440:168,1,100.000003814697
424,184,40445,2,0,P|464:240|472:272,1,100.000003814697
456,288,41084,2,0,P|392:328|368:328,1,100.000003814697
352,312,41722,1,4,0:0:0:0:
256,312,42041,1,0,0:0:0:0:
160,312,42360,1,0,0:0:0:0:
88,248,42679,6,0,L|24:304,2,80
160,192,43637,1,0,0:0:0:0:
160,96,43956,1,0,0:0:0:0:
256,96,44275,1,0,0:0:0:0:
352,96,44594,1,0,0:0:0:0:
448,96,44913,1,0,0:0:0:0:
448,192,45233,1,0,0:0:0:0:
384,264,45552,2,0,L|304:280,1,80
208,264,46190,6,0,L|144:192,1,80
144,64,46828,1,0,0:0:0:0:
352,160,47147,1,0,0:0:0:0:
144,216,47467,1,0,0:0:0:0:
272,48,47786,1,0,0:0:0:0:
240,256,48105,1,0,0:0:0:0:
192,56,48424,1,0,0:0:0:0:
376,128,48743,1,0,0:0:0:0:
168,152,49062,1,0,0:0:0:0:
160,248,49382,2,0,L|88:296,2,80
256,272,50339,1,0,0:0:0:0:
328,208,50658,1,0,0:0:0:0:
392,136,50977,2,0,L|376:40,1,80
288,64,51616,5,0,0:0:0:0:
168,232,51935,1,0,0:0:0:0:
128,40,52254,1,0,0:0:0:0:
264,168,52573,1,0,0:0:0:0:
64,104,52892,1,0,0:0:0:0:
136,272,53211,1,0,0:0:0:0:
320,344,53530,1,0,0:0:0:0:
440,224,53850,1,0,0:0:0:0:
440,128,54169,2,0,L|360:128,1,80
264,112,54807,2,0,L|264:24,2,80
256,216,55764,1,0,0:0:0:0:
200,296,56084,1,0,0:0:0:0:
176,304,56403,1,0,0:0:0:0:
152,312,56722,1,0,0:0:0:0:
80,248,57041,6,0,P|24:280|8:272,2,80
152,184,57999,1,0,0:0:0:0:
80,120,58318,2,0,P|24:88|24:80,2,80
152,184,59275,2,0,L|240:184,1,80
312,128,59913,2,0,L|312:32,2,80
312,232,60871,1,0,0:0:0:0:
312,328,61190,2,0,L|392:328,2,80
216,328,62147,1,0,0:0:0:0:
120,328,62467,1,0,0:0:0:0:
56,256,62786,1,0,0:0:0:0:
56,160,63105,2,0,L|56:64,2,80
56,256,64062,1,0,0:0:0:0:
144,216,64382,2,0,L|224:168,1,80
272,96,65020,1,0,0:0:0:0:
360,48,65339,2,0,L|408:128,1,80
456,192,65977,1,0,0:0:0:0:
456,288,66243,1,0,0:0:0:0:
384,328,66616,1,0,0:0:0:0:
256,192,66935,12,0,68530,0:0:0:0:
80,80,77467,6,0,L|72:112,5,26.6666666666667
104,96,78105,1,4,0:0:0:0:
200,96,78424,1,0,0:0:0:0:
288,64,78743,2,0,L|376:64|376:64,2,80
296,160,79701,2,0,L|312:248,1,80
224,208,80339,2,0,L|240:288,1,80
152,256,80977,1,0,0:0:0:0:
112,168,81296,2,0,L|80:152,5,26.6666666666667
112,128,81935,1,4,0:0:0:0:
288,56,82573,2,0,L|280:104,5,26.6666666666667
312,80,83211,5,0,0:0:0:0:
408,88,83530,1,0,0:0:0:0:
408,184,83850,2,0,L|408:264,1,80
336,320,84488,1,0,0:0:0:0:
240,320,84807,2,0,L|160:320,1,80
88,264,85445,1,0,0:0:0:0:
64,168,85764,2,0,P|128:112|136:112,1,100.000003814697
152,128,86403,2,0,P|224:80|248:80,1,100.000003814697
248,96,87041,2,0,P|328:88|336:96,1,100.000003814697
352,112,87679,1,4,0:0:0:0:
424,168,87999,1,0,0:0:0:0:
424,264,88318,1,0,0:0:0:0:
352,328,88637,1,0,0:0:0:0:
264,280,88956,2,0,L|264:312,5,26.6666666666667
232,296,89594,1,4,0:0:0:0:
112,144,90233,2,0,P|64:152|64:176,2,80
200,176,91190,5,0,0:0:0:0:
240,88,91509,2,0,P|256:56|288:80,2,80
304,168,92467,1,0,0:0:0:0:
400,192,92786,2,0,L|456:120,2,80
352,272,93743,2,0,L|304:336,1,80
208,320,94382,1,0,0:0:0:0:
112,320,94701,2,0,L|48:240,1,80
104,168,95339,1,0,0:0:0:0:
168,96,95658,1,0,0:0:0:0:
256,56,95977,2,0,L|344:48,1,80
288,136,96616,2,0,L|376:128,1,80
368,224,97254,1,0,0:0:0:0:
296,288,97573,5,0,0:0:0:0:
156,224,97892,1,0,0:0:0:0:
352,148,98211,1,0,0:0:0:0:
152,148,98530,1,0,0:0:0:0:
352,224,98850,1,0,0:0:0:0:
180,88,99169,1,0,0:0:0:0:
320,280,99488,1,0,0:0:0:0:
240,92,99807,1,0,0:0:0:0:
256,288,100126,1,0,0:0:0:0:
160,276,100445,2,0,P|120:224|120:208,1,80
140,120,101084,2,0,L|168:40,1,80
240,104,101722,2,0,L|320:108,1,80
156,224,102360,1,0,0:0:0:0:
352,228,102679,5,0,0:0:0:0:
156,144,102999,1,0,0:0:0:0:
320,280,103318,1,0,0:0:0:0:
184,88,103637,1,0,0:0:0:0:
156,224,103956,1,0,0:0:0:0:
352,160,104275,1,0,0:0:0:0:
208,272,104594,1,0,0:0:0:0:
304,112,104913,1,0,0:0:0:0:
224,60,105233,2,0,L|124:56,1,80
168,148,105871,2,0,L|104:216,2,80
264,156,106828,1,0,0:0:0:0:
344,204,107147,2,0,L|424:152,2,80
232,280,108105,5,0,0:0:0:0:
288,88,108424,1,0,0:0:0:0:
176,256,108743,1,0,0:0:0:0:
328,124,109062,1,0,0:0:0:0:
140,216,109382,1,0,0:0:0:0:
348,180,109701,1,0,0:0:0:0:
152,152,110020,1,0,0:0:0:0:
208,72,110339,2,0,L|288:56,1,80
380,76,110977,2,0,L|460:36,2,80
384,180,111935,1,0,0:0:0:0:
384,276,112254,2,0,L|472:272,2,80
288,280,113211,1,0,0:0:0:0:
192,276,113530,1,0,0:0:0:0:
96,276,113850,6,0,L|96:372,2,80
92,180,114807,1,0,0:0:0:0:
96,84,115126,1,0,0:0:0:0:
192,84,115445,2,0,L|276:80,2,80
208,172,116403,2,0,L|272:224,1,80
328,300,117041,1,0,0:0:0:0:
256,192,117360,12,0,118956,0:0:0:0:
136,148,119275,5,0,0:0:0:0:
216,96,119594,1,0,0:0:0:0:
312,96,119913,2,0,L|400:92,1,80
380,188,120552,2,0,L|456:148,2,80
300,244,121509,2,0,L|240:320,1,80
184,228,122147,2,0,P|128:180|112:152,1,100.000003814697
152,144,122786,2,0,P|112:84|120:56,1,100.000003814697
160,48,123424,1,0,0:0:0:0:
248,48,123743,1,0,0:0:0:0:
336,52,124062,2,0,P|408:88|412:100,1,100.000003814697
392,124,124701,2,0,P|448:184|448:200,1,100.000003814697
416,200,125339,2,0,P|448:288|448:304,1,100.000003814697
424,316,125977,1,0,0:0:0:0:
328,320,126296,1,0,0:0:0:0:
232,320,126616,1,0,0:0:0:0:
136,304,126935,2,0,L|76:240,1,80
96,152,127573,1,0,0:0:0:0:
140,64,127892,2,0,L|168:24,5,26.6666666666667
176,68,128530,1,4,0:0:0:0:
68,88,132999,6,0,L|172:72,1,80
244,68,133637,2,0,L|340:56,2,80
248,164,134594,1,0,0:0:0:0:
252,260,134913,1,0,0:0:0:0:
252,356,135233,2,0,L|164:356,2,80
360,356,136190,2,0,L|416:276,1,80
460,212,136828,2,0,L|456:112,1,80
380,68,137467,2,0,L|376:108,5,26.6666666666667
348,76,138105,1,4,0:0:0:0:
252,72,138424,1,0,0:0:0:0:
156,72,138743,5,0,0:0:0:0:
60,68,139062,2,0,L|52:152,1,80
148,200,139701,1,0,0:0:0:0:
148,296,140020,2,0,L|60:288,2,80
244,300,140977,1,0,0:0:0:0:
340,304,141296,1,0,0:0:0:0:
436,304,141616,2,0,L|436:220,1,80
440,128,142254,1,0,0:0:0:0:
344,124,142573,2,0,L|352:160,5,26.6666666666667
316,144,143211,1,4,0:0:0:0:
232,96,143530,2,0,P|156:84|152:76,3,80
76,132,144807,6,0,P|72:176|104:196,1,80
192,212,145445,2,0,P|192:272|180:276,3,80
256,340,146722,1,0,0:0:0:0:
352,340,147041,1,0,0:0:0:0:
448,344,147360,2,0,L|448:260,1,80
452,168,147999,2,0,L|452:84,3,80
360,60,149275,2,0,L|272:56,1,80
176,64,149913,1,0,0:0:0:0:
80,64,150233,1,0,0:0:0:0:
76,160,150552,2,0,L|76:248,1,80
264,308,151509,1,4,0:0:0:0:
264,116,152147,1,4,0:0:0:0:
256,192,152786,12,0,156616,0:0:0:0:
144,76,160764,6,0,L|56:116,2,80
292,76,161722,1,0,0:0:0:0:
216,280,162041,1,0,0:0:0:0:
216,88,162360,1,0,0:0:0:0:
304,264,162679,1,0,0:0:0:0:
152,152,162999,1,0,0:0:0:0:
344,220,163318,1,0,0:0:0:0:
192,120,163637,1,0,0:0:0:0:
328,248,163956,1,0,0:0:0:0:
404,168,164275,2,0,L|428:84,1,80
344,40,164913,2,0,L|240:36,3,80
160,56,166190,6,0,L|104:128,1,80
168,224,166828,1,0,0:0:0:0:
324,152,167147,1,0,0:0:0:0:
156,184,167467,1,0,0:0:0:0:
336,192,167786,1,0,0:0:0:0:
176,140,168105,1,0,0:0:0:0:
316,236,168424,1,0,0:0:0:0:
200,112,168743,1,0,0:0:0:0:
280,56,169062,2,0,L|376:52,1,80
456,60,169701,2,0,L|456:156,3,80
400,216,170977,1,0,0:0:0:0:
376,240,171296,1,0,0:0:0:0:
352,264,171616,1,0,0:0:0:0:
276,296,171935,6,0,P|224:296|212:272,2,80
264,176,172892,1,0,0:0:0:0:
244,84,173211,2,0,P|196:80|192:104,2,80
264,176,174169,2,0,L|344:128,1,80
336,40,174807,2,0,L|424:40,1,80
420,136,175445,2,0,L|420:228,1,80
332,252,176084,1,0,0:0:0:0:
312,276,176403,1,0,0:0:0:0:
292,300,176722,1,0,0:0:0:0:
200,268,177041,6,0,P|160:272|148:236,2,80
244,180,177999,1,0,0:0:0:0:
256,84,178318,2,0,P|212:76|196:104,2,80
344,124,179275,2,0,L|432:92,1,80
448,188,179913,2,0,L|448:284,1,80
388,344,180552,2,0,L|296:336,1,80
228,284,181190,1,0,0:0:0:0:
200,256,181509,1,0,0:0:0:0:
164,232,181828,1,0,0:0:0:0:
108,292,182147,6,0,P|48:192|64:148,1,160.000006103516
92,136,183105,2,0,P|156:48|200:48,1,160.000006103516
224,72,184062,1,4,0:0:0:0:
416,64,184701,1,0,0:0:0:0:
416,160,185020,1,0,0:0:0:0:
416,256,185339,2,0,L|504:260,2,80
300,252,186296,1,0,0:0:0:0:
276,280,186616,1,0,0:0:0:0:
252,304,186935,1,0,0:0:0:0:
148,288,187254,6,0,P|112:184|140:152,1,160.000006103516
152,172,188211,2,0,P|236:88|264:96,1,160.000006103516
284,84,189169,1,4,0:0:0:0:
476,88,189807,1,0,0:0:0:0:
476,184,190126,1,0,0:0:0:0:
420,260,190445,2,0,L|504:324,2,80
304,252,191403,1,0,0:0:0:0:
280,276,191722,1,0,0:0:0:0:
260,300,192041,1,0,0:0:0:0:
168,308,192360,6,0,P|84:252|96:192,1,160.000006103516
104,200,193318,2,0,P|96:84|136:52,1,160.000006103516
144,60,194275,1,4,0:0:0:0:
336,68,194913,1,0,0:0:0:0:
400,140,195233,1,0,0:0:0:0:
404,236,195552,2,0,L|504:236,2,80
296,248,196509,1,0,0:0:0:0:
272,272,196828,1,0,0:0:0:0:
248,300,197147,1,0,0:0:0:0:
176,300,197467,6,0,P|112:220|136:160,1,160.000006103516
152,188,198424,2,0,P|152:80|188:56,1,160.000006103516
216,44,199382,1,4,0:0:0:0:
408,60,200020,1,0,0:0:0:0:
412,156,200339,1,0,0:0:0:0:
412,252,200658,2,0,L|312:252,1,80
236,252,201296,2,0,L|240:296,5,26.6666666666667
212,260,201935,5,4,0:0:0:0:
144,192,202254,1,0,0:0:0:0:
356,192,202573,1,0,0:0:0:0:
156,156,202892,1,0,0:0:0:0:
344,224,203211,1,0,0:0:0:0:
152,228,203530,1,0,0:0:0:0:
340,148,203850,1,0,0:0:0:0:
176,256,204169,1,0,0:0:0:0:
316,108,204488,1,0,0:0:0:0:
208,268,204807,1,0,0:0:0:0:
280,96,205126,1,0,0:0:0:0:
184,92,205445,2,0,L|156:168,1,80
248,188,206084,2,0,L|352:184,2,80
168,244,207041,1,0,0:0:0:0:
360,252,207679,5,4,0:0:0:0:
