osu file format v7

[General]
AudioFilename: coloris.mp3
AudioLeadIn: 1946
PreviewTime: -1
Countdown: 0
SampleSet: Soft
StackLeniency: 0.4
Mode: 0
LetterboxInBreaks: 0

[Editor]
DistanceSpacing: 0.899999976158142
BeatDivisor: 8
GridSize: 8

[Metadata]
Title:Coloris
Artist:She
Creator:Ph0X
Version:Pee
Source:ph0x
Tags:ph0x request techno dance color

[Difficulty]
HPDrainRate:5
CircleSize:4
OverallDifficulty:8
SliderMultiplier:1.4
SliderTickRate:1

[Events]
//Background and Video events
0,0,"Colorisresize.jpg"
//Break Periods
2,58306,73873
2,113023,119820
//Storyboard Layer 0 (Background)
//Storyboard Layer 1 (Fail)
//Storyboard Layer 2 (Pass)
//Storyboard Layer 3 (Foreground)
//Storyboard Sound Samples
//Background Colour Transformations
3,100,0,0,0

[TimingPoints]
298,516.173434273916,4,2,0,100,1,0
8557,-100,4,2,0,20,0,0
9589,-100,4,2,0,29,0,0
10621,-100,4,2,0,40,0,0
11652,-100,4,2,0,52,0,0
12684,-100,4,2,0,72,0,0
13716,-100,4,2,0,90,0,0
14727,-50,4,2,0,90,0,0
74497,-50,4,2,0,100,0,0
120570,516.173434273916,3,2,0,50,1,0
136490,516.146792147687,4,2,0,90,1,0

[Colours]
Combo1 : 147,147,255
Combo2 : 186,118,177
Combo3 : 249,243,45

[HitObjects]
168,104,8557,2,0,L|232:168,1,70
344,104,9073,2,0,L|288:160,1,70
176,272,9589,1,8
256,200,9847,1,8
344,280,10105,1,8
256,200,10363,1,8
144,88,10621,5,0
144,88,10879,1,0
368,88,11136,1,0
368,88,11394,1,0
208,248,11652,2,8,L|152:304,1,70
304,248,12168,2,8,L|368:304,1,70
72,80,12684,6,2,L|32:120,2,35
432,72,13200,2,2,L|472:112,2,35
424,336,13716,5,8
304,336,13974,1,0
256,336,14103,1,8
208,336,14232,1,0
88,336,14490,1,8
56,192,14748,6,2,L|256:-8|256:-8|456:192|456:192|272:392|272:392|168:288|168:288|280:168|280:168,1,1120
260,188,16941,5,0
96,192,17199,2,0,B|32:232|112:304,1,105
104,320,17457,2,2,B|104:368,2,35
192,320,17715,2,0,B|288:320,1,70
344,232,18102,6,4,B|374:263|406:231,1,70
384,160,18360,1,0
384,104,18489,1,0
328,104,18618,1,0
328,160,18747,1,0
184,160,18876,6,0,B|80:160,1,70,0|0
256,160,19263,1,4
224,320,19521,2,0,B|192:384|144:360,1,70
288,320,19779,2,0,B|320:384|368:360,1,70
256,216,20166,1,8
256,48,20424,1,4
256,216,20682,1,8
120,112,20940,6,0,B|56:176,1,70
256,216,21327,1,0
424,216,21584,1,0
424,160,21713,1,8
424,104,21842,1,4
256,104,22229,5,4
256,160,22358,1,0
256,216,22487,1,0
256,272,22616,1,0
256,328,22745,1,0
144,328,23003,5,8
144,328,23132,1,8
144,216,23390,1,0
144,104,23648,1,0
256,104,23906,1,8
256,104,24035,1,8
368,56,24293,5,4
368,112,24422,1,0
368,168,24551,1,0
368,224,24680,1,0
368,280,24809,1,0
128,328,25067,5,12
424,32,27131,1,12
88,32,29195,1,12
392,336,31259,1,12
88,160,33322,5,4
424,160,33838,1,4
88,160,34354,1,8
424,160,34870,1,8
160,360,35386,6,0,B|248:360,1,70
352,248,35773,1,2
352,248,35902,2,0,B|248:248,1,70
160,136,36289,1,2
160,136,36418,2,0,B|240:136,1,70
352,24,36805,1,2
352,24,36934,2,0,B|256:24,1,70
128,224,37450,6,0,B|416:224,3,280
216,32,39514,6,8,B|216:152,2,105,8|8|0
296,136,40030,2,8,B|296:16,2,105,8|8|0
432,200,40546,6,4,B|288:200,1,140,4|0
112,200,41062,2,0,B|256:200,1,140,4|0
256,368,41578,5,12
256,200,41836,1,0
256,144,41965,1,0
256,88,42094,1,0
120,64,42352,5,0
56,192,42610,1,0
104,328,42867,1,0
256,328,43125,2,8,B|256:256,2,70
408,328,43641,5,0
456,192,43898,1,0
392,64,44156,1,4
256,32,44415,1,0
120,56,44673,1,0
80,88,44802,1,0
56,136,44931,1,0
128,336,45189,2,8,B|32:328|48:216,1,140,8|8
256,192,45705,6,0,B|400:192,1,140
112,192,46221,1,8
256,192,46479,1,8
256,32,46737,1,0
256,88,46866,1,0
256,144,46995,1,0
256,336,47253,1,4
336,64,47769,5,8
184,64,48027,1,2
128,64,48156,1,2
72,64,48285,1,2
184,168,48543,1,2
336,168,48801,1,8
392,168,48930,1,8
448,168,49059,1,8
256,328,49317,2,4,B|256:272,2,35,4|0|4
40,192,49833,6,0,B|112:192,1,70
112,120,50091,1,2
112,120,50220,1,2
40,120,50349,2,4,B|40:48|40:48|136:48,1,140
256,48,50865,5,0
256,104,50994,1,0
256,160,51123,1,12
144,368,51396,1,8
368,368,51654,1,8
256,192,51912,12,8,52428
448,192,52944,6,4,B|464:96|336:112,1,140
64,192,53461,2,4,B|48:288|176:272,1,140
256,40,53977,6,0,B|256:232,1,175,8|0
256,215,54493,1,4
256,40,54751,1,4
120,136,55009,5,0
96,192,55138,1,0
120,248,55267,1,0
256,320,55525,1,8
408,192,55783,1,4
256,32,56041,6,0,B|256:248,1,210,8|2
256,344,56558,2,0,B|256:184,1,140,8|0
144,80,57074,5,0
104,128,57203,1,0
64,176,57332,1,0
368,80,57590,5,0
408,128,57719,1,0
448,176,57848,1,0
256,344,58106,5,12
256,192,74623,5,4
176,160,74752,2,0,B|176:272,2,105
96,192,75268,1,2
96,128,75397,1,2
96,64,75526,1,2
176,64,75655,6,8,B|328:64,1,140
368,128,76042,1,0
424,192,76171,2,8,B|424:264,2,70
344,224,76558,5,2
280,224,76687,1,2
216,224,76816,1,2
208,352,77074,2,8,B|304:352,1,70
448,352,77461,1,2
448,352,77590,1,2
448,352,77720,1,2
280,224,77978,5,0
73,344,78236,2,0,B|16:352|16:248|80:256,1,140
176,152,78752,1,0
136,104,78881,1,0
256,32,79139,1,0
376,64,79397,5,0
376,128,79526,1,0
376,192,79655,1,0
376,256,79784,1,0
376,320,79913,2,0,B|296:320,1,70
256,192,80300,5,0
256,192,80365,1,0
256,192,80429,1,0
104,192,80687,5,4
32,192,80816,2,8,B|32:272,1,70
104,192,81074,1,0
176,192,81204,2,8,B|176:112,1,70
256,192,81462,1,4
336,192,81591,5,2
336,256,81720,1,2
336,320,81849,1,2
416,192,82107,1,0
488,192,82365,1,2
488,192,82429,1,2
488,192,82494,1,2
312,96,82752,5,0
256,96,82881,1,0
200,96,83010,1,0
200,296,83268,1,2
256,296,83397,1,2
312,296,83526,1,2
368,248,83787,5,0
368,192,83916,1,0
368,144,84045,1,0
144,144,84303,1,2
144,192,84432,1,2
144,240,84561,1,2
256,80,84948,6,0,B|256:32,1,35,8|4
256,192,85207,1,4
288,344,85336,2,0,B|344:344,1,52.5,8|0
224,344,85594,2,0,B|160:344,1,52.5,8|0
144,192,85852,5,0
168,128,85981,1,2
224,88,86110,1,0
288,88,86239,1,2
344,128,86368,1,0
376,192,86497,2,2,B|344:288|272:304,1,140
56,304,87013,5,8
56,80,87271,1,0
56,304,87529,1,8
56,80,87787,1,0
256,192,88045,5,0
192,192,88175,1,0
128,192,88304,1,0
256,192,88562,1,0
320,192,88691,1,0
384,192,88820,1,0
456,96,89078,5,0
456,40,89207,1,0
456,192,89465,1,0
456,318,89723,1,0
256,320,89981,1,0
312,320,90110,1,0
256,192,90368,1,0
256,80,90626,1,0
256,80,90691,1,0
256,80,90755,1,0
176,264,91142,6,0,B|176:344,1,70
176,264,91402,1,0
176,152,91660,1,0
176,96,91789,1,0
176,40,91918,1,0
336,112,92176,6,0,B|336:32,1,70
336,112,92436,1,0
336,224,92694,1,0
336,280,92823,1,0
336,336,92952,1,0
200,304,93209,6,0,B|96:304,1,87.5
200,304,93467,1,0
112,232,93725,2,0,B|216:232,1,87.5
112,232,93983,1,0
200,152,94241,6,0,B|96:152,1,87.5
200,152,94499,1,0
112,80,94757,2,0,B|216:80,1,87.5
112,80,95015,1,0
320,80,95273,6,2,B|320:136,2,52.5
320,192,95661,1,0
320,304,95790,2,0,B|320:248,2,52.5,0|0|0
392,304,96177,1,8
464,304,96306,6,2,B|464:248,2,52.5
464,192,96693,1,0
464,80,96822,2,0,B|464:136,2,52.5,0|0|0
288,192,97338,5,4
120,192,97596,1,4
200,48,97854,1,8
200,104,97983,1,0
200,160,98112,1,8
200,328,98370,5,0
200,328,98435,1,0
200,328,98499,1,0
200,160,98887,1,2
200,104,99016,1,2
200,48,99145,1,2
368,48,99403,6,0,B|464:48,1,87.5,8|0
448,320,99919,1,4
448,320,100177,1,0
144,336,100435,2,0,B|48:336,1,87.5,8|0
336,48,100951,2,0,B|416:48,2,70,8|0|8
144,48,101467,6,0,B|48:48,1,87.5,8|0
64,320,101983,1,4
64,320,102241,1,0
368,336,102499,2,0,B|464:336,1,87.5,8|0
176,48,103016,2,0,B|96:48,2,70,8|0|8
304,112,103532,5,8
304,272,103790,1,0
384,112,104048,1,8
384,272,104306,1,4
208,112,104565,5,8
208,272,104823,1,0
128,112,105081,1,8
128,272,105339,1,4
256,192,105597,6,8,B|152:192,1,70
104,192,105855,1,2
256,192,106113,2,8,B|360:192,1,70
408,192,106371,1,2
256,56,106629,1,8
256,328,106887,1,4
256,56,107145,1,8
48,192,107662,6,8,B|48:280,1,70,8|8
136,192,108049,2,8,B|136:112,1,70,4|8
136,264,108307,1,8
216,136,108565,1,2
216,200,108694,1,2
216,264,108823,1,2
296,198,109081,6,0,B|296:128,1,70,4|8
296,272,109339,1,8
376,144,109597,1,2
376,208,109726,1,2
376,272,109855,1,2
464,264,110113,2,0,B|464:192,2,70,8|0|8
464,128,110630,2,0,B|464:200,2,70,8|0|8
464,200,111146,2,4,B|544:200,2,70,4|0|4
256,192,111791,12,2,112823
160,192,120570,5,0
192,152,120828,1,0
224,112,121086,1,0
360,192,121344,1,2
360,192,121473,1,2
360,192,121602,1,2
328,232,121860,1,0
360,288,122183,5,8
152,288,122570,1,0
304,136,122957,2,4,B|368:72,1,70,4|0
144,88,123602,1,0
296,232,123925,2,4,B|360:296,1,70,4|12
128,280,124699,6,4,B|24:280,1,70,4|0
128,200,125215,1,2
192,200,125409,1,2
256,200,125602,1,2
128,120,125989,1,0
384,120,126247,5,4
472,40,126635,1,0
384,120,127022,1,2
128,120,127344,5,4
40,40,127667,1,0
128,120,128054,1,2
408,296,128828,5,2
408,248,129022,1,0
408,200,129215,2,8,B|296:200,1,105
304,136,129796,1,0
304,80,130054,1,2
88,80,130312,6,8,B|88:200,1,105
88,232,130893,1,4
136,272,131151,1,0
184,312,131409,2,8,B|232:264,1,52.5,8|0
424,152,131861,5,4
376,112,132119,1,0
328,72,132377,2,8,B|248:152,1,105
200,88,132958,1,4
264,24,133216,1,0
328,72,133409,2,8,B|248:152,1,105
256,192,133925,5,0
256,192,134184,1,0
256,192,134442,1,0
296,192,136490,5,8
344,192,136619,1,0
392,192,136748,1,8
440,192,136877,1,0
488,192,137006,2,2,B|488:144,1,35
224,192,137393,5,8
176,192,137522,2,2,B|176:240,1,35
128,192,137780,2,2,B|128:144,1,35
80,192,138038,1,8
32,192,138167,1,0
256,120,138425,5,8
256,72,138554,1,2
256,24,138683,1,8
344,72,138941,1,4
168,72,139199,1,4
256,304,139457,5,8
256,304,139586,1,0
256,304,139715,1,0
256,80,139973,1,4
256,304,140232,1,8
152,192,140490,5,2
151,143,140619,1,2
152,95,140748,1,2
200,304,141006,1,8
256,192,141264,1,0
375,191,141522,5,8
376,240,141651,1,4
376,288,141780,1,2
312,80,142038,1,4
256,192,142296,1,0
120,192,142554,6,8,B|72:192,2,35
120,192,142941,1,0
120,192,143070,2,0,B|120:144,2,35,4|0|8
256,320,143587,6,4,B|208:320,1,35
256,320,143845,1,8
256,320,143974,1,8
256,320,144103,2,0,B|304:320,2,35
392,192,144619,6,8,B|440:192,2,35
392,192,145006,1,0
392,192,145135,2,0,B|392:240,2,35,4|0|8
256,88,145651,5,8
256,48,145780,1,0
256,88,145909,2,8,B|256:136,1,35
256,168,146167,2,0,B|256:208,2,35,4|0|4
104,320,146812,5,8
104,320,146941,1,8
200,320,147200,1,8
152,240,147458,1,2
152,240,147522,1,0
152,240,147587,1,0
152,144,147845,5,8
152,144,147974,1,8
192,56,148232,2,4,B|104:56,1,70
320,56,148748,6,8,B|360:56,1,35
379,56,149071,1,2
424,56,149200,1,0
472,56,149329,1,0
400,136,149522,1,8
400,304,149780,2,0,B|400:352,2,35,8|0|4
256,216,150296,1,8
112,304,150555,1,4
136,144,150813,5,2
168,112,150942,1,0
208,88,151071,1,2
256,72,151200,1,0
304,88,151329,1,2
344,112,151458,1,0
376,144,151587,1,2
256,328,151845,5,8
256,272,151974,1,0
256,216,152103,1,8
256,160,152232,1,0
256,104,152361,1,8
256,48,152490,1,4
256,192,152619,12,14,153522
