osu file format v14

[General]
AudioFilename: Marble Soda.mp3
AudioLeadIn: 0
PreviewTime: -1
Countdown: 0
SampleSet: Soft
StackLeniency: 0.6
Mode: 0
LetterboxInBreaks: 1
WidescreenStoryboard: 0

[Editor]
DistanceSpacing: 1.2
BeatDivisor: 4
GridSize: 4
TimelineZoom: 1

[Metadata]
Title:Marble Soda
TitleUnicode:Marble Soda
Artist:Shawn Wasabi
ArtistUnicode:Shawn Wasabi
Creator:Tyl
Version:Cupcakes
Source:
Tags:
BeatmapID:757801
BeatmapSetID:342888

[Difficulty]
HPDrainRate:6
CircleSize:4.2
OverallDifficulty:8.5
ApproachRate:9.2
SliderMultiplier:1.4
SliderTickRate:1

[Events]
//Background and Video events
0,0,"anime-happy-music.jpg",0,0
//Break Periods
2,103863,114165
//Storyboard Layer 0 (Background)
//Storyboard Layer 1 (Fail)
//Storyboard Layer 2 (Pass)
//Storyboard Layer 3 (Foreground)
//Storyboard Sound Samples

[TimingPoints]
806.642466045297,357.142857142857,4,2,0,100,1,0
1520,-50,4,2,0,100,0,0
1878,-100,4,2,0,100,0,0
2592,-50,4,2,0,100,0,0
3663,-100,4,2,0,100,0,0
4378,-50,4,2,0,100,0,0
6520,-100,4,2,0,100,0,0
7235,-50,4,2,0,100,0,0
16520,-100,4,2,0,100,0,0
17235,-66.6666666666667,4,2,0,100,0,0
17592,-50,4,2,0,100,0,0
18663,-66.6666666666667,4,2,0,100,0,0
19378,-50,4,2,0,100,0,0
26163,-66.6666666666667,4,2,0,100,0,0
66699,-100,4,2,0,100,0,0
78306,-66.6666666666667,4,2,0,100,0,0
84378,-62.5,4,2,0,100,0,0
84913,-57.1428571428571,4,2,0,100,0,0
85449,-52.6315789473684,4,2,0,100,0,0
85806,-50,4,2,0,100,0,0
86878,-60.6060606060606,4,2,0,100,0,0
90628,-54.054054054054,4,2,0,100,0,0
91520,-58.8235294117647,4,2,0,100,0,0
98306,-54.054054054054,4,2,0,100,0,0
102949,-50,4,2,0,100,0,0
115806,-76.9230769230769,4,2,0,100,0,0
117949,-66.6666666666667,4,2,0,100,0,0
120806,-100,4,2,0,100,0,0
121520,-66.6666666666667,4,2,0,100,0,0
122235,-50,4,2,0,100,0,0
122949,-58.8235294117647,4,2,0,100,0,0
123931,-50,4,2,0,100,0,0
126520,-50,4,2,0,100,0,1
142949,-66.6666666666667,4,2,0,100,0,0
149020,-50,4,2,0,100,0,0
159020,-100,4,2,0,100,0,0

[HitObjects]
208,224,816,6,0,P|240:240|304:248,1,70
248,40,1163,1,0,0:0:0:0:
248,40,1342,1,0,0:0:0:0:
392,152,1520,2,0,L|240:184,1,140
408,288,1878,2,0,P|404:253|411:219,1,70
472,88,2235,5,0,0:0:0:0:
472,88,2413,1,0,0:0:0:0:
208,224,2592,2,0,L|192:48,1,140
344,48,2949,2,0,L|336:64,1,17.5
120,160,3128,1,0,0:0:0:0:
328,264,3306,2,0,L|320:280,1,17.5
320,279,3395,2,0,L|307:291,1,17.5
312,296,3485,2,0,L|296:305,1,17.5
112,72,3663,6,0,P|152:80|184:96,1,70
48,192,4020,1,0,0:0:0:0:
48,192,4199,1,0,0:0:0:0:
273,118,4378,2,0,L|248:256,1,140
136,272,4735,2,0,L|144:256,1,17.5
392,80,4913,2,0,L|384:96,1,17.5
303,352,5092,5,0,0:0:0:0:
303,352,5270,1,0,0:0:0:0:
106,207,5449,2,0,L|241:172,1,140
430,178,5806,2,0,P|454:233|394:241,1,140
134,58,6163,2,0,L|108:196,1,140
203,322,6520,6,0,P|217:295|206:237,1,70
40,156,6878,1,0,0:0:0:0:
40,156,7056,1,0,0:0:0:0:
310,41,7235,2,0,L|285:212,1,140
430,178,7592,1,0,0:0:0:0:
233,264,7770,1,0,0:0:0:0:
453,304,7949,5,0,0:0:0:0:
208,95,8128,1,0,0:0:0:0:
451,66,8306,2,0,P|428:140|308:200,1,210
257,176,8663,2,0,P|273:243|351:254,1,140
308,64,9020,1,0,0:0:0:0:
308,64,9110,1,0,0:0:0:0:
308,64,9199,1,0,0:0:0:0:
445,226,9378,1,0,0:0:0:0:
197,293,9556,5,0,0:0:0:0:
376,136,9735,1,0,0:0:0:0:
344,328,9913,1,0,0:0:0:0:
144,168,10092,1,0,0:0:0:0:
310,41,10270,1,0,0:0:0:0:
96,80,10449,5,0,0:0:0:0:
357,237,10628,1,0,0:0:0:0:
122,194,10806,5,0,0:0:0:0:
432,88,10985,1,0,0:0:0:0:
184,40,11163,5,0,0:0:0:0:
296,336,11342,1,0,0:0:0:0:
152,119,11520,1,0,0:0:0:0:
117,90,11609,1,0,0:0:0:0:
72,99,11698,1,0,0:0:0:0:
51,138,11787,1,0,0:0:0:0:
72,252,11878,1,0,0:0:0:0:
136,275,11967,1,0,0:0:0:0:
204,263,12056,1,0,0:0:0:0:
257,218,12145,1,0,0:0:0:0:
296,154,12235,6,0,L|301:135,1,17.5
372,336,12413,1,0,0:0:0:0:
190,189,12592,2,0,B|217:154|217:154|234:106|234:106|285:22,1,140
477,203,12949,2,0,L|322:226,1,140
438,56,13306,1,0,0:0:0:0:
438,56,13485,1,0,0:0:0:0:
83,246,13663,6,0,L|221:225,1,140
127,353,14020,1,0,0:0:0:0:
127,353,14199,1,0,0:0:0:0:
120,129,14378,2,0,L|125:110,1,17.5
381,249,14556,1,0,0:0:0:0:
327,72,14735,1,0,0:0:0:0:
222,328,14913,1,0,0:0:0:0:
215,143,15092,6,0,B|255:168|184:188|184:188|141:177|160:220|182:254|182:254|128:260|104:208|104:208|79:223|46:216|46:216|81:266|48:312,1,420
297,347,15806,1,0,0:0:0:0:
128,231,15984,1,0,0:0:0:0:
297,347,16163,1,0,0:0:0:0:
172,72,16342,1,0,0:0:0:0:
172,72,16520,6,0,L|231:46,1,35
306,85,16699,2,0,L|255:109,1,35
221,191,16878,1,0,0:0:0:0:
332,256,17056,1,0,0:0:0:0:
332,256,17235,2,0,P|368:328|384:256,1,157.500006008148
436,248,17592,2,0,B|468:216|456:164|424:140|424:140|480:104|448:84,1,140
204,76,17949,6,0,L|195:58,1,17.5
200,316,18128,1,0,0:0:0:0:
477,73,18306,1,0,0:0:0:0:
477,73,18485,1,0,0:0:0:0:
385,199,18663,2,0,P|372:129|330:89,1,105.000004005432
95,269,19020,1,0,0:0:0:0:
95,269,19199,1,0,0:0:0:0:
312,145,19378,6,0,L|161:159,1,140
308,276,19735,1,0,0:0:0:0:
45,162,19913,1,0,0:0:0:0:
258,53,20092,1,0,0:0:0:0:
258,53,20270,1,0,0:0:0:0:
158,317,20449,1,0,0:0:0:0:
386,141,20628,1,0,0:0:0:0:
64,37,20806,5,0,0:0:0:0:
465,348,21163,1,0,0:0:0:0:
196,252,21520,2,0,B|153:232|119:253|119:253|132:217|109:162,1,140
316,132,21878,2,0,B|359:152|393:131|393:131|380:167|403:222,1,140
47,348,22235,5,0,0:0:0:0:
448,37,22592,1,0,0:0:0:0:
479,169,22770,1,0,0:0:0:0:
327,55,22949,1,0,0:0:0:0:
271,74,23038,1,0,0:0:0:0:
243,125,23127,1,0,0:0:0:0:
261,180,23216,1,0,0:0:0:0:
221,214,23306,1,0,0:0:0:0:
163,223,23395,1,0,0:0:0:0:
106,205,23484,1,0,0:0:0:0:
66,161,23573,1,0,0:0:0:0:
63,86,23663,6,0,L|68:67,1,17.5
159,302,24020,1,0,0:0:0:0:
181,157,24199,1,0,0:0:0:0:
181,157,24378,1,0,0:0:0:0:
444,297,24735,1,0,0:0:0:0:
414,105,24913,1,0,0:0:0:0:
414,105,25092,5,0,0:0:0:0:
217,232,25270,1,0,0:0:0:0:
361,279,25449,1,0,0:0:0:0:
291,90,25628,1,0,0:0:0:0:
75,288,25806,2,0,P|96:340|139:255,1,210
91,222,26163,2,0,P|75:148|115:72,1,157.500006008148
146,159,26520,6,0,B|181:157|181:157|214:165|214:165|252:150|252:150|271:162|271:162|296:147|296:147|303:153|303:153|319:177|319:177|350:160|350:160|359:156|359:156|372:157,1,210.000008010865
210,93,27056,1,0,0:0:0:0:
210,93,27235,1,0,0:0:0:0:
416,320,27592,1,0,0:0:0:0:
208,356,27770,1,0,0:0:0:0:
208,356,27949,5,0,0:0:0:0:
307,153,28128,1,0,0:0:0:0:
351,277,28306,1,0,0:0:0:0:
141,155,28485,1,0,0:0:0:0:
141,155,28574,1,0,0:0:0:0:
141,155,28663,1,0,0:0:0:0:
298,55,28842,1,0,0:0:0:0:
220,271,29020,1,0,0:0:0:0:
418,227,29199,1,0,0:0:0:0:
418,227,29288,1,0,0:0:0:0:
418,227,29378,6,0,P|422:113|403:82,1,105.000004005432
298,55,29735,2,0,P|290:135|304:189,1,105.000004005432
294,158,30003,1,0,0:0:0:0:
294,158,30092,1,0,0:0:0:0:
71,234,30270,1,0,0:0:0:0:
292,331,30449,1,0,0:0:0:0:
214,104,30628,1,0,0:0:0:0:
214,104,30717,1,0,0:0:0:0:
214,104,30806,6,0,P|146:66|83:78,1,105.000004005432
150,231,31163,2,0,P|230:293|256:293,1,105.000004005432
228,292,31431,1,0,0:0:0:0:
228,292,31520,1,0,0:0:0:0:
332,157,31699,1,0,0:0:0:0:
139,55,31878,1,0,0:0:0:0:
139,55,31967,1,0,0:0:0:0:
139,55,32056,1,0,0:0:0:0:
117,339,32235,5,0,0:0:0:0:
210,121,32413,1,0,0:0:0:0:
301,349,32592,1,0,0:0:0:0:
301,349,32770,1,0,0:0:0:0:
301,77,32949,1,0,0:0:0:0:
141,297,33128,1,0,0:0:0:0:
399,213,33306,1,0,0:0:0:0:
141,129,33485,1,0,0:0:0:0:
460,80,34020,6,0,L|440:268,1,157.500006008148
456,252,34378,1,0,0:0:0:0:
456,252,34497,1,0,0:0:0:0:
456,252,34616,1,0,0:0:0:0:
456,252,34735,2,0,P|417:300|361:304,1,105.000004005432
296,64,35092,5,0,0:0:0:0:
124,152,35270,1,0,0:0:0:0:
304,324,35449,2,0,P|304:248|272:204,1,105.000004005432
149,299,35806,1,0,0:0:0:0:
388,44,36163,1,0,0:0:0:0:
470,228,36342,1,0,0:0:0:0:
470,228,36431,1,0,0:0:0:0:
470,228,36520,5,0,0:0:0:0:
220,99,36699,2,0,B|208:152|208:152|205:250,1,105.000004005432
331,173,37056,1,0,0:0:0:0:
230,314,37235,2,0,L|223:297,1,17.5
44,109,37413,1,0,0:0:0:0:
240,200,37592,1,0,0:0:0:0:
156,40,37770,1,0,0:0:0:0:
99,346,37949,5,0,0:0:0:0:
99,346,38128,1,0,0:0:0:0:
196,158,38306,1,0,0:0:0:0:
287,258,38485,2,0,L|183:272,1,105.000004005432
402,32,38842,1,0,0:0:0:0:
346,155,39020,2,0,L|450:144,1,105.000004005432
349,329,39378,5,0,0:0:0:0:
349,329,39556,1,0,0:0:0:0:
207,86,39735,2,0,L|224:222,1,105.000004005432
113,292,40092,2,0,L|106:275,1,17.5
284,123,40270,1,0,0:0:0:0:
349,329,40449,1,0,0:0:0:0:
349,329,40628,1,0,0:0:0:0:
349,49,40806,5,0,0:0:0:0:
220,159,40985,1,0,0:0:0:0:
399,306,41163,2,0,P|323:327|295:316,1,105.000004005432
360,151,41520,1,0,0:0:0:0:
38,344,41878,1,0,0:0:0:0:
123,173,42056,1,0,0:0:0:0:
123,173,42145,1,0,0:0:0:0:
123,173,42235,5,0,0:0:0:0:
305,286,42413,2,0,L|288:152,1,105.000004005432
188,321,42770,1,0,0:0:0:0:
180,93,42949,2,0,L|173:110,1,17.5
101,266,43128,1,0,0:0:0:0:
309,34,43306,1,0,0:0:0:0:
243,221,43485,1,0,0:0:0:0:
451,153,43663,6,0,P|406:204|368:214,1,105.000004005432
367,216,43931,1,0,0:0:0:0:
367,216,44020,1,0,0:0:0:0:
388,47,44199,1,0,0:0:0:0:
180,93,44378,1,0,0:0:0:0:
180,93,44467,1,0,0:0:0:0:
180,93,44556,1,0,0:0:0:0:
294,147,44735,5,0,0:0:0:0:
118,311,44913,2,0,L|264:319,1,105.000004005432
367,216,45270,1,0,0:0:0:0:
367,216,45360,1,0,0:0:0:0:
367,216,45449,1,0,0:0:0:0:
110,148,45628,1,0,0:0:0:0:
305,307,45806,2,0,B|332:292|368:280|408:304|408:304|416:252|448:244|476:232|454:173,1,210.000008010865
292,75,46342,1,0,0:0:0:0:
292,75,46520,5,0,0:0:0:0:
450,59,46699,1,0,0:0:0:0:
291,228,46878,2,0,P|223:217|185:185,1,105.000004005432
287,71,47235,1,0,0:0:0:0:
147,85,47413,1,0,0:0:0:0:
411,227,47592,1,0,0:0:0:0:
346,340,47770,1,0,0:0:0:0:
346,340,47860,1,0,0:0:0:0:
346,340,47949,5,0,0:0:0:0:
459,146,48128,2,0,L|347:159,1,105.000004005432
208,295,48485,1,0,0:0:0:0:
387,45,48663,1,0,0:0:0:0:
158,97,48842,1,0,0:0:0:0:
354,226,49020,1,0,0:0:0:0:
124,289,49199,1,0,0:0:0:0:
290,80,49378,6,0,L|297:96,1,17.5
354,226,49556,1,0,0:0:0:0:
186,229,49735,1,0,0:0:0:0:
186,229,49913,1,0,0:0:0:0:
399,107,50092,6,0,L|384:117,1,17.5
255,308,50270,1,0,0:0:0:0:
222,55,50449,1,0,0:0:0:0:
186,229,50628,6,0,L|190:211,1,17.5
361,64,50806,1,0,0:0:0:0:
127,134,50985,6,0,L|140:145,1,17.5
426,229,51163,1,0,0:0:0:0:
426,229,51342,1,0,0:0:0:0:
214,39,51520,6,0,L|221:55,1,17.5
346,331,51699,2,0,B|296:318|296:318|241:324,1,105.000004005432
215,347,51997,2,0,B|180:355|180:355|140:355,1,70.0000026702882
221,155,52235,5,0,0:0:0:0:
66,78,52413,1,0,0:0:0:0:
224,232,52592,2,0,P|282:203|299:159,1,105.000004005432
141,48,52949,6,0,L|148:64,5,17.5
425,277,53306,1,0,0:0:0:0:
405,122,53485,1,0,0:0:0:0:
405,122,53574,1,0,0:0:0:0:
405,122,53663,5,0,0:0:0:0:
221,308,53842,2,0,L|97:321,1,105.000004005432
194,127,54199,1,0,0:0:0:0:
470,263,54378,2,0,L|477:279,1,17.5
405,122,54556,2,0,L|398:106,1,17.5
470,263,54735,2,0,L|477:279,1,17.5
405,122,54913,2,0,L|398:106,1,17.5
136,339,55092,5,0,0:0:0:0:
355,40,55449,1,0,0:0:0:0:
193,120,55628,1,0,0:0:0:0:
351,205,55806,2,0,P|439:199|475:160,1,105.000004005432
449,191,56163,1,0,0:0:0:0:
215,249,56342,2,0,P|175:233|79:241,1,105.000004005432
394,140,56699,5,0,0:0:0:0:
394,140,56788,1,0,0:0:0:0:
394,140,56878,1,0,0:0:0:0:
193,120,57056,1,0,0:0:0:0:
318,302,57235,2,0,B|254:295|188:352|188:352|181:315|181:315|149:320|149:320|136:289|136:289|65:307|71:256,1,315.000012016297
355,55,57949,5,0,0:0:0:0:
355,55,58128,1,0,0:0:0:0:
438,260,58306,1,0,0:0:0:0:
126,257,58485,1,0,0:0:0:0:
261,58,58663,1,0,0:0:0:0:
267,344,58842,1,0,0:0:0:0:
108,115,59020,1,0,0:0:0:0:
335,260,59199,1,0,0:0:0:0:
355,55,59378,5,0,0:0:0:0:
155,331,59556,1,0,0:0:0:0:
414,127,59735,2,0,P|431:175|417:225,1,105.000004005432
155,331,60092,2,0,L|258:345,1,105.000004005432
355,177,60449,1,0,0:0:0:0:
142,260,60628,1,0,0:0:0:0:
355,177,60806,5,0,0:0:0:0:
67,57,60985,1,0,0:0:0:0:
301,248,61163,2,0,P|368:259|428:237,1,105.000004005432
292,38,61520,2,0,L|288:151,1,105.000004005432
405,102,61878,1,0,0:0:0:0:
142,260,62056,1,0,0:0:0:0:
205,47,62235,5,0,0:0:0:0:
377,269,62413,1,0,0:0:0:0:
106,195,62592,1,0,0:0:0:0:
316,102,62770,1,0,0:0:0:0:
179,335,62949,1,0,0:0:0:0:
179,335,63128,1,0,0:0:0:0:
121,72,63306,1,0,0:0:0:0:
377,269,63485,1,0,0:0:0:0:
241,341,63663,5,0,0:0:0:0:
191,325,63752,1,0,0:0:0:0:
148,295,63841,1,0,0:0:0:0:
118,252,63930,1,0,0:0:0:0:
104,202,64020,1,0,0:0:0:0:
288,191,64199,1,0,0:0:0:0:
186,49,64378,1,0,0:0:0:0:
412,93,64556,1,0,0:0:0:0:
186,49,64735,1,0,0:0:0:0:
421,208,64913,1,0,0:0:0:0:
221,254,65092,5,0,0:0:0:0:
358,47,65270,1,0,0:0:0:0:
340,272,65449,2,0,P|384:247|429:191,1,105.000004005432
186,49,65806,2,0,L|163:203,1,105.000004005432
430,332,66163,1,0,0:0:0:0:
139,324,66342,1,0,0:0:0:0:
357,129,66520,5,0,0:0:0:0:
357,129,66699,2,0,B|331:106|334:66|334:66|277:124|241:44|192:118|192:118|177:86|148:90,1,280
96,274,67592,5,0,0:0:0:0:
250,156,67770,1,0,0:0:0:0:
222,322,67949,1,0,0:0:0:0:
222,322,68128,1,0,0:0:0:0:
344,223,68306,5,0,0:0:0:0:
123,185,68485,1,0,0:0:0:0:
331,52,68663,1,0,0:0:0:0:
331,52,68842,1,0,0:0:0:0:
305,318,69020,5,0,0:0:0:0:
250,156,69199,1,0,0:0:0:0:
44,332,69378,5,0,0:0:0:0:
154,74,69735,1,0,0:0:0:0:
393,218,70092,1,0,0:0:0:0:
249,282,70360,1,0,0:0:0:0:
249,124,70628,1,0,0:0:0:0:
249,124,70806,5,0,0:0:0:0:
59,329,71163,1,0,0:0:0:0:
101,227,71342,1,0,0:0:0:0:
101,227,71431,1,0,0:0:0:0:
101,227,71520,1,0,0:0:0:0:
245,291,71788,1,0,0:0:0:0:
245,133,72056,1,0,0:0:0:0:
389,169,72235,6,0,P|370:218|345:234,1,70
245,291,72592,2,0,P|236:253|257:199,1,70
313,146,72949,2,0,L|233:131,1,70
233,146,73217,2,0,L|152:130,1,70
154,147,73485,2,0,L|98:142,1,35
106,155,73663,5,0,0:0:0:0:
106,155,74020,1,0,0:0:0:0:
409,147,74378,1,0,0:0:0:0:
319,276,74645,1,0,0:0:0:0:
463,338,74913,1,0,0:0:0:0:
463,338,75092,5,0,0:0:0:0:
194,53,75449,1,0,0:0:0:0:
136,160,75628,1,0,0:0:0:0:
136,160,75717,1,0,0:0:0:0:
136,160,75806,1,0,0:0:0:0:
305,131,75985,1,0,0:0:0:0:
305,131,76074,1,0,0:0:0:0:
305,131,76163,1,0,0:0:0:0:
212,280,76342,1,0,0:0:0:0:
54,169,76520,5,0,0:0:0:0:
301,266,76699,1,0,0:0:0:0:
301,266,76788,1,0,0:0:0:0:
301,266,76878,1,0,0:0:0:0:
232,56,77056,1,0,0:0:0:0:
232,56,77145,1,0,0:0:0:0:
232,56,77235,1,0,0:0:0:0:
136,244,77413,1,0,0:0:0:0:
383,188,77592,1,0,0:0:0:0:
145,87,77770,1,0,0:0:0:0:
309,344,77949,5,0,0:0:0:0:
309,344,78128,1,0,0:0:0:0:
437,118,78306,2,0,P|331:118|299:144,1,105.000004005432
419,274,78663,2,0,L|426:290,2,17.5
88,265,79020,5,0,0:0:0:0:
145,87,79199,2,0,P|225:59|345:107,1,210.000008010865
338,100,79645,1,0,0:0:0:0:
338,100,79735,1,0,0:0:0:0:
88,265,79913,1,0,0:0:0:0:
333,316,80092,2,0,B|388:282|432:289|432:289|393:259|385:196|452:167|417:145|417:145|440:120|432:95,1,315.000012016297
180,72,80806,5,0,0:0:0:0:
180,72,80985,1,0,0:0:0:0:
340,172,81163,2,0,P|264:212|244:272,1,105.000004005432
365,306,81520,1,0,0:0:0:0:
152,152,81699,1,0,0:0:0:0:
440,96,81878,1,0,0:0:0:0:
400,240,82056,1,0,0:0:0:0:
400,240,82145,1,0,0:0:0:0:
400,240,82235,5,0,0:0:0:0:
219,122,82413,2,0,L|324:132,1,105.000004005432
136,256,82770,1,0,0:0:0:0:
340,40,82949,2,0,L|322:45,1,17.5
132,160,83128,1,0,0:0:0:0:
368,240,83306,1,0,0:0:0:0:
136,48,83485,1,0,0:0:0:0:
437,184,83663,5,0,0:0:0:0:
440,223,83752,1,0,0:0:0:0:
432,261,83841,1,0,0:0:0:0:
412,295,83930,1,0,0:0:0:0:
382,320,84020,1,0,0:0:0:0:
294,150,84199,1,0,0:0:0:0:
294,150,84378,2,0,B|237:139|237:139|168:139,1,112
64,329,84735,1,0,0:0:0:0:
64,329,84913,2,0,B|126:334|126:334|196:313,1,122.500001168251
404,96,85270,5,0,0:0:0:0:
404,96,85449,2,0,B|429:160|429:160|421:232,1,132.999996448517
142,186,85806,2,0,B|106:126|106:126|120:33,1,140
431,303,86163,2,0,B|383:320|383:320|325:306|325:306|233:320,1,140
404,96,86520,5,0,0:0:0:0:
185,73,86699,1,0,0:0:0:0:
430,184,86878,2,0,P|354:205|312:237,1,115.500001101494
432,303,87235,1,0,0:0:0:0:
222,154,87413,1,0,0:0:0:0:
463,45,87592,1,0,0:0:0:0:
355,228,87770,1,0,0:0:0:0:
355,228,87860,1,0,0:0:0:0:
355,228,87949,5,0,0:0:0:0:
104,54,88128,2,0,L|121:168,1,115.500001101494
78,310,88485,1,0,0:0:0:0:
271,220,88663,2,0,L|253:225,1,17.5
39,107,88842,1,0,0:0:0:0:
200,337,89020,1,0,0:0:0:0:
200,337,89199,1,0,0:0:0:0:
217,39,89378,6,0,P|152:90|129:152,1,115.500001101494
137,117,89645,1,0,0:0:0:0:
137,117,89735,1,0,0:0:0:0:
422,343,89913,2,0,P|446:290|455:234,1,115.500001101494
454,233,90181,1,0,0:0:0:0:
454,233,90270,1,0,0:0:0:0:
251,134,90449,1,0,0:0:0:0:
83,271,90628,2,0,L|263:256,1,129.499999505997
386,94,90985,5,0,0:0:0:0:
386,94,91074,1,0,0:0:0:0:
386,94,91163,1,0,0:0:0:0:
322,316,91342,1,0,0:0:0:0:
175,57,91520,2,0,B|130:27|95:71|37:55|37:55|57:82|101:97|101:97|76:134|76:134|97:132|97:132|76:153|70:172|144:136|107:238,1,357.000006809235
402,342,92235,6,0,P|426:297|424:194,1,119.000002269745
432,230,92503,1,0,0:0:0:0:
432,230,92592,1,0,0:0:0:0:
219,246,92770,1,0,0:0:0:0:
409,82,92949,2,0,P|352:69|297:89,1,119.000002269745
333,213,93306,1,0,0:0:0:0:
165,67,93485,1,0,0:0:0:0:
165,67,93574,1,0,0:0:0:0:
165,67,93663,5,0,0:0:0:0:
184,232,93842,2,0,L|60:249,1,119.000002269745
251,347,94199,1,0,0:0:0:0:
83,121,94378,2,0,L|100:128,1,17.5
305,140,94556,1,0,0:0:0:0:
61,322,94735,1,0,0:0:0:0:
237,78,94913,1,0,0:0:0:0:
472,296,95092,5,0,0:0:0:0:
472,296,95270,1,0,0:0:0:0:
168,136,95449,1,0,0:0:0:0:
312,292,95628,1,0,0:0:0:0:
364,56,95806,6,0,L|348:65,1,17.5
216,256,95985,1,0,0:0:0:0:
216,256,96163,1,0,0:0:0:0:
404,216,96342,6,0,L|392:202,1,17.5
180,52,96520,1,0,0:0:0:0:
96,316,96699,6,0,L|111:306,1,17.5
344,136,96878,1,0,0:0:0:0:
344,136,97056,1,0,0:0:0:0:
57,71,97235,6,0,L|67:84,1,17.5
296,328,97413,2,0,B|325:285|325:285|338:231,1,105.000004005432
325,199,97711,2,0,B|329:163|329:163|343:125,1,70.0000026702882
464,152,97949,5,0,0:0:0:0:
239,248,98128,1,0,0:0:0:0:
251,46,98306,2,0,P|183:62|150:104,1,115.500001101494
383,260,98663,2,0,L|390:276,5,17.5
229,119,99020,1,0,0:0:0:0:
138,294,99199,1,0,0:0:0:0:
138,294,99288,1,0,0:0:0:0:
138,294,99378,5,0,0:0:0:0:
408,133,99556,2,0,L|381:266,1,129.499999505997
299,87,99913,1,0,0:0:0:0:
475,261,100092,2,0,L|474:243,1,17.5
460,38,100270,1,0,0:0:0:0:
298,246,100449,2,0,L|302:228,1,17.5
161,51,100628,2,0,L|165:68,1,17.5
299,318,100806,5,0,0:0:0:0:
299,87,100985,1,0,0:0:0:0:
163,273,101163,1,0,0:0:0:0:
382,202,101342,1,0,0:0:0:0:
163,131,101520,2,0,L|5:107,1,129.499999505997
299,318,101878,5,0,0:0:0:0:
299,87,102056,2,0,P|440:123|446:132,1,129.499999505997
163,273,102413,5,0,0:0:0:0:
163,273,102503,1,0,0:0:0:0:
163,273,102592,1,0,0:0:0:0:
382,202,102770,1,0,0:0:0:0:
163,130,102949,2,0,B|88:106|79:179|22:185|22:185|43:184|43:184|32:221|32:221|72:202|72:202|56:364|177:345,1,420
259,195,103663,5,0,0:0:0:0:
196,64,114735,6,0,B|224:64|224:64|244:60|244:60|256:68|256:68|272:60|272:60|288:68|288:68|308:60|308:60|332:68|332:68|356:60|356:60|380:64|380:64|408:60|440:68|456:116,1,280
292,280,115449,5,0,0:0:0:0:
180,288,115628,1,0,0:0:0:0:
104,204,115806,2,0,B|120:156|120:156|112:96,1,90.9999958343508
308,80,116163,2,0,B|272:116|272:116|260:168,1,90.9999958343508
276,264,116520,1,0,0:0:0:0:
376,308,116699,1,0,0:0:0:0:
456,236,116878,2,0,B|464:180|464:180|496:136,1,90.9999958343508
240,104,117235,2,0,B|252:156|252:156|232:224,1,90.9999958343508
164,272,117592,1,0,0:0:0:0:
76,208,117770,1,0,0:0:0:0:
184,48,117949,6,0,L|320:40,1,105.000004005432
308,236,118306,2,0,L|172:244,1,105.000004005432
288,41,118663,6,0,L|408:104,1,105.000004005432
203,242,119020,2,0,L|82:178,1,105.000004005432
381,89,119378,6,0,L|386:225,1,105.000004005432
109,193,119735,2,0,L|103:56,1,105.000004005432
224,44,120092,1,0,0:0:0:0:
320,128,120270,1,0,0:0:0:0:
296,252,120449,1,0,0:0:0:0:
296,252,120628,1,0,0:0:0:0:
64,312,120806,6,0,L|64:216,1,70
80,140,121163,1,0,0:0:0:0:
180,104,121342,1,0,0:0:0:0:
332,144,121520,6,0,L|332:249,1,105.000004005432
184,300,121877,1,0,0:0:0:0:
52,212,122056,1,0,0:0:0:0:
176,40,122235,6,0,L|324:40,1,140
412,176,122592,1,0,0:0:0:0:
296,300,122771,1,0,0:0:0:0:
136,240,122949,6,0,L|124:100,1,119.000002269745
260,72,123306,1,0,0:0:0:0:
380,152,123485,1,0,0:0:0:0:
244,196,123663,1,0,0:0:0:0:
244,196,123753,1,0,0:0:0:0:
244,196,123842,1,0,0:0:0:0:
244,196,123931,1,0,0:0:0:0:
244,196,124020,1,0,0:0:0:0:
244,196,124110,1,0,0:0:0:0:
244,196,124199,1,0,0:0:0:0:
244,196,124288,1,0,0:0:0:0:
244,196,124378,2,0,L|284:224,7,35
272,216,124735,2,0,L|292:232,9,23.3333333333333
290,230,125092,1,0,0:0:0:0:
160,56,126163,5,0,0:0:0:0:
107,101,126252,1,0,0:0:0:0:
80,165,126341,1,0,0:0:0:0:
83,234,126430,1,0,0:0:0:0:
116,296,126520,1,0,0:0:0:0:
312,76,126699,1,0,0:0:0:0:
452,248,126878,2,0,P|402:306|287:352,1,140
392,52,127235,1,0,0:0:0:0:
176,260,127413,1,0,0:0:0:0:
404,160,127592,1,0,0:0:0:0:
84,56,127770,1,0,0:0:0:0:
176,332,127949,6,0,L|360:352,1,140
164,176,128306,1,0,0:0:0:0:
360,52,128485,1,0,0:0:0:0:
389,114,128574,1,0,0:0:0:0:
387,184,128663,1,0,0:0:0:0:
184,60,128842,1,0,0:0:0:0:
288,268,129020,1,0,0:0:0:0:
48,124,129199,1,0,0:0:0:0:
320,136,129378,5,0,0:0:0:0:
120,292,129556,1,0,0:0:0:0:
152,132,129735,1,0,0:0:0:0:
152,132,129913,1,0,0:0:0:0:
292,352,130092,2,0,B|361:338|361:338|445:287,1,140
420,81,130449,1,0,0:0:0:0:
420,81,130628,2,0,B|361:45|361:45|292:32,1,140
76,152,130985,5,0,0:0:0:0:
76,152,131163,2,0,B|101:223|101:223|174:303,1,140
248,124,131520,1,0,0:0:0:0:
208,336,131699,1,0,0:0:0:0:
372,252,131878,1,0,0:0:0:0:
372,252,132056,1,0,0:0:0:0:
152,48,132235,5,0,0:0:0:0:
328,64,132413,1,0,0:0:0:0:
96,168,132592,2,0,L|111:157,1,17.5
236,232,132770,2,0,L|390:248,1,140
248,124,133128,1,0,0:0:0:0:
372,328,133306,2,0,L|353:325,1,17.5
152,248,133485,1,0,0:0:0:0:
440,226,133663,5,0,0:0:0:0:
296,72,133842,1,0,0:0:0:0:
440,226,134020,1,0,0:0:0:0:
296,72,134199,1,0,0:0:0:0:
86,180,134378,2,0,B|72:256|72:256|76:320,1,140
300,224,134735,2,0,L|281:221,1,17.5
132,84,134913,1,0,0:0:0:0:
248,312,135092,6,0,L|428:292,1,140
240,128,135449,1,0,0:0:0:0:
240,128,135628,1,0,0:0:0:0:
440,72,135806,2,0,B|444:148|444:148|412:212,1,140
240,128,136163,1,0,0:0:0:0:
364,328,136342,1,0,0:0:0:0:
364,328,136431,1,0,0:0:0:0:
364,328,136520,5,0,0:0:0:0:
240,128,136699,1,0,0:0:0:0:
96,328,136878,2,0,L|76:140,1,140
240,288,137235,1,0,0:0:0:0:
96,72,137413,1,0,0:0:0:0:
96,72,137503,1,0,0:0:0:0:
96,72,137592,1,0,0:0:0:0:
364,128,137770,1,0,0:0:0:0:
172,344,137949,5,0,0:0:0:0:
364,328,138128,1,0,0:0:0:0:
172,232,138306,2,0,B|104:208|104:208|48:152,1,140
276,120,138663,1,0,0:0:0:0:
276,120,138842,1,0,0:0:0:0:
224,300,139020,1,0,0:0:0:0:
468,40,139199,2,0,L|296:56,1,140
124,236,139556,5,0,0:0:0:0:
124,236,139735,2,0,L|296:220,1,140
72,80,140092,1,0,0:0:0:0:
320,320,140270,1,0,0:0:0:0:
376,108,140449,1,0,0:0:0:0:
152,332,140628,1,0,0:0:0:0:
176,64,140806,6,0,L|332:76,1,140
68,292,141163,1,0,0:0:0:0:
68,292,141342,1,0,0:0:0:0:
356,220,141520,6,0,L|375:223,1,17.5
136,156,141699,1,0,0:0:0:0:
136,156,141878,1,0,0:0:0:0:
232,328,142056,6,0,L|224:345,1,17.5
300,72,142235,1,0,0:0:0:0:
72,288,142413,6,0,L|57:300,1,17.5
432,84,142592,1,0,0:0:0:0:
432,84,142770,1,0,0:0:0:0:
84,76,142949,6,0,B|60:140|60:140|64:268,2,157.500006008148
221,225,143663,2,0,B|188:217|188:217|134:228|134:228|131:160,2,157.500006008148
309,351,144378,2,0,B|258:352|258:352|248:310|248:310|188:289|188:289|135:301,1,210.000008010865
211,222,144913,2,0,B|270:242|270:242|293:190|293:190|337:164|337:164|399:180,2,210.000008010865
367,247,145806,2,0,L|348:244,1,17.5
245,56,145985,1,0,0:0:0:0:
125,288,146163,1,0,0:0:0:0:
374,141,146342,1,0,0:0:0:0:
112,172,146520,6,0,B|118:139|103:120|103:120|137:109|137:109|119:82|123:44|123:44|92:60|55:56,2,210.000008010865
403,226,147413,1,0,0:0:0:0:
196,62,147592,1,0,0:0:0:0:
200,286,147770,1,0,0:0:0:0:
306,141,147949,2,0,B|366:144|373:98|373:98|406:89|403:44|403:44|414:64|466:80,1,210.000008010865
401,324,148485,1,0,0:0:0:0:
88,213,148663,1,0,0:0:0:0:
88,213,148842,1,0,0:0:0:0:
279,72,149020,2,0,L|436:66,1,140
111,274,149378,5,0,0:0:0:0:
279,72,149556,1,0,0:0:0:0:
267,319,149735,2,0,B|319:277|319:277|360:204,1,140
68,223,150092,5,0,0:0:0:0:
224,68,150270,1,0,0:0:0:0:
146,256,150449,1,0,0:0:0:0:
146,36,150628,1,0,0:0:0:0:
224,224,150806,1,0,0:0:0:0:
68,68,150985,1,0,0:0:0:0:
256,146,151163,1,0,0:0:0:0:
36,146,151342,1,0,0:0:0:0:
327,334,151520,5,0,0:0:0:0:
327,62,151699,1,0,0:0:0:0:
167,282,151877,1,0,0:0:0:0:
425,198,152056,1,0,0:0:0:0:
167,114,152235,1,0,0:0:0:0:
327,334,152413,5,0,0:0:0:0:
423,136,152591,1,0,0:0:0:0:
250,273,152770,1,0,0:0:0:0:
465,224,152949,1,0,0:0:0:0:
250,175,153127,1,0,0:0:0:0:
423,313,153306,1,0,0:0:0:0:
327,114,153485,1,0,0:0:0:0:
77,316,153663,5,0,0:0:0:0:
229,157,153842,1,0,0:0:0:0:
43,238,154020,1,0,0:0:0:0:
263,235,154199,1,0,0:0:0:0:
74,160,154378,1,0,0:0:0:0:
232,313,154557,1,0,0:0:0:0:
151,126,154735,1,0,0:0:0:0:
155,347,154914,1,0,0:0:0:0:
438,58,155092,6,0,L|207:76,1,140
146,235,155449,2,0,L|377:217,1,140
376,140,155806,2,0,L|145:158,1,140
83,317,156163,2,0,L|314:299,1,140
421,223,156520,5,0,0:0:0:0:
104,234,156699,1,0,0:0:0:0:
354,39,156878,1,0,0:0:0:0:
267,345,157056,1,0,0:0:0:0:
158,46,157235,1,0,0:0:0:0:
421,223,157592,5,0,0:0:0:0:
104,234,157770,1,0,0:0:0:0:
354,39,157949,1,0,0:0:0:0:
267,345,158485,1,0,0:0:0:0:
199,219,159020,6,0,B|209:160|105:152|131:84|146:31|221:8|281:31|303:82|303:82|405:59|470:124|433:245|362:256|325:209|268:249|268:249|296:274|296:274|259:285|259:285|283:308|265:348,1,840
