osu file format v13

[General]
AudioFilename: Shawn_Wasabi_-_HOTTO_DOGU_(live_original_stuff).mp3
AudioLeadIn: 0
PreviewTime: -1
Countdown: 1
SampleSet: None
StackLeniency: 0.7
Mode: 0
LetterboxInBreaks: 1
WidescreenStoryboard: 0

[Editor]
DistanceSpacing: 1.3
BeatDivisor: 4
GridSize: 4
TimelineZoom: 1.8

[Metadata]
Title:Hotto Dogu
TitleUnicode:Hotto Dogu
Artist:Shawn Wasabi
ArtistUnicode:Shawn Wasabi
Creator:Maikeru808
Version:Normal
Source:
Tags:Japanese word of the day Hotto Dogu!
BeatmapID:551862
BeatmapSetID:238621

[Difficulty]
HPDrainRate:0
CircleSize:4
OverallDifficulty:0
ApproachRate:0
SliderMultiplier:1.50000000596046
SliderTickRate:1

[Events]
//Background and Video events
//Break Periods
2,53913,69427
2,85694,88425
2,90425,108848
2,110848,113694
2,124579,133079
2,137455,142656
2,152478,170233
2,182386,185959
2,192759,208771
2,211233,229609
//Storyboard Layer 0 (Background)
//Storyboard Layer 1 (Fail)
//Storyboard Layer 2 (Pass)
//Storyboard Layer 3 (Foreground)
//Storyboard Sound Samples
//Background Colour Transformations
3,100,163,162,255

[TimingPoints]
15109.9447988985,600,4,1,0,50,1,0

[HitObjects]
136,96,13598,5,0,0:0:0:0:
204,96,13825,1,0,0:0:0:0:
276,96,14139,2,0,B|328:96|328:96|272:96,1,105
176,168,14732,1,0,0:0:0:0:
244,168,15034,2,0,L|312:168|312:168,1,105
376,172,15638,1,0,0:0:0:0:
188,240,15865,1,0,0:0:0:0:
260,240,16167,1,0,0:0:0:0:
324,240,16422,2,0,L|392:240|392:240,1,37.5000001490116,0|0,0:0|0:0,0:0:0:0:
156,80,17074,1,0,0:0:0:0:
236,80,17376,2,0,B|292:80|292:80|220:80,1,112.500000447034
360,80,18009,1,0,0:0:0:0:
168,152,18207,1,0,0:0:0:0:
232,152,18585,1,0,0:0:0:0:
292,152,18887,2,0,B|348:152|348:152|284:152,1,112.500000447034
176,236,19416,1,0,0:0:0:0:
240,236,19794,2,0,B|314:236|314:236|234:236,1,150.000000596046
372,240,20473,1,0,0:0:0:0:
176,100,20700,1,0,0:0:0:0:
236,100,21002,1,0,0:0:0:0:
296,100,21305,2,0,L|364:100|364:100,1,37.5000001490116,0|0,0:0|0:0,0:0:0:0:
184,168,21833,1,0,0:0:0:0:
256,172,22287,2,0,B|312:172|312:172|240:172,1,112.500000447034
380,168,22891,1,0,0:0:0:0:
192,236,23042,1,0,0:0:0:0:
260,244,23571,1,0,0:0:0:0:
328,240,23798,2,0,B|404:240|404:240|328:240,1,150.000000596046
188,100,24327,1,0,0:0:0:0:
264,100,24629,2,0,B|320:100|320:100|248:100,1,112.500000447034
380,104,25233,1,0,0:0:0:0:
200,168,25460,1,0,0:0:0:0:
264,168,25838,1,0,0:0:0:0:
340,168,26215,2,0,B|396:168|396:168|324:168,1,112.500000447034
200,248,26744,1,0,0:0:0:0:
280,248,27046,2,0,B|336:248|336:248|264:248,1,112.500000447034
396,252,27575,1,0,0:0:0:0:
188,88,27877,1,0,0:0:0:0:
248,88,28255,1,0,0:0:0:0:
328,88,28557,2,0,B|384:88|384:88|312:88,1,112.500000447034
200,164,29086,1,0,0:0:0:0:
276,164,29539,2,0,B|312:164|312:164|256:164,1,75.000000298023
376,164,29993,1,0,0:0:0:0:
192,244,30295,1,0,0:0:0:0:
252,244,30597,1,0,0:0:0:0:
328,240,30899,2,0,B|384:240|384:240|312:240,1,112.500000447034,0|0,0:0|0:0,0:0:0:0:
192,96,31428,1,0,0:0:0:0:
272,96,31806,2,0,B|328:96|328:96|256:96,1,112.500000447034
392,100,32410,1,0,0:0:0:0:
208,188,32713,1,0,0:0:0:0:
268,188,33015,1,0,0:0:0:0:
328,188,33317,2,0,B|384:188|384:188|320:188,1,112.500000447034
208,260,33921,1,0,0:0:0:0:
272,260,34299,2,0,L|320:260|320:260,1,37.5000001490116
368,264,34828,1,0,0:0:0:0:
208,88,35055,2,0,L|248:88,1,37.5000001490116,0|0,0:0|0:0,0:0:0:0:
280,88,35357,1,0,0:0:0:0:
348,88,35735,2,0,B|404:88|404:88|348:88,1,112.500000447034
188,184,36263,1,0,0:0:0:0:
268,184,36641,2,0,B|324:184|324:184|268:184,1,112.500000447035
384,184,37170,1,0,0:0:0:0:
236,264,37548,1,0,0:0:0:0:
328,260,37926,1,0,0:0:0:0:
180,104,38152,6,0,B|256:104|256:104|180:104,1,150.000000596046
320,108,38757,1,0,0:0:0:0:
196,172,39059,2,0,B|252:172|252:172|184:172,1,112.500000447034
316,172,39663,1,0,0:0:0:0:
208,248,40041,1,0,0:0:0:0:
280,248,40268,1,0,0:0:0:0:
188,112,40645,2,0,B|244:112|244:112|184:112,1,112.500000447034
308,104,41099,1,0,0:0:0:0:
192,180,41476,2,0,B|248:180|248:180|184:180,1,112.500000447035
312,180,41930,1,0,0:0:0:0:
192,256,42307,1,0,0:0:0:0:
256,256,42610,1,0,0:0:0:0:
316,256,42912,2,0,B|372:256|372:256|312:256,1,112.500000447035,0|0,0:0|0:0,0:0:0:0:
200,104,43516,1,0,0:0:0:0:
260,104,43818,2,0,B|316:104|316:104|260:104,1,112.500000447035,0|0,0:0|0:0,0:0:0:0:
200,184,44423,1,0,0:0:0:0:
264,184,44801,1,0,0:0:0:0:
328,184,45103,1,0,0:0:0:0:
200,256,45329,2,0,B|256:256|256:256|196:256,1,112.500000447035,0|0,0:0|0:0,0:0:0:0:
320,256,45858,1,0,0:0:0:0:
200,112,46312,2,0,B|236:112|236:112|188:112,1,75.000000298023
296,112,46840,1,0,0:0:0:0:
360,112,47218,1,0,0:0:0:0:
212,176,47596,1,0,0:0:0:0:
288,180,47747,2,0,B|324:180|324:180|272:180,1,75.000000298023,0|0,0:0|0:0,0:0:0:0:
212,256,48276,1,0,0:0:0:0:
272,252,48654,2,0,B|328:252|328:252|268:252,1,112.500000447034
220,104,49182,1,0,0:0:0:0:
280,104,49636,1,0,0:0:0:0:
216,168,50014,1,0,0:0:0:0:
276,168,50240,2,0,B|332:168|332:168|268:168,1,112.500000447034
216,248,50769,1,0,0:0:0:0:
272,248,51071,2,0,B|348:248|348:248|268:248,1,150.000000596046
208,104,51525,1,0,0:0:0:0:
272,104,51978,1,0,0:0:0:0:
332,104,52280,1,0,0:0:0:0:
224,176,52582,2,0,B|260:176|260:176|208:176,1,75.000000298023
324,176,53262,1,0,0:0:0:0:
208,256,53564,2,0,L|248:256,1,37.5000001490116
204,144,71227,5,0,0:0:0:0:
276,144,71492,1,0,0:0:0:0:
204,212,71757,2,0,B|276:212|276:212|204:212,1,112.500000447035,0|0,0:0|0:0,0:0:0:0:
256,192,73609,1,0,0:0:0:0:
252,184,75917,1,0,0:0:0:0:
256,192,80763,1,0,0:0:0:0:
256,192,83071,1,0,0:0:0:0:
256,192,85494,1,0,0:0:0:0:
260,192,90225,5,0,0:0:0:0:
256,196,110648,5,0,0:0:0:0:
196,144,115494,5,0,0:0:0:0:
261,142,116186,1,0,0:0:0:0:
185,218,116648,1,0,0:0:0:0:
254,220,117225,1,0,0:0:0:0:
185,284,117571,2,0,B|237:284|237:284|177:284,1,112.500000447034,0|0,0:0|0:0,0:0:0:0:
295,284,118263,1,0,0:0:0:0:
355,286,118609,2,0,L|355:226|355:226,1,112.500000447034,0|0,0:0|0:0,0:0:0:0:
358,153,119071,1,0,0:0:0:0:
347,76,119533,2,0,B|367:76|367:76|343:76,1,37.5000001490115,0|0,0:0|0:0,0:0:0:0:
278,82,119994,1,0,0:0:0:0:
174,91,120340,2,0,L|210:91,1,37.5000001490115,0|0,0:0|0:0,0:0:0:0:
173,182,120917,1,0,0:0:0:0:
242,182,121725,1,0,0:0:0:0:
316,187,122302,1,0,0:0:0:0:
177,267,122533,2,0,B|213:267|213:267|173:267,1,75.000000298023
292,270,123109,1,0,0:0:0:0:
372,272,123571,2,0,L|408:272|408:272,1,37.5000001490115,0|0,0:0|0:0,0:0:0:0:
381,193,123917,2,0,L|421:193,1,37.5000001490115,0|0,0:0|0:0,0:0:0:0:
397,118,124379,1,0,0:0:0:0:
159,248,134879,5,0,0:0:0:0:
207,188,135340,1,0,0:0:0:0:
283,186,136033,1,0,0:0:0:0:
336,244,136725,1,0,0:0:0:0:
212,303,136956,2,0,L|300:303|300:303,1,75.000000298023
170,189,144456,5,0,0:0:0:0:
211,121,145033,1,0,0:0:0:0:
295,120,145609,1,0,0:0:0:0:
337,197,146071,1,0,0:0:0:0:
235,233,146509,2,0,L|293:232,2,37.5000001490115,0|0|0,0:0|0:0|0:0,0:0:0:0:
220,136,149302,1,0,0:0:0:0:
302,139,149763,1,0,0:0:0:0:
222,221,150340,1,0,0:0:0:0:
302,219,150917,1,0,0:0:0:0:
226,294,151379,2,0,L|305:294,3,75.000000298023,0|0|0|0,0:0|0:0|0:0|0:0,0:0:0:0:
192,136,172033,5,0,0:0:0:0:
280,136,172148,1,0,0:0:0:0:
204,208,172494,2,0,L|272:208,1,37.5000001490115,0|0,0:0|0:0,0:0:0:0:
203,297,173186,1,0,0:0:0:0:
282,294,173763,1,0,0:0:0:0:
361,292,174109,2,0,B|394:292|394:292|353:292,1,37.5000001490115,0|0,0:0|0:0,0:0:0:0:
419,217,175033,1,0,0:0:0:0:
416,140,175609,1,0,0:0:0:0:
418,68,176071,1,0,0:0:0:0:
281,69,176533,2,0,B|337:70|337:70|272:69,1,112.500000447034,0|0,0:0|0:0,0:0:0:0:
266,153,177456,1,0,0:0:0:0:
266,232,178148,1,0,0:0:0:0:
342,236,178494,1,0,0:0:0:0:
414,237,179071,1,0,0:0:0:0:
414,165,179648,1,0,0:0:0:0:
413,90,180571,1,0,0:0:0:0:
336,96,181033,1,0,0:0:0:0:
261,104,181494,1,0,0:0:0:0:
186,104,182186,1,0,0:0:0:0:
168,164,187759,5,0,0:0:0:0:
356,160,188209,1,0,0:0:0:0:
184,248,188509,1,0,0:0:0:0:
336,248,188959,1,0,0:0:0:0:
228,160,189559,1,0,0:0:0:0:
292,157,190009,1,0,0:0:0:0:
224,240,191209,2,0,L|296:240|296:240,1,75.000000298023
256,192,191994,12,0,192559,0:0:0:0:
218,126,210571,5,0,0:0:0:0:
288,127,210686,1,0,0:0:0:0:
357,126,210802,1,0,0:0:0:0:
266,196,210917,1,0,0:0:0:0:
337,194,211033,1,0,0:0:0:0:
256,192,231409,12,0,233209,0:0:0:0:
