osu file format v14

[General]
AudioFilename: M4SONIC _ Shawn Wasabi - MarbleVirus.mp3
AudioLeadIn: 0
PreviewTime: -1
Countdown: 0
SampleSet: Normal
StackLeniency: 0.7
Mode: 3
LetterboxInBreaks: 0
SpecialStyle: 0
WidescreenStoryboard: 0

[Editor]
DistanceSpacing: 1
BeatDivisor: 4
GridSize: 4
TimelineZoom: 1

[Metadata]
Title:MarbleVirus
TitleUnicode:MarbleVirus
Artist:Shawn Wasabi & M4SONIC
ArtistUnicode:Shawn Wasabi & M4SONIC
Creator:Kaze Xion
Version:MX
Source:
Tags:Shawn Wasabi M4SONIC marblevirus EDM
BeatmapID:784241
BeatmapSetID:356354

[Difficulty]
HPDrainRate:7
CircleSize:4
OverallDifficulty:7
ApproachRate:5
SliderMultiplier:1.4
SliderTickRate:2

[Events]
//Background and Video events
0,0,"BG.png",0,0
//Break Periods
//Storyboard Layer 0 (Background)
//Storyboard Layer 1 (Fail)
//Storyboard Layer 2 (Pass)
//Storyboard Layer 3 (Foreground)
//Storyboard Sound Samples

[TimingPoints]
970,357.142857142857,4,1,0,100,1,0

[HitObjects]
64,192,970,5,0,0:0:0:0:
192,192,1148,1,0,0:0:0:0:
320,192,1327,1,0,0:0:0:0:
448,192,1505,1,0,0:0:0:0:
64,192,1684,1,0,0:0:0:0:
192,192,1862,1,0,0:0:0:0:
320,192,2041,1,0,0:0:0:0:
448,192,2219,1,0,0:0:0:0:
64,192,2398,1,0,0:0:0:0:
192,192,2577,1,0,0:0:0:0:
320,192,2755,1,0,0:0:0:0:
448,192,2934,1,0,0:0:0:0:
64,192,3112,1,0,0:0:0:0:
192,192,3291,1,0,0:0:0:0:
448,192,3469,1,0,0:0:0:0:
320,192,3648,1,0,0:0:0:0:
64,192,3827,1,0,0:0:0:0:
448,192,3827,1,0,0:0:0:0:
192,192,4005,1,0,0:0:0:0:
64,192,4184,1,0,0:0:0:0:
192,192,4362,1,0,0:0:0:0:
320,192,4541,1,0,0:0:0:0:
448,192,4541,1,0,0:0:0:0:
192,192,4719,1,0,0:0:0:0:
320,192,4898,1,0,0:0:0:0:
192,192,5077,1,0,0:0:0:0:
320,192,5255,1,0,0:0:0:0:
192,192,5434,1,0,0:0:0:0:
320,192,5523,1,0,0:0:0:0:
448,192,5612,128,0,5791:0:0:0:0:
64,192,5612,1,0,0:0:0:0:
320,192,5791,128,0,5969:0:0:0:0:
192,192,5791,1,0,0:0:0:0:
192,192,5969,128,0,6148:0:0:0:0:
64,192,5969,1,0,0:0:0:0:
448,192,6148,1,0,0:0:0:0:
320,192,6327,1,0,0:0:0:0:
64,192,6327,1,0,0:0:0:0:
192,192,6505,1,0,0:0:0:0:
448,192,6684,1,0,0:0:0:0:
320,192,6862,1,0,0:0:0:0:
448,192,7041,1,0,0:0:0:0:
320,192,7219,1,0,0:0:0:0:
64,192,7398,1,0,0:0:0:0:
448,192,7398,1,0,0:0:0:0:
192,192,7577,1,0,0:0:0:0:
320,192,7755,1,0,0:0:0:0:
192,192,7934,1,0,0:0:0:0:
320,192,8112,1,0,0:0:0:0:
448,192,8291,1,0,0:0:0:0:
320,192,8380,1,0,0:0:0:0:
64,192,8469,128,0,8648:0:0:0:0:
192,192,8469,1,0,0:0:0:0:
192,192,8648,128,0,8827:0:0:0:0:
320,192,8648,1,0,0:0:0:0:
320,192,8827,128,0,9005:0:0:0:0:
448,192,8827,1,0,0:0:0:0:
64,192,9005,1,0,0:0:0:0:
192,192,9184,1,0,0:0:0:0:
448,192,9184,1,0,0:0:0:0:
320,192,9362,1,0,0:0:0:0:
64,192,9541,1,0,0:0:0:0:
192,192,9541,1,0,0:0:0:0:
320,192,9630,1,0,0:0:0:0:
192,192,9719,1,0,0:0:0:0:
64,192,9809,1,0,0:0:0:0:
320,192,9898,1,0,0:0:0:0:
448,192,9898,1,0,0:0:0:0:
192,192,9987,1,0,0:0:0:0:
64,192,10077,128,0,10166:0:0:0:0:
320,192,10166,1,0,0:0:0:0:
192,192,10255,1,0,0:0:0:0:
448,192,10255,1,0,0:0:0:0:
64,192,10344,1,0,0:0:0:0:
192,192,10434,1,0,0:0:0:0:
448,192,10612,1,0,0:0:0:0:
320,192,10702,1,0,0:0:0:0:
192,192,10791,1,0,0:0:0:0:
64,192,10791,1,0,0:0:0:0:
320,192,10880,1,0,0:0:0:0:
448,192,10969,1,0,0:0:0:0:
320,192,11059,1,0,0:0:0:0:
192,192,11148,1,0,0:0:0:0:
64,192,11237,1,0,0:0:0:0:
320,192,11327,1,0,0:0:0:0:
448,192,11327,1,0,0:0:0:0:
192,192,11416,1,0,0:0:0:0:
64,192,11505,1,0,0:0:0:0:
448,192,11684,1,0,0:0:0:0:
192,192,11684,1,0,0:0:0:0:
320,192,11773,1,0,0:0:0:0:
192,192,11862,1,0,0:0:0:0:
64,192,11952,1,0,0:0:0:0:
448,192,12041,1,0,0:0:0:0:
192,192,12041,1,0,0:0:0:0:
320,192,12130,1,0,0:0:0:0:
192,192,12219,1,0,0:0:0:0:
64,192,12219,128,0,12398:0:0:0:0:
320,192,12398,1,0,0:0:0:0:
448,192,12398,1,0,0:0:0:0:
192,192,12487,1,0,0:0:0:0:
320,192,12577,1,0,0:0:0:0:
448,192,12666,1,0,0:0:0:0:
192,192,12755,1,0,0:0:0:0:
320,192,12755,1,0,0:0:0:0:
64,192,12844,1,0,0:0:0:0:
192,192,12934,1,0,0:0:0:0:
320,192,13023,1,0,0:0:0:0:
448,192,13112,1,0,0:0:0:0:
320,192,13202,1,0,0:0:0:0:
64,192,13469,128,0,13648:0:0:0:0:
320,192,13648,1,0,0:0:0:0:
192,192,13648,1,0,0:0:0:0:
448,192,13737,1,0,0:0:0:0:
320,192,13827,1,0,0:0:0:0:
192,192,14005,1,0,0:0:0:0:
64,192,14094,1,0,0:0:0:0:
192,192,14184,1,0,0:0:0:0:
320,192,14184,1,0,0:0:0:0:
448,192,14184,128,0,14362:0:0:0:0:
320,192,14362,128,0,14541:0:0:0:0:
192,192,14362,1,0,0:0:0:0:
192,192,14541,128,0,14719:0:0:0:0:
448,192,14541,1,0,0:0:0:0:
64,192,14541,1,0,0:0:0:0:
448,192,14719,1,0,0:0:0:0:
64,192,14809,1,0,0:0:0:0:
448,192,14898,1,0,0:0:0:0:
64,192,15077,1,0,0:0:0:0:
192,192,15255,1,0,0:0:0:0:
320,192,15255,1,0,0:0:0:0:
448,192,15344,1,0,0:0:0:0:
320,192,15434,1,0,0:0:0:0:
192,192,15523,1,0,0:0:0:0:
320,192,15612,1,0,0:0:0:0:
448,192,15612,1,0,0:0:0:0:
64,192,15702,1,0,0:0:0:0:
192,192,15791,1,0,0:0:0:0:
320,192,15880,1,0,0:0:0:0:
448,192,15969,1,0,0:0:0:0:
64,192,15969,1,0,0:0:0:0:
192,192,16059,1,0,0:0:0:0:
320,192,16148,1,0,0:0:0:0:
64,192,16327,1,0,0:0:0:0:
192,192,16416,1,0,0:0:0:0:
320,192,16505,1,0,0:0:0:0:
448,192,16505,1,0,0:0:0:0:
64,192,16594,1,0,0:0:0:0:
192,192,16684,1,0,0:0:0:0:
320,192,16862,1,0,0:0:0:0:
448,192,16952,1,0,0:0:0:0:
192,192,17041,1,0,0:0:0:0:
64,192,17041,1,0,0:0:0:0:
320,192,17130,1,0,0:0:0:0:
192,192,17219,1,0,0:0:0:0:
64,192,17309,1,0,0:0:0:0:
192,192,17398,1,0,0:0:0:0:
448,192,17398,1,0,0:0:0:0:
320,192,17487,1,0,0:0:0:0:
192,192,17577,1,0,0:0:0:0:
64,192,17666,1,0,0:0:0:0:
448,192,17755,1,0,0:0:0:0:
192,192,17755,1,0,0:0:0:0:
320,192,17844,1,0,0:0:0:0:
192,192,17934,1,0,0:0:0:0:
64,192,17934,128,0,18112:0:0:0:0:
320,192,18112,1,0,0:0:0:0:
448,192,18112,1,0,0:0:0:0:
192,192,18202,1,0,0:0:0:0:
64,192,18291,1,0,0:0:0:0:
448,192,18380,1,0,0:0:0:0:
320,192,18469,1,0,0:0:0:0:
192,192,18469,1,0,0:0:0:0:
64,192,18559,1,0,0:0:0:0:
192,192,18648,1,0,0:0:0:0:
320,192,18737,1,0,0:0:0:0:
64,192,18827,1,0,0:0:0:0:
448,192,18827,1,0,0:0:0:0:
192,192,18916,1,0,0:0:0:0:
320,192,19005,1,0,0:0:0:0:
64,192,19184,1,0,0:0:0:0:
192,192,19273,1,0,0:0:0:0:
320,192,19362,1,0,0:0:0:0:
448,192,19362,1,0,0:0:0:0:
64,192,19452,1,0,0:0:0:0:
192,192,19541,1,0,0:0:0:0:
320,192,19630,1,0,0:0:0:0:
64,192,19719,1,0,0:0:0:0:
192,192,19809,1,0,0:0:0:0:
64,192,19898,128,0,20077:0:0:0:0:
320,192,19898,1,0,0:0:0:0:
448,192,19898,1,0,0:0:0:0:
192,192,20077,128,0,20255:0:0:0:0:
320,192,20255,128,0,20434:0:0:0:0:
448,192,20255,1,0,0:0:0:0:
64,192,20255,1,0,0:0:0:0:
64,192,20434,1,0,0:0:0:0:
192,192,20612,1,0,0:0:0:0:
64,192,20612,1,0,0:0:0:0:
320,192,20791,1,0,0:0:0:0:
64,192,20969,1,0,0:0:0:0:
64,192,21148,1,0,0:0:0:0:
192,192,21327,1,0,0:0:0:0:
192,192,21684,1,0,0:0:0:0:
448,192,21684,128,0,22041:0:0:0:0:
64,192,22219,1,0,0:0:0:0:
64,192,22309,1,0,0:0:0:0:
64,192,22398,1,0,0:0:0:0:
448,192,22755,1,0,0:0:0:0:
448,192,22844,1,0,0:0:0:0:
64,192,23112,128,0,23469:0:0:0:0:
320,192,23291,1,0,0:0:0:0:
320,192,23380,1,0,0:0:0:0:
320,192,23469,1,0,0:0:0:0:
320,192,23648,1,0,0:0:0:0:
320,192,23827,1,0,0:0:0:0:
320,192,24005,1,0,0:0:0:0:
320,192,24184,1,0,0:0:0:0:
192,192,24541,1,0,0:0:0:0:
448,192,24541,128,0,24898:0:0:0:0:
320,192,24898,1,0,0:0:0:0:
64,192,25255,1,0,0:0:0:0:
448,192,25255,1,0,0:0:0:0:
320,192,25434,1,0,0:0:0:0:
64,192,25434,1,0,0:0:0:0:
448,192,25612,1,0,0:0:0:0:
64,192,25612,1,0,0:0:0:0:
320,192,25791,1,0,0:0:0:0:
64,192,25791,1,0,0:0:0:0:
64,192,25969,1,0,0:0:0:0:
448,192,25969,1,0,0:0:0:0:
192,192,25969,128,0,26327:0:0:0:0:
64,192,26148,1,0,0:0:0:0:
320,192,26148,1,0,0:0:0:0:
448,192,26327,128,0,27755:0:0:0:0:
320,192,26684,1,0,0:0:0:0:
320,192,26862,1,0,0:0:0:0:
320,192,27041,1,0,0:0:0:0:
64,192,27398,128,0,27755:0:0:0:0:
320,192,27398,1,0,0:0:0:0:
192,192,27934,1,0,0:0:0:0:
192,192,28023,1,0,0:0:0:0:
192,192,28112,1,0,0:0:0:0:
320,192,28469,1,0,0:0:0:0:
64,192,28827,128,0,29184:0:0:0:0:
448,192,29005,1,0,0:0:0:0:
448,192,29094,1,0,0:0:0:0:
448,192,29184,1,0,0:0:0:0:
448,192,29273,1,0,0:0:0:0:
320,192,29452,1,0,0:0:0:0:
320,192,29541,1,0,0:0:0:0:
320,192,29719,1,0,0:0:0:0:
320,192,29898,1,0,0:0:0:0:
192,192,30255,1,0,0:0:0:0:
448,192,30255,128,0,30612:0:0:0:0:
192,192,30612,1,0,0:0:0:0:
64,192,30969,1,0,0:0:0:0:
448,192,30969,1,0,0:0:0:0:
192,192,31148,1,0,0:0:0:0:
448,192,31327,1,0,0:0:0:0:
320,192,31505,1,0,0:0:0:0:
192,192,31684,1,0,0:0:0:0:
64,192,31862,1,0,0:0:0:0:
192,192,32041,1,0,0:0:0:0:
448,192,32041,128,0,32219:0:0:0:0:
320,192,32219,128,0,32398:0:0:0:0:
64,192,32398,1,0,0:0:0:0:
192,192,32398,1,0,0:0:0:0:
448,192,32577,1,0,0:0:0:0:
320,192,32666,1,0,0:0:0:0:
192,192,32755,1,0,0:0:0:0:
64,192,32755,1,0,0:0:0:0:
320,192,32844,1,0,0:0:0:0:
192,192,32934,128,0,33112:0:0:0:0:
448,192,33112,1,0,0:0:0:0:
64,192,33112,1,0,0:0:0:0:
320,192,33202,1,0,0:0:0:0:
192,192,33291,1,0,0:0:0:0:
64,192,33469,1,0,0:0:0:0:
192,192,33559,1,0,0:0:0:0:
320,192,33648,1,0,0:0:0:0:
448,192,33648,1,0,0:0:0:0:
64,192,33737,1,0,0:0:0:0:
192,192,33827,1,0,0:0:0:0:
320,192,33916,1,0,0:0:0:0:
448,192,34005,1,0,0:0:0:0:
320,192,34094,1,0,0:0:0:0:
192,192,34184,1,0,0:0:0:0:
64,192,34184,1,0,0:0:0:0:
320,192,34273,1,0,0:0:0:0:
192,192,34362,1,0,0:0:0:0:
64,192,34541,1,0,0:0:0:0:
448,192,34541,128,0,34719:0:0:0:0:
320,192,34541,1,0,0:0:0:0:
320,192,34719,1,0,0:0:0:0:
192,192,34809,1,0,0:0:0:0:
64,192,34898,1,0,0:0:0:0:
448,192,34898,1,0,0:0:0:0:
192,192,34987,1,0,0:0:0:0:
320,192,35077,128,0,35255:0:0:0:0:
64,192,35255,1,0,0:0:0:0:
448,192,35255,1,0,0:0:0:0:
192,192,35344,1,0,0:0:0:0:
320,192,35434,1,0,0:0:0:0:
448,192,35523,1,0,0:0:0:0:
320,192,35612,1,0,0:0:0:0:
192,192,35612,1,0,0:0:0:0:
64,192,35702,1,0,0:0:0:0:
192,192,35791,128,0,35969:0:0:0:0:
64,192,35969,1,0,0:0:0:0:
448,192,35969,1,0,0:0:0:0:
320,192,36059,1,0,0:0:0:0:
192,192,36148,1,0,0:0:0:0:
64,192,36327,1,0,0:0:0:0:
192,192,36416,1,0,0:0:0:0:
320,192,36505,1,0,0:0:0:0:
448,192,36505,1,0,0:0:0:0:
192,192,36594,1,0,0:0:0:0:
320,192,36684,1,0,0:0:0:0:
64,192,36862,1,0,0:0:0:0:
192,192,36952,1,0,0:0:0:0:
320,192,37041,1,0,0:0:0:0:
448,192,37041,1,0,0:0:0:0:
192,192,37130,1,0,0:0:0:0:
320,192,37219,1,0,0:0:0:0:
448,192,37309,1,0,0:0:0:0:
320,192,37398,1,0,0:0:0:0:
64,192,37398,1,0,0:0:0:0:
192,192,37487,1,0,0:0:0:0:
320,192,37577,1,0,0:0:0:0:
192,192,37666,1,0,0:0:0:0:
64,192,37755,1,0,0:0:0:0:
448,192,37755,1,0,0:0:0:0:
320,192,37844,1,0,0:0:0:0:
192,192,37934,1,0,0:0:0:0:
64,192,37934,128,0,38112:0:0:0:0:
320,192,38112,1,0,0:0:0:0:
448,192,38112,1,0,0:0:0:0:
192,192,38202,1,0,0:0:0:0:
64,192,38291,1,0,0:0:0:0:
320,192,38380,1,0,0:0:0:0:
192,192,38469,1,0,0:0:0:0:
64,192,38469,1,0,0:0:0:0:
448,192,38559,1,0,0:0:0:0:
320,192,38648,128,0,38827:0:0:0:0:
64,192,38827,1,0,0:0:0:0:
448,192,38827,1,0,0:0:0:0:
192,192,38916,1,0,0:0:0:0:
320,192,39005,1,0,0:0:0:0:
448,192,39184,1,0,0:0:0:0:
320,192,39273,1,0,0:0:0:0:
192,192,39362,1,0,0:0:0:0:
64,192,39362,1,0,0:0:0:0:
448,192,39452,1,0,0:0:0:0:
320,192,39541,1,0,0:0:0:0:
192,192,39719,1,0,0:0:0:0:
64,192,39809,1,0,0:0:0:0:
192,192,39898,1,0,0:0:0:0:
320,192,39898,1,0,0:0:0:0:
448,192,39987,1,0,0:0:0:0:
320,192,40077,1,0,0:0:0:0:
448,192,40255,1,0,0:0:0:0:
64,192,40255,128,0,40434:0:0:0:0:
192,192,40434,1,0,0:0:0:0:
320,192,40523,1,0,0:0:0:0:
448,192,40612,1,0,0:0:0:0:
64,192,40612,1,0,0:0:0:0:
192,192,40702,1,0,0:0:0:0:
320,192,40791,1,0,0:0:0:0:
448,192,40791,128,0,40969:0:0:0:0:
192,192,40969,1,0,0:0:0:0:
64,192,40969,1,0,0:0:0:0:
320,192,41059,1,0,0:0:0:0:
192,192,41148,1,0,0:0:0:0:
64,192,41237,1,0,0:0:0:0:
320,192,41327,1,0,0:0:0:0:
448,192,41327,1,0,0:0:0:0:
192,192,41416,1,0,0:0:0:0:
64,192,41505,1,0,0:0:0:0:
320,192,41594,1,0,0:0:0:0:
192,192,41684,1,0,0:0:0:0:
448,192,41684,1,0,0:0:0:0:
64,192,41773,1,0,0:0:0:0:
192,192,41862,1,0,0:0:0:0:
448,192,42041,1,0,0:0:0:0:
320,192,42130,1,0,0:0:0:0:
192,192,42219,1,0,0:0:0:0:
64,192,42219,1,0,0:0:0:0:
320,192,42309,1,0,0:0:0:0:
192,192,42398,1,0,0:0:0:0:
448,192,42577,1,0,0:0:0:0:
320,192,42666,1,0,0:0:0:0:
192,192,42755,1,0,0:0:0:0:
64,192,42755,1,0,0:0:0:0:
320,192,42844,1,0,0:0:0:0:
192,192,42934,1,0,0:0:0:0:
448,192,43112,1,0,0:0:0:0:
64,192,43112,1,0,0:0:0:0:
320,192,43202,1,0,0:0:0:0:
192,192,43291,1,0,0:0:0:0:
64,192,43380,1,0,0:0:0:0:
320,192,43469,1,0,0:0:0:0:
448,192,43469,1,0,0:0:0:0:
192,192,43559,1,0,0:0:0:0:
320,192,43648,1,0,0:0:0:0:
448,192,43737,1,0,0:0:0:0:
64,192,43827,1,0,0:0:0:0:
320,192,43827,1,0,0:0:0:0:
64,192,44362,1,0,0:0:0:0:
448,192,44362,1,0,0:0:0:0:
64,192,44541,1,0,0:0:0:0:
448,192,44541,1,0,0:0:0:0:
64,192,44898,1,0,0:0:0:0:
448,192,44987,1,0,0:0:0:0:
320,192,45077,128,0,45255:0:0:0:0:
192,192,45077,128,0,45255:0:0:0:0:
