osu file format v14

[General]
AudioFilename: me back.mp3
AudioLeadIn: 0
PreviewTime: 133175
Countdown: 1
SampleSet: Soft
StackLeniency: 0.7
Mode: 0
LetterboxInBreaks: 1
WidescreenStoryboard: 0

[Editor]
DistanceSpacing: 1.1
BeatDivisor: 4
GridSize: 32
TimelineZoom: 1

[Metadata]
Title:There's Nothin' Holding Me Back
TitleUnicode:There's Nothin' Holding Me Back
Artist:Shawn Mendes
ArtistUnicode:Shawn Mendes
Creator:Asphyxia
Version:Remedy
Source:
Tags:
BeatmapID:1433763
BeatmapSetID:678013

[Difficulty]
HPDrainRate:6
CircleSize:4
OverallDifficulty:6
ApproachRate:8
SliderMultiplier:2
SliderTickRate:1

[Events]
//Background and Video events
0,0,"wallhaven-39607.jpg",0,0
//Break Periods
2,134235,147560
//Storyboard Layer 0 (Background)
//Storyboard Layer 1 (Fail)
//Storyboard Layer 2 (Pass)
//Storyboard Layer 3 (Foreground)
//Storyboard Sound Samples

[TimingPoints]
265.253612731985,491.803278688525,4,2,0,50,1,0
23871,-142.857142857143,4,2,0,50,0,0
39609,-100,4,2,0,50,0,0
55347,-83.3333333333333,4,2,0,50,0,0
73052,-100,4,2,0,50,0,0
86822,-142.857142857143,4,2,0,50,0,0
102560,-100,4,2,0,50,0,0
118298,-83.3333333333333,4,2,0,50,0,0
134035,-200,4,2,0,50,0,1
149773,-111.111111111111,4,2,0,50,0,0
165511,-100,4,2,0,50,0,0
181248,-83.3333333333333,4,2,0,50,0,0
189117,-71.4285714285714,4,2,0,50,0,0
196740,-500,4,2,0,20,0,1
197478,-500,4,2,0,20,0,0

[Colours]
Combo1 : 128,255,128
Combo2 : 255,255,128
Combo3 : 255,128,64
Combo4 : 244,66,92

[HitObjects]
80,313,265,6,0,P|130:284|234:278,1,150
204,306,757,2,0,P|159:327|109:331,1,100
43,208,1248,2,0,P|100:208|193:255,1,150
153,264,1740,2,0,P|104:260|59:239,1,100
63,100,2232,2,0,P|113:128|170:215,1,150
131,203,2724,2,0,P|90:175|61:134,1,100
135,16,3216,2,0,P|164:66|170:170,1,150
141,140,3708,2,0,P|120:95|116:45,1,100
432,313,4199,6,0,P|382:284|278:278,1,150
308,306,4691,2,0,P|352:327|402:331,1,100
468,208,5182,2,0,P|411:208|318:255,1,150
358,264,5674,2,0,P|407:260|452:239,1,100
448,100,6166,2,0,P|398:128|341:215,1,150
380,203,6658,2,0,P|421:175|450:134,1,100
377,16,7150,2,0,P|348:66|342:170,1,150
370,140,7642,2,0,P|391:95|395:45,1,100
256,0,8134,5,0,0:0:0:0:
289,176,8502,1,0,0:0:0:0:
297,181,8625,2,0,P|249:179|180:164,1,100
198,169,9117,5,0,0:0:0:0:
6,216,9363,1,0,0:0:0:0:
106,208,9609,1,0,0:0:0:0:
198,169,9855,1,0,0:0:0:0:
252,85,10101,2,0,L|303:305,1,200
297,279,11084,1,0,0:0:0:0:
397,276,11330,2,0,P|372:335|361:379,1,100
444,188,11822,2,0,P|482:239|515:270,1,100
508,264,12560,5,0,0:0:0:0:
508,264,13052,1,0,0:0:0:0:
444,188,13298,1,0,0:0:0:0:
347,164,13543,1,0,0:0:0:0:
249,187,13789,1,0,0:0:0:0:
340,145,14035,2,0,B|288:125|227:139|268:166|194:181|148:156,1,200
148,156,15019,1,0,0:0:0:0:
92,239,15265,6,0,P|73:299|53:340,1,100
57,332,16002,5,0,0:0:0:0:
57,332,16494,2,0,P|118:317|164:314,1,100
254,325,16986,1,0,0:0:0:0:
353,360,17232,1,0,0:0:0:0:
414,277,17478,1,0,0:0:0:0:
354,192,17724,1,0,0:0:0:0:
256,223,17970,6,0,P|187:212|33:168,1,200
61,178,18953,1,0,0:0:0:0:
134,110,19199,2,0,L|231:132,1,100
298,58,19691,2,0,L|200:35,1,100
200,35,20429,5,0,0:0:0:0:
200,35,20920,1,0,0:0:0:0:
405,40,21166,5,0,0:0:0:0:
298,58,21412,1,0,0:0:0:0:
224,125,21658,1,0,0:0:0:0:
199,222,21904,6,0,P|227:163|180:14,1,200
200,35,22888,1,0,0:0:0:0:
104,64,23134,1,0,0:0:0:0:
9,97,23380,2,0,L|35:199,1,100
110,199,23871,6,0,P|96:264|38:335,1,139.999995727539
176,159,24609,1,0,0:0:0:0:
176,159,24855,2,0,L|201:312,1,139.999995727539
250,129,25593,1,0,0:0:0:0:
250,129,25839,2,0,P|263:194|321:265,1,139.999995727539
374,219,26576,1,0,0:0:0:0:
374,219,26822,2,0,P|360:153|302:82,1,139.999995727539
413,79,27560,1,0,0:0:0:0:
413,79,27806,6,0,P|396:27|394:-1,1,69.9999978637696
491,121,28298,2,0,P|508:69|510:41,1,69.9999978637696
413,79,28789,1,0,0:0:0:0:
491,121,29035,1,0,0:0:0:0:
423,158,29281,5,0,0:0:0:0:
346,164,29527,1,0,0:0:0:0:
270,149,29773,2,0,P|249:94|247:11,2,139.999995727539
270,149,31002,1,0,0:0:0:0:
217,205,31248,2,0,P|209:240|193:280,1,69.9999978637696
255,323,31740,6,0,P|310:302|393:300,1,139.999995727539
463,323,32478,1,0,0:0:0:0:
390,299,32724,2,0,P|344:261|301:190,1,139.999995727539
278,120,33461,1,0,0:0:0:0:
302,193,33707,2,0,P|292:251|252:324,1,139.999995727539
193,369,34445,1,0,0:0:0:0:
167,299,34691,2,0,P|176:240|216:167,1,139.999995727539
278,120,35429,1,0,0:0:0:0:
278,120,35675,6,0,L|262:42,1,69.9999978637696
366,121,36166,2,0,L|350:199,1,69.9999978637696
454,122,36658,2,0,L|438:44,2,69.9999978637696
461,198,37396,1,0,0:0:0:0:
489,273,37642,5,0,0:0:0:0:
366,121,38134,1,0,0:0:0:0:
461,198,38380,1,0,0:0:0:0:
428,325,38625,1,0,0:0:0:0:
382,200,38871,1,0,0:0:0:0:
359,277,39117,1,0,0:0:0:0:
366,121,39363,1,0,0:0:0:0:
382,200,39609,6,0,P|315:213|240:202,1,100
381,45,40101,2,0,P|314:32|239:43,1,100
283,211,40593,2,0,P|333:211|382:199,1,100
198,58,41084,1,0,0:0:0:0:
366,121,41330,1,0,0:0:0:0:
283,211,41576,5,0,0:0:0:0:
373,224,41822,1,0,0:0:0:0:
314,292,42068,2,0,P|265:303|215:303,1,100
373,224,42560,2,0,P|421:212|471:212,1,100
283,211,43052,1,0,0:0:0:0:
381,45,43298,1,0,0:0:0:0:
293,59,43543,5,0,0:0:0:0:
293,59,43789,1,0,0:0:0:0:
115,81,44035,2,0,P|136:127|127:184,1,100
107,0,44527,2,0,P|155:13|193:57,1,100
225,130,45019,5,0,0:0:0:0:
115,81,45265,1,0,0:0:0:0:
225,130,45511,1,0,0:0:0:0:
122,185,45757,1,0,0:0:0:0:
225,130,46002,2,0,L|234:242,1,100
122,185,46494,2,0,P|108:237|76:289,1,100
225,130,46986,1,0,0:0:0:0:
318,80,47232,2,0,P|332:132|364:184,1,100
400,282,47724,5,0,0:0:0:0:
400,282,47970,2,0,P|424:238|436:190,1,100
453,36,48461,2,0,P|477:79|489:127,1,100
489,127,48953,1,0,0:0:0:0:
318,80,49199,1,0,0:0:0:0:
453,36,49445,5,0,0:0:0:0:
318,80,49691,1,0,0:0:0:0:
489,127,49937,2,0,P|465:170|453:218,1,100
456,382,50429,2,0,P|480:339|492:291,1,100
375,195,50920,1,0,0:0:0:0:
492,290,51166,1,0,0:0:0:0:
375,195,51412,5,0,0:0:0:0:
241,265,51658,1,0,0:0:0:0:
308,129,51904,1,0,0:0:0:0:
336,280,52150,1,0,0:0:0:0:
225,175,52396,1,0,0:0:0:0:
241,265,52642,5,0,0:0:0:0:
336,280,52888,1,0,0:0:0:0:
375,195,53134,1,0,0:0:0:0:
308,129,53380,6,0,L|327:15,1,100
225,175,53871,2,0,L|208:76,1,100
375,195,54363,2,0,L|430:93,1,100
241,265,54855,1,0,0:0:0:0:
336,280,55101,1,0,0:0:0:0:
225,175,55347,6,0,P|154:158|62:240,1,179.999994506836
69,227,55839,1,0,0:0:0:0:
26,115,56084,1,0,0:0:0:0:
42,237,56330,6,0,P|113:254|205:172,1,179.999994506836
198,185,56822,1,0,0:0:0:0:
241,297,57067,1,0,0:0:0:0:
225,175,57314,6,0,P|154:158|62:240,1,179.999994506836
69,227,57806,1,0,0:0:0:0:
26,115,58051,1,0,0:0:0:0:
42,237,58298,1,0,0:0:0:0:
57,355,58543,1,0,0:0:0:0:
48,363,58666,2,0,P|91:375|126:377,1,59.9999981689454
241,297,58912,2,0,P|212:306|182:310,1,59.9999981689454
279,382,59281,6,0,L|308:204,1,179.999994506836
312,192,59773,1,0,0:0:0:0:
399,273,60019,1,0,0:0:0:0:
259,355,60265,6,0,L|288:177,1,179.999994506836
292,165,60757,1,0,0:0:0:0:
379,246,61003,1,0,0:0:0:0:
236,323,61248,6,0,L|265:145,1,179.999994506836
269,133,61740,1,0,0:0:0:0:
356,214,61986,1,0,0:0:0:0:
382,96,62232,1,0,0:0:0:0:
356,214,62478,1,0,0:0:0:0:
360,224,62601,2,0,L|344:297,1,59.9999981689454
236,323,62847,2,0,L|248:264,1,59.9999981689454
128,246,63216,6,0,P|93:166|108:39,1,179.999994506836
102,69,63707,1,0,0:0:0:0:
207,125,63953,1,0,0:0:0:0:
289,235,64199,6,0,P|202:243|85:190,1,179.999994506836
107,203,64690,1,0,0:0:0:0:
193,120,64936,1,0,0:0:0:0:
324,62,65183,6,0,P|305:147|218:241,1,179.999994506836
237,225,65674,1,0,0:0:0:0:
184,117,65920,1,0,0:0:0:0:
237,225,66166,1,0,0:0:0:0:
148,306,66412,1,0,0:0:0:0:
142,316,66535,2,0,P|89:331|61:329,1,59.9999981689454
234,316,66781,2,0,P|262:328|292:332,1,59.9999981689454
405,293,67150,6,0,P|420:216|477:110,1,179.999994506836
475,118,67642,1,0,0:0:0:0:
391,32,67888,1,0,0:0:0:0:
390,32,68134,6,0,P|375:109|318:215,1,179.999994506836
320,207,68626,1,0,0:0:0:0:
404,293,68872,1,0,0:0:0:0:
405,293,69117,6,0,P|420:216|477:110,1,179.999994506836
475,118,69609,1,0,0:0:0:0:
391,32,69855,1,0,0:0:0:0:
354,146,70101,1,0,0:0:0:0:
268,61,70347,1,0,0:0:0:0:
270,49,70470,2,0,L|255:130,1,59.9999981689454
240,200,70716,2,0,L|225:281,1,59.9999981689454
229,258,72314,5,0,0:0:0:0:
236,280,72806,1,0,0:0:0:0:
242,303,73052,6,0,P|312:238|415:259,1,200
408,253,74035,1,0,0:0:0:0:
469,331,74281,2,0,P|411:353|354:336,1,100
374,163,74773,2,0,P|423:158|468:178,1,100
468,178,75511,1,0,0:0:0:0:
468,178,76002,1,0,0:0:0:0:
437,82,76248,1,0,0:0:0:0:
507,10,76494,1,0,0:0:0:0:
437,82,76740,1,0,0:0:0:0:
345,41,76986,6,0,P|248:37|138:2,1,200
149,7,77970,1,0,0:0:0:0:
128,104,78216,2,0,P|179:124|241:133,1,100
223,131,78953,5,0,0:0:0:0:
223,131,79445,2,0,P|180:165|141:214,1,100
116,293,79937,1,0,0:0:0:0:
196,359,80183,1,0,0:0:0:0:
281,301,80429,1,0,0:0:0:0:
254,201,80675,1,0,0:0:0:0:
281,301,80920,6,0,P|353:323|425:201,1,200
430,240,81904,1,0,0:0:0:0:
382,152,82150,2,0,L|403:45,1,100
314,3,82642,2,0,L|294:101,1,100
294,101,83380,5,0,0:0:0:0:
294,101,83871,1,0,0:0:0:0:
103,141,84117,5,0,0:0:0:0:
202,146,84363,1,0,0:0:0:0:
294,101,84609,1,0,0:0:0:0:
202,146,84855,6,0,P|281:153|422:193,1,200
397,183,85839,1,0,0:0:0:0:
368,278,86084,1,0,0:0:0:0:
467,266,86330,2,0,P|482:209|486:147,1,100
453,98,86822,6,0,L|294:74,1,139.999995727539
196,99,87560,1,0,0:0:0:0:
196,99,87806,2,0,L|335:120,1,139.999995727539
489,176,88543,1,0,0:0:0:0:
489,176,88789,2,0,L|350:155,1,139.999995727539
288,201,89527,1,0,0:0:0:0:
317,272,89773,1,0,0:0:0:0:
240,261,90019,1,0,0:0:0:0:
288,201,90265,1,0,0:0:0:0:
317,272,90511,1,0,0:0:0:0:
272,335,90757,6,0,L|110:363,2,139.999995727539
317,272,91986,1,0,0:0:0:0:
354,339,92232,2,0,P|396:351|428:353,1,69.9999978637696
471,257,92724,2,0,P|436:260|402:271,1,69.9999978637696
512,186,93216,2,0,P|478:175|443:171,1,69.9999978637696
371,197,93707,1,0,0:0:0:0:
354,121,93953,1,0,0:0:0:0:
371,197,94199,1,0,0:0:0:0:
295,181,94445,1,0,0:0:0:0:
320,253,94691,6,0,P|262:259|161:292,1,139.999995727539
111,310,95429,1,0,0:0:0:0:
123,233,95675,2,0,P|145:180|167:76,1,139.999995727539
182,24,96412,1,0,0:0:0:0:
242,69,96658,2,0,P|276:114|355:186,1,139.999995727539
409,195,97396,1,0,0:0:0:0:
354,248,97642,2,0,P|300:256|272:267,1,69.9999978637696
457,332,98134,2,0,P|423:322|388:319,1,69.9999978637696
224,324,98625,5,0,0:0:0:0:
224,324,99117,1,0,0:0:0:0:
224,324,99609,1,0,0:0:0:0:
203,249,99855,1,0,0:0:0:0:
277,230,100101,5,0,0:0:0:0:
298,305,100347,1,0,0:0:0:0:
203,249,100593,5,0,0:0:0:0:
226,165,100839,1,0,0:0:0:0:
142,146,101084,5,0,0:0:0:0:
119,230,101330,1,0,0:0:0:0:
226,165,101576,5,0,0:0:0:0:
200,75,101822,1,0,0:0:0:0:
290,55,102067,5,0,0:0:0:0:
315,144,102313,1,0,0:0:0:0:
142,146,102560,6,0,P|74:135|35:124,1,100
184,20,103052,2,0,P|135:7|86:0,1,100
44,126,103543,2,0,P|92:138|142:146,1,100
290,55,104035,1,0,0:0:0:0:
141,145,104281,1,0,0:0:0:0:
230,156,104527,5,0,0:0:0:0:
175,227,104773,1,0,0:0:0:0:
264,240,105019,2,0,P|312:252|361:259,1,100
119,343,105511,2,0,P|168:335|216:323,1,100
230,156,106002,1,0,0:0:0:0:
216,323,106248,1,0,0:0:0:0:
264,240,106494,5,0,0:0:0:0:
264,240,106740,1,0,0:0:0:0:
299,106,106986,2,0,P|242:73|187:79,1,100
377,161,107478,2,0,P|390:96|368:46,1,100
312,4,107970,1,0,0:0:0:0:
380,65,108216,1,0,0:0:0:0:
459,27,108461,1,0,0:0:0:0:
380,65,108707,1,0,0:0:0:0:
312,4,108953,6,0,P|248:17|197:40,1,100
308,217,109445,2,0,P|244:204|193:181,1,100
312,4,109937,1,0,0:0:0:0:
211,191,110183,2,0,P|258:208|308:217,1,100
411,297,110675,5,0,0:0:0:0:
411,297,110920,2,0,P|361:305|314:322,1,100
211,191,111412,2,0,P|260:199|307:216,1,100
307,216,111904,1,0,0:0:0:0:
119,224,112150,1,0,0:0:0:0:
275,124,112396,5,0,0:0:0:0:
211,191,112642,1,0,0:0:0:0:
307,216,112888,2,0,P|373:208|431:171,1,100
355,19,113380,2,0,P|305:22|259:41,1,100
275,124,113871,1,0,0:0:0:0:
211,191,114117,1,0,0:0:0:0:
307,216,114363,1,0,0:0:0:0:
275,124,114609,1,0,0:0:0:0:
211,191,114855,1,0,0:0:0:0:
307,216,115101,1,0,0:0:0:0:
239,276,115347,5,0,0:0:0:0:
324,304,115593,1,0,0:0:0:0:
255,362,115839,1,0,0:0:0:0:
324,304,116084,1,0,0:0:0:0:
239,276,116330,5,0,0:0:0:0:
393,243,116576,1,0,0:0:0:0:
307,216,116822,1,0,0:0:0:0:
221,186,117068,1,0,0:0:0:0:
135,169,117314,5,0,0:0:0:0:
289,136,117560,1,0,0:0:0:0:
118,91,117806,5,0,0:0:0:0:
151,245,118052,1,0,0:0:0:0:
289,136,118298,6,0,P|355:111|491:109,1,179.999994506836
474,107,118789,1,0,0:0:0:0:
435,220,119035,1,0,0:0:0:0:
259,70,119281,6,0,P|329:69|458:113,1,179.999994506836
442,106,119772,1,0,0:0:0:0:
367,198,120018,1,0,0:0:0:0:
240,18,120265,6,0,P|306:41|412:127,1,179.999994506836
399,114,120756,1,0,0:0:0:0:
297,175,121002,1,0,0:0:0:0:
182,139,121248,1,0,0:0:0:0:
88,213,121494,1,0,0:0:0:0:
82,202,121617,2,0,P|69:239|66:272,1,59.9999981689454
154,333,121863,2,0,P|164:305|169:275,1,59.9999981689454
297,175,122232,6,0,P|359:223|356:325,1,179.999994506836
353,328,122724,1,0,0:0:0:0:
458,270,122970,1,0,0:0:0:0:
353,109,123216,6,0,P|382:181|329:268,1,179.999994506836
324,269,123708,1,0,0:0:0:0:
444,271,123954,1,0,0:0:0:0:
436,87,124199,6,0,P|425:164|335:213,1,179.999994506836
330,211,124691,1,0,0:0:0:0:
433,272,124937,1,0,0:0:0:0:
337,344,125183,1,0,0:0:0:0:
234,281,125429,1,0,0:0:0:0:
227,271,125552,2,0,L|211:340,1,59.9999981689454
142,160,125798,2,0,L|158:229,1,59.9999981689454
111,82,126166,6,0,B|162:64|208:91|188:110|230:129|279:118,1,179.999994506836
290,114,126658,1,0,0:0:0:0:
142,160,126904,1,0,0:0:0:0:
284,209,127150,6,0,B|233:191|187:218|207:237|165:256|115:245,1,179.999994506836
105,241,127642,1,0,0:0:0:0:
253,287,127888,1,0,0:0:0:0:
111,82,128134,6,0,B|162:64|208:91|188:110|230:129|279:118,1,179.999994506836
290,114,128626,1,0,0:0:0:0:
142,160,128872,1,0,0:0:0:0:
284,209,129117,1,0,0:0:0:0:
388,150,129363,1,0,0:0:0:0:
396,141,129486,2,0,P|395:97|379:64,1,59.9999981689454
451,251,129732,2,0,P|465:209|461:172,1,59.9999981689454
344,314,130101,6,0,P|270:361|186:337,1,179.999994506836
178,328,130593,1,0,0:0:0:0:
284,209,130839,1,0,0:0:0:0:
325,281,131084,6,0,P|251:328|167:304,1,179.999994506836
159,295,131576,1,0,0:0:0:0:
265,176,131822,1,0,0:0:0:0:
309,250,132068,6,0,P|235:297|151:273,1,179.999994506836
143,264,132560,1,0,0:0:0:0:
249,145,132806,1,0,0:0:0:0:
309,250,133052,5,0,0:0:0:0:
324,92,133298,1,0,0:0:0:0:
335,89,133420,1,0,0:0:0:0:
347,88,133543,1,0,0:0:0:0:
358,89,133666,1,0,0:0:0:0:
369,92,133789,1,0,0:0:0:0:
249,145,134035,5,0,0:0:0:0:
180,127,149773,6,0,P|115:148|40:157,1,134.999995880127
49,156,150265,2,0,P|115:164|179:185,1,134.999995880127
214,214,150757,1,0,0:0:0:0:
250,295,151002,1,0,0:0:0:0:
331,257,151248,1,0,0:0:0:0:
331,257,151494,1,0,0:0:0:0:
305,170,151740,5,0,0:0:0:0:
305,170,152232,1,0,0:0:0:0:
392,189,152724,1,0,0:0:0:0:
363,103,152970,1,0,0:0:0:0:
451,120,153216,1,0,0:0:0:0:
392,189,153461,1,0,0:0:0:0:
363,103,153707,6,0,P|391:55|482:38,1,134.999995880127
463,33,154199,2,0,P|490:81|459:168,1,134.999995880127
439,186,154691,1,0,0:0:0:0:
491,259,154937,1,0,0:0:0:0:
441,334,155183,1,0,0:0:0:0:
441,334,155429,1,0,0:0:0:0:
352,305,155675,5,0,0:0:0:0:
352,305,156166,1,0,0:0:0:0:
352,305,156658,1,0,0:0:0:0:
352,214,156904,1,0,0:0:0:0:
274,259,157150,1,0,0:0:0:0:
183,261,157396,1,0,0:0:0:0:
112,205,157642,6,0,P|91:143|112:52,1,134.999995880127
100,75,158134,2,0,P|164:87|232:151,1,134.999995880127
218,129,158625,2,0,P|174:178|85:205,1,134.999995880127
66,200,159117,1,0,0:0:0:0:
105,280,159363,1,0,0:0:0:0:
54,354,159609,5,0,0:0:0:0:
54,354,160101,1,0,0:0:0:0:
54,354,160593,1,0,0:0:0:0:
105,280,160839,1,0,0:0:0:0:
189,309,161084,1,0,0:0:0:0:
247,240,161330,1,0,0:0:0:0:
326,281,161576,5,0,0:0:0:0:
326,281,162068,1,0,0:0:0:0:
326,281,162560,1,0,0:0:0:0:
337,191,162806,1,0,0:0:0:0:
348,101,163052,1,0,0:0:0:0:
348,101,163543,5,0,0:0:0:0:
348,101,164035,1,0,0:0:0:0:
420,155,164281,1,0,0:0:0:0:
337,191,164527,5,0,0:0:0:0:
348,101,164773,1,0,0:0:0:0:
414,290,165019,5,0,0:0:0:0:
324,279,165265,1,0,0:0:0:0:
348,101,165511,6,0,P|264:115|211:111,1,100
485,35,166002,2,0,P|401:21|348:25,1,100
482,167,166494,2,0,P|433:178|383:180,1,100
221,109,166986,1,0,0:0:0:0:
383,180,167232,1,0,0:0:0:0:
257,224,167478,5,0,0:0:0:0:
324,279,167724,1,0,0:0:0:0:
240,313,167970,2,0,P|191:323|141:326,1,100
307,372,168461,2,0,P|355:361|405:358,1,100
324,279,168953,1,0,0:0:0:0:
145,233,169199,1,0,0:0:0:0:
352,188,169445,5,0,0:0:0:0:
352,188,169691,1,0,0:0:0:0:
150,148,169937,2,0,P|203:166|229:217,1,100
144,59,170429,2,0,P|96:73|68:113,1,100
150,148,170920,1,0,0:0:0:0:
226,100,171166,1,0,0:0:0:0:
144,59,171412,5,0,0:0:0:0:
221,13,171658,1,0,0:0:0:0:
226,100,171904,2,0,P|250:159|256:205,1,100
82,245,172396,2,0,P|58:186|52:140,1,100
226,100,172888,1,0,0:0:0:0:
225,289,173134,2,0,P|245:243|254:194,1,100
110,339,173625,5,0,0:0:0:0:
110,339,173871,2,0,P|100:289|81:244,1,100
253,194,174363,2,0,P|233:239|224:288,1,100
224,288,174855,1,0,0:0:0:0:
318,118,175101,1,0,0:0:0:0:
352,201,175347,5,0,0:0:0:0:
422,144,175593,1,0,0:0:0:0:
391,59,175839,6,0,P|456:43|502:47,1,100
483,237,176330,2,0,P|433:236|385:222,1,100
422,144,176822,1,0,0:0:0:0:
362,312,177068,1,0,0:0:0:0:
289,258,177314,5,0,0:0:0:0:
241,334,177560,1,0,0:0:0:0:
168,280,177806,1,0,0:0:0:0:
120,356,178052,1,0,0:0:0:0:
168,280,178298,1,0,0:0:0:0:
182,191,178543,1,0,0:0:0:0:
166,102,178789,1,0,0:0:0:0:
134,17,179035,1,0,0:0:0:0:
68,78,179281,5,0,0:0:0:0:
166,102,179527,1,0,0:0:0:0:
265,98,179773,1,0,0:0:0:0:
359,50,180019,1,0,0:0:0:0:
265,98,180265,5,0,0:0:0:0:
431,118,180511,1,0,0:0:0:0:
286,199,180757,1,0,0:0:0:0:
390,211,181002,1,0,0:0:0:0:
218,272,181248,6,0,P|143:307|25:303,1,179.999994506836
37,301,181740,1,0,0:0:0:0:
134,161,181986,1,0,0:0:0:0:
218,272,182232,6,0,P|143:307|25:303,1,179.999994506836
37,301,182724,2,0,L|12:224,1,59.9999981689454
134,161,182970,1,0,0:0:0:0:
218,272,183216,6,0,P|143:307|25:303,1,179.999994506836
37,301,183707,1,0,0:0:0:0:
134,161,183953,1,0,0:0:0:0:
77,55,184199,1,0,0:0:0:0:
190,15,184445,1,0,0:0:0:0:
198,23,184568,2,0,L|262:15,1,59.9999981689454
257,108,184814,2,0,L|316:100,1,59.9999981689454
512,178,185183,6,0,L|317:202,1,179.999994506836
321,201,185675,1,0,0:0:0:0:
202,215,185920,1,0,0:0:0:0:
482,220,186166,6,0,L|287:244,1,179.999994506836
291,243,186658,1,0,0:0:0:0:
172,257,186903,1,0,0:0:0:0:
459,257,187150,6,0,L|264:281,1,179.999994506836
268,280,187642,1,0,0:0:0:0:
149,294,187887,1,0,0:0:0:0:
29,307,188134,1,0,0:0:0:0:
79,198,188380,1,0,0:0:0:0:
87,189,188502,2,0,P|76:136|60:116,1,59.9999981689454
187,23,188748,2,0,P|175:50|173:80,1,59.9999981689454
268,280,189117,6,0,P|354:301|445:193,1,209.999993591309
447,154,189609,2,0,P|413:157|379:197,1,69.9999978637696
329,129,189855,2,0,P|391:82|487:87,1,139.999995727539
268,280,190347,1,0,0:0:0:0:
268,280,190470,1,0,0:0:0:0:
268,280,190593,2,0,L|183:266,1,69.9999978637696
141,332,190839,2,0,L|309:364,1,139.999995727539
220,132,191330,5,0,0:0:0:0:
220,132,191453,1,0,0:0:0:0:
220,132,191576,2,0,P|172:157|144:153,1,69.9999978637696
195,52,191822,2,0,P|271:67|301:131,1,139.999995727539
492,240,192314,1,0,0:0:0:0:
492,240,192437,1,0,0:0:0:0:
492,240,192560,2,0,P|457:236|429:215,1,69.9999978637696
295,191,192806,2,0,P|329:187|357:166,1,69.9999978637696
379,91,193052,6,0,P|407:161|402:315,1,209.999993591309
488,211,193543,2,0,P|487:177|477:142,1,69.9999978637696
331,164,193789,2,0,P|340:198|342:233,1,69.9999978637696
407,294,194035,2,0,P|412:189|379:91,1,209.999993591309
325,34,194527,1,0,0:0:0:0:
230,175,194773,1,0,0:0:0:0:
378,90,195019,5,0,0:0:0:0:
177,113,195265,1,0,0:0:0:0:
413,161,195511,1,0,0:0:0:0:
272,244,195757,1,0,0:0:0:0:
426,240,196002,1,0,0:0:0:0:
286,326,196248,1,0,0:0:0:0:
418,321,196494,1,0,0:0:0:0:
315,349,196740,6,0,P|349:358|374:356,1,60
