osu file format v5

[General]
AudioFilename: Shaun Baker feat Maloy - Hey Hi Hello.mp3
AudioLeadIn: 0
PreviewTime: -1
Countdown: 3
SampleSet: Normal
StackLeniency: 0.7
Mode: 0

[Metadata]
Title:Hey Hi Hello
Artist:Shaun Baker feat Maloy
Creator:stephanek
Version:Normal

[Difficulty]
HPDrainRate:7
CircleSize:7
OverallDifficulty:4
SliderMultiplier:1.4
SliderTickRate:1

[Events]
//Background and Video events
//Break Periods
//Storyboard Layer 0 (Background)
//Storyboard Layer 1 (Failing)
//Storyboard Layer 2 (Passing)
//Storyboard Layer 3 (Foreground)
//Storyboard Sound Samples
//Background Colour Transformations
3,100,163,162,255

[TimingPoints]
0,472.515356749094,4,1,0,90

[Colours]
Combo1 : 255,255,0
Combo2 : 5,240,5
Combo3 : 5,5,240
Combo4 : 240,5,5
Combo5 : 255,150,0

[HitObjects]
160,192,8269,1,0
224,192,8741,1,0
320,192,9214,1,0
352,192,9450,1,0
384,192,9922,1,0
416,192,10159,1,0
160,128,12049,5,0
256,128,12521,1,0
288,128,12757,1,0
352,128,13230,1,0
160,192,15829,5,0
192,192,16301,1,0
160,128,16774,1,0
224,128,17010,1,0
288,128,17483,1,0
320,128,17719,1,0
160,192,19609,5,0
320,192,20081,2,0,B|320:96|256:32|256:32|256:64,1,140
160,320,20554,1,0
320,320,20790,1,0
64,64,22916,5,0
192,64,23862,1,0
352,64,24807,1,0
64,192,25752,1,0
224,192,26697,1,0
384,192,27642,1,0
64,352,28587,1,0
160,352,29295,1,0
160,192,30477,1,0
160,192,30949,1,0
160,192,31186,1,0
160,192,31658,1,0
256,192,32367,1,0
64,96,34257,5,0
192,96,35202,1,0
320,96,36147,1,0
128,160,38037,5,0
192,64,39927,1,0
320,64,41817,1,0
448,160,43707,1,0
352,320,45597,1,0
160,320,47487,1,0
32,256,49377,1,0
64,128,51267,1,0
320,32,51740,5,0
320,96,52212,1,0
320,192,52685,1,0
320,224,52921,1,0
96,64,55048,5,0
256,64,56938,1,0
416,128,58828,1,0
384,288,60718,1,0
224,352,62608,1,0
64,288,64498,1,0
64,96,66388,1,0
224,160,66860,5,0
224,160,67333,1,0
224,160,67805,1,0
224,160,68042,1,0
160,192,68750,5,0
224,192,69223,1,0
256,192,69459,1,0
320,192,69932,1,0
96,64,70641,5,0
96,128,71113,1,0
96,160,71349,1,0
96,224,71822,1,0
256,192,72531,5,0
160,192,73003,1,0
352,192,73476,1,0
384,192,73712,1,0
128,64,74421,5,0
256,64,74893,1,0
384,64,75366,1,0
448,64,75602,1,0
64,96,76311,5,0
128,96,76783,1,0
192,96,77020,1,0
224,96,77492,1,0
64,160,78201,1,0
128,160,78673,1,0
160,160,78910,1,0
192,160,79382,1,0
384,32,80091,5,0
384,96,80563,1,0
384,160,81036,1,0
384,192,81272,1,0
64,64,81981,5,0
64,128,82453,1,0
64,192,82926,1,0
64,224,83162,1,0
160,192,83871,5,0
160,192,84343,1,0
160,192,84580,1,0
224,192,85052,1,0
64,64,85761,5,0
160,64,86234,5,0
192,64,86470,1,0
256,64,86942,1,0
160,192,87651,5,0
384,128,88124,1,0
224,256,88596,1,0
256,256,88832,1,0
32,64,89541,5,0
32,128,90014,1,0
32,192,90486,1,0
32,224,90722,1,0
160,192,91431,5,0
224,192,91904,1,0
256,192,92140,1,0
320,192,92613,1,0
224,192,93321,5,0
288,192,93794,1,0
320,192,94030,1,0
160,192,94503,1,0
160,96,95211,5,0
224,96,95684,1,0
288,96,95920,1,0
320,96,96393,2,0,B|352:160|384:64|384:64|416:32,1,140
