osu file format v14

[General]
AudioFilename: lucky star.mp3
AudioLeadIn: 0
PreviewTime: 53197
Countdown: 0
SampleSet: Soft
StackLeniency: 0.4
Mode: 0
LetterboxInBreaks: 0
EpilepsyWarning: 1
WidescreenStoryboard: 0

[Editor]
DistanceSpacing: 1.4
BeatDivisor: 4
GridSize: 4
TimelineZoom: 1.3

[Metadata]
Title:Ne Ni Ge de Reset!
TitleUnicode:寝・逃・げでリセット!
Artist:Sharlo
ArtistUnicode:Sharlo
Creator:Zero__wind
Version:Normal
Source:らき☆すた
Tags:Lucky☆Star 福原香織 Fukuhara Kaori 柊つかさ Hiiragi Tsukasa Nardoxyribonucleic 畑亜貴 Hata Aki ISAO nishi-ken
BeatmapID:562847
BeatmapSetID:226242

[Difficulty]
HPDrainRate:4
CircleSize:3
OverallDifficulty:4
ApproachRate:4.5
SliderMultiplier:1.2
SliderTickRate:1

[Events]
//Background and Video events
0,0,"hiiragi.jpg",0,0
//Break Periods
2,6757,20297
2,87382,93422
2,153007,166547
2,216757,230297
//Storyboard Layer 0 (Background)
//Storyboard Layer 1 (Fail)
//Storyboard Layer 2 (Pass)
//Storyboard Layer 3 (Foreground)
Sprite,Foreground,Centre,"SB/lrc/shi.png",320,240 M,0,814,,150,425 F,0,814,1049,0,1 R,0,814,1049,0.2,0 P,0,814,3041,A F,0,1049,3041,1 F,0,3041,3510,1,0
Sprite,Foreground,Centre,"SB/lrc/bai.png",320,240 M,0,1283,,270,345 F,0,1283,1517,0,1 R,0,1283,1517,-0.1,0.1 P,0,1283,3041,A F,0,1517,3041,1 F,0,3041,3510,1,0
Sprite,Foreground,Centre,"SB/lrc/da.png",320,240 M,0,1752,,170,105 F,0,1752,1986,0,1 R,0,1752,1986,0.05,-0.15 P,0,1752,3041,A F,0,1998,3041,1 F,0,3041,3510,1,0
Sprite,Foreground,Centre,"SB/lrc/tsu.png",320,240 M,0,1869,2103,220,140,200,135 F,0,1869,2103,0,1 R,0,1869,2103,0.1,0 P,0,1869,3041,A F,0,2103,3041,1 F,0,3041,3510,1,0
Sprite,Foreground,Centre,"SB/lrc/de.png",320,240 M,0,2221,,130,285 F,0,2221,2455,0,1 R,0,2221,2455,-0.15,0.05 P,0,2221,3041,A F,0,2455,3041,1 F,0,3041,3510,1,0
Sprite,Foreground,Centre,"SB/lrc/good.png",320,240 M,0,2455,,220,225 F,0,2455,2689,0,1 R,0,2455,2689,0.25,0.05 P,0,2455,3041,A F,0,2689,3041,1 F,0,3041,3510,1,0
Sprite,Foreground,Centre,"SB/lrc/night.png",320,240 M,0,2924,3158,390,195,360,190 F,0,2924,3158,0,1 P,0,2924,6791,A F,0,3158,6557,1 M,0,6557,6791,360,190,280,-99 F,0,6557,6791,1,0 R,0,6557,6791,0,-10
Sprite,Foreground,Centre,"SB/lrc/bye.png",320,240 M,0,3392,3627,225,215,255,220 F,0,3392,3627,0,1 P,0,3392,6791,A F,0,3627,6557,1 M,0,6557,6791,255,220,360,-99 F,0,6557,6791,1,0 R,0,6557,6791,0,10
Sprite,Foreground,Centre,"SB/lrc/bye.png",320,240 M,0,3861,4094,400,245,370,250 F,0,3861,4094,0,1 P,0,3861,6791,A F,0,4094,6557,1 M,0,6557,6791,370,250,14,99 F,0,6557,6791,1,0 R,0,6557,6791,0,-10
Sprite,Foreground,Centre,"SB/lrc/bye.png",320,240 M,0,4330,4564,215,285,245,280 F,0,4330,4564,0,1 P,0,4330,6791,A F,0,4564,6557,1 M,0,6557,6791,245,280,626,99 F,0,6557,6791,1,0 R,0,6557,6791,0,10
Sprite,Foreground,Centre,"SB/lrc/bye.png",320,240 M,0,4799,5033,410,315,380,310 F,0,4799,5033,0,1 P,0,4799,6791,A F,0,5033,6557,1 M,0,6557,6791,380,310,112,73 F,0,6557,6791,1,0 R,0,6557,6791,0,-10
Sprite,Foreground,Centre,"SB/lrc/bye.png",320,240 M,0,5267,5502,205,335,235,340 F,0,5267,5502,0,1 P,0,5267,6791,A F,0,5502,6557,1 M,0,6557,6791,235,340,528,73 F,0,6557,6791,1,0 R,0,6557,6791,0,10
Sprite,Foreground,Centre,"SB/lrc/bye.png",320,240 M,0,5736,5971,420,365,390,370 F,0,5736,5971,0,1 P,0,5736,6791,A F,0,5971,6557,1 M,0,6557,6791,390,370,216,73 F,0,6557,6791,1,0 R,0,6557,6791,0,-10
Sprite,Foreground,Centre,"SB/lrc/bye.png",320,240 M,0,6205,6439,195,405,225,400 F,0,6205,6439,0,1 P,0,6205,6791,A F,0,6439,6557,1 M,0,6557,6791,225,400,424,73 F,0,6557,6791,1,0 R,0,6557,6791,0,10
Sprite,Foreground,Centre,"SB/w.png",320,240 M,0,932,,380,393 F,0,932,1166,1,0
Sprite,Foreground,Centre,"SB/w.png",320,240 M,0,1400,,480,325 F,0,1400,1635,1,0
Sprite,Foreground,Centre,"SB/w.png",320,240 M,0,1869,,480,205 F,0,1869,2103,1,0
Sprite,Foreground,Centre,"SB/w.png",320,240 M,0,2338,,380,137 F,0,2338,2572,1,0
Sprite,Foreground,Centre,"SB/w.png",320,240 M,0,2572,,380,137 F,0,2572,2807,1,0
Sprite,Foreground,Centre,"SB/w.png",320,240 M,0,3041,,260,137 F,0,3041,3275,1,0
Sprite,Foreground,Centre,"SB/w.png",320,240 M,0,3510,,320,241 F,0,3510,3744,1,0
Sprite,Foreground,Centre,"SB/w.png",320,240 M,0,3978,,200,241 F,0,3978,4213,1,0
Sprite,Foreground,Centre,"SB/w.png",320,240 M,0,4447,,140,137 F,0,4447,4682,1,0
Sprite,Foreground,Centre,"SB/w.png",320,240 M,0,4916,5033,200,241 F,0,4916,5033,1,0
Sprite,Foreground,Centre,"SB/w.png",320,240 M,0,5385,5502,140,345 F,0,5385,5502,1,0
Sprite,Foreground,Centre,"SB/w.png",320,240 M,0,5853,5971,260,369 F,0,5853,5971,1,0
Sprite,Foreground,Centre,"SB/w.png",320,240 M,0,6322,,320,265 F,0,6322,6439,1,0
Sprite,Foreground,Centre,"SB/w.png",320,240 M,0,6557,,320,265 F,0,6557,6674,1,0
Sprite,Foreground,Centre,"SB/c.png",320,240 M,0,53432,53666,316,393,152,176 C,0,53432,53666,255,0,0 P,0,53432,53666,A
Sprite,Foreground,Centre,"SB/c.png",320,240 M,0,53432,53666,316,393,-66,329 C,0,53432,53666,255,128,0 P,0,53432,53666,A
Sprite,Foreground,Centre,"SB/c.png",320,240 M,0,53432,53666,316,393,-52,577 C,0,53432,53666,255,255,0 P,0,53432,53666,A
Sprite,Foreground,Centre,"SB/c.png",320,240 M,0,53432,53666,316,393,118,783 C,0,53432,53666,0,255,0 P,0,53432,53666,A
Sprite,Foreground,Centre,"SB/c.png",320,240 M,0,53432,53666,316,393,456,783 C,0,53432,53666,0,255,255 P,0,53432,53666,A
Sprite,Foreground,Centre,"SB/c.png",320,240 M,0,53432,53666,316,393,660,481 C,0,53432,53666,0,0,255 P,0,53432,53666,A
Sprite,Foreground,Centre,"SB/c.png",320,240 M,0,53432,53666,316,393,468,176 C,0,53432,53666,128,0,128 P,0,53432,53666,A
Sprite,Foreground,Centre,"SB/c.png",320,240 M,0,119057,119291,135,245,60,-185 C,0,119057,119291,255,0,0 P,0,119057,119291,A
Sprite,Foreground,Centre,"SB/c.png",320,240 M,0,119057,119291,135,245,-230,47 C,0,119057,119291,255,128,0 P,0,119057,119291,A
Sprite,Foreground,Centre,"SB/c.png",320,240 M,0,119057,119291,135,245,-265,371 C,0,119057,119291,255,255,0 P,0,119057,119291,A
Sprite,Foreground,Centre,"SB/c.png",320,240 M,0,119057,119291,135,245,0,647 C,0,119057,119291,0,255,0 P,0,119057,119291,A
Sprite,Foreground,Centre,"SB/c.png",320,240 M,0,119057,119291,135,245,352,602 C,0,119057,119291,0,255,255 P,0,119057,119291,A
Sprite,Foreground,Centre,"SB/c.png",320,240 M,0,119057,119291,135,245,560,309 C,0,119057,119291,0,0,255 P,0,119057,119291,A
Sprite,Foreground,Centre,"SB/c.png",320,240 M,0,119057,119291,135,245,442,-70 C,0,119057,119291,128,0,128 P,0,119057,119291,A
Sprite,Foreground,Centre,"SB/lrc/g.png",320,240 M,0,8314,8549,230,130,220,130 F,0,8314,8549,0,1 F,0,20853,21088,1,0
Sprite,Foreground,Centre,"SB/lrc/r.png",320,240 M,0,10189,10424,220,190,230,190 F,0,10189,10424,0,1 F,0,20853,21088,1,0
Sprite,Foreground,Centre,"SB/lrc/c.png",320,240 M,0,13939,14174,190,250,180,250 F,0,13939,14174,0,1 F,0,20853,21088,1,0
Sprite,Foreground,Centre,"SB/lrc/q.png",320,240 M,0,15814,16049,240,310,250,310 F,0,15814,16049,0,1 F,0,20853,21088,1,0
Sprite,Foreground,Centre,"SB/lrc/bq.png",320,240 M,0,17689,17924,230,370,220,370 F,0,17689,17924,0,1 F,0,20853,21088,1,0
Sprite,Foreground,Centre,"SB/lrc/kg.png",320,240 F,0,54955,55189,0,1 M,0,54955,56010,170,210,220,200 S,0,54955,56010,1.1,1.21 R,0,54955,56010,-0.3,0 P,0,54955,56010,A F,0,55775,56010,1,0
Sprite,Foreground,Centre,"SB/lrc/kn.png",320,240 F,0,55424,55658,0,1 M,0,55424,56010,160,140,110,130 S,0,55424,56010,1.21,1.1 R,0,55424,56010,0.3,0 P,0,55424,56010,A F,0,55775,56010,1,0
Sprite,Foreground,Centre,"SB/lrc/kd.png",320,240 F,0,69955,70189,0,1 M,0,69955,71010,470,210,420,200 S,0,69955,71010,1,1.1 R,0,69955,71010,0.3,0 P,0,69955,71010,A F,0,70775,71010,1,0
Sprite,Foreground,Centre,"SB/lrc/km.png",320,240 F,0,70424,70658,0,1 M,0,70424,71010,480,140,530,130 S,0,70424,71010,1.1,1 R,0,70424,71010,-0.3,0 P,0,70424,71010,A F,0,70775,71010,1,0
Sprite,Foreground,Centre,"SB/lrc/morning.png",320,240 F,0,120580,120814,0,1 M,0,120580,121635,510,210,510,170 P,0,120580,121635,A V,0,120697,120756,1,1,1,2 V,0,120756,120814,1,2,1,1 V,0,121166,121224,1,1,1,2 V,0,121224,121283,1,2,1,1 F,0,121400,121635,1,0
Sprite,Foreground,Centre,"SB/lrc/kd.png",320,240 F,0,135580,135814,0,1 M,0,135580,136635,170,210,220,200 S,0,135580,136635,1.2,1.32 R,0,135580,136635,-0.3,0 P,0,135580,136635,A F,0,136400,136635,1,0
Sprite,Foreground,Centre,"SB/lrc/km.png",320,240 F,0,136049,136283,0,1 M,0,136049,136635,160,140,110,130 S,0,136049,136635,1.32,1.2 R,0,136049,136635,0.3,0 P,0,136049,136635,A F,0,136400,136635,1,0
Sprite,Foreground,Centre,"SB/lrc/kg.png",320,240 F,0,188080,188314,0,1 M,0,188080,189135,170,210,220,200 S,0,188080,189135,1.1,1.21 R,0,188080,189135,-0.3,0 P,0,188080,189135,A F,0,188900,189135,1,0
Sprite,Foreground,Centre,"SB/lrc/kn.png",320,240 F,0,188549,188783,0,1 M,0,188549,189135,160,140,110,130 S,0,188549,189135,1.21,1.1 R,0,188549,189135,0.3,0 P,0,188549,189135,A F,0,188900,189135,1,0
Sprite,Foreground,Centre,"SB/lrc/kd.png",320,240 F,0,203080,203314,0,1 M,0,203080,204135,470,210,420,200 S,0,203080,204135,1,1.1 R,0,203080,204135,0.3,0 P,0,203080,204135,A F,0,203900,204135,1,0
Sprite,Foreground,Centre,"SB/lrc/km.png",320,240 F,0,203549,203783,0,1 M,0,203549,204135,480,140,530,130 S,0,203549,204135,1.1,1 R,0,203549,204135,-0.3,0 P,0,203549,204135,A F,0,203900,204135,1,0
//Storyboard Sound Samples

[TimingPoints]
932,468.75,4,2,17,30,1,0
1400,-100,4,2,17,40,0,0
1869,-100,4,2,17,50,0,0
2338,-100,4,2,17,30,0,0
2572,-100,4,2,17,40,0,0
3041,-100,4,2,17,50,0,0
3510,-100,4,2,17,40,0,0
3978,-100,4,2,17,50,0,0
4447,-100,4,2,17,60,0,0
4916,-100,4,2,17,40,0,0
6088,-100,4,2,17,50,0,0
6557,-100,4,2,17,60,0,0
21791,-100,4,2,17,40,0,0
28119,-100,4,2,17,50,0,0
29057,-100,4,2,17,60,0,0
29291,-100,4,2,17,45,0,0
34682,-100,4,2,17,50,0,0
35853,-100,4,2,17,60,0,0
36791,-100,4,2,17,50,0,0
43353,-100,4,2,17,60,0,0
43822,-100,4,2,17,50,0,0
47807,-100,4,2,17,55,0,0
48041,-100,4,2,17,35,0,0
48275,-100,4,2,17,40,0,0
48744,-100,4,2,17,45,0,0
49213,-100,4,2,17,50,0,0
49682,-100,4,2,17,55,0,0
50150,-100,4,2,17,60,0,0
50619,-100,4,2,17,65,0,0
51088,-100,4,2,17,70,0,0
51557,-100,4,2,17,40,0,0
53432,-100,4,2,1,70,0,1
53900,-100,4,1,17,70,0,1
67963,-100,4,2,1,70,0,1
68432,-100,4,1,17,70,0,1
83432,-100,4,2,17,70,0,0
83900,-100,4,2,17,60,0,0
84369,-100,4,2,17,50,0,0
84838,-100,4,2,17,40,0,0
85307,-100,4,2,17,30,0,0
87182,-133.333333333333,4,2,17,60,0,0
94682,-100,4,1,17,50,0,0
95150,-100,4,1,17,40,0,0
100307,-100,4,1,17,50,0,0
102182,-100,4,2,17,60,0,0
102416,-100,4,2,17,50,0,0
113432,-100,4,2,17,55,0,0
113666,-100,4,2,17,35,0,0
113900,-100,4,2,17,40,0,0
114369,-100,4,2,17,45,0,0
114838,-100,4,2,17,50,0,0
115307,-100,4,2,17,55,0,0
115775,-100,4,2,17,60,0,0
116244,-100,4,2,17,65,0,0
116713,-100,4,2,17,70,0,0
117182,-100,4,2,17,40,0,0
119057,-100,4,2,1,70,0,1
119525,-100,4,1,17,70,0,1
133588,-100,4,2,1,70,0,1
134057,-100,4,1,17,70,0,1
149057,-100,4,2,17,70,0,0
149525,-100,4,2,17,60,0,0
149994,-100,4,2,17,50,0,0
150463,-100,4,2,17,40,0,0
150932,-100,4,2,17,30,0,0
152807,-100,4,1,1,50,0,0
167807,-100,4,2,1,50,0,0
168041,-100,4,2,17,50,0,0
171557,-100,4,2,1,50,0,0
171791,-100,4,2,17,50,0,0
175307,-100,4,2,1,50,0,0
175541,-100,4,2,17,50,0,0
179057,-100,4,2,1,55,0,0
179291,-100,4,2,17,55,0,0
180932,-100,4,2,17,60,0,0
181166,-100,4,2,17,20,0,0
181400,-100,4,2,17,25,0,0
181869,-100,4,2,17,30,0,0
182338,-100,4,2,17,35,0,0
182807,-100,4,2,17,40,0,0
183275,-100,4,2,17,50,0,0
183744,-100,4,2,17,60,0,0
184213,-100,4,2,17,70,0,0
184564,-100,4,2,17,20,0,0
186557,-100,4,1,17,70,0,1
201088,-100,4,2,1,70,0,1
201557,-100,4,1,17,70,0,1
216557,-100,4,2,17,70,0,0
216791,-100,4,2,17,60,0,0
263432,-100,4,2,17,30,0,0
265072,-100,4,2,1,50,0,0

[Colours]
Combo1 : 208,166,255
Combo2 : 221,151,175
Combo3 : 245,249,123
Combo4 : 218,101,104

[HitObjects]
316,320,932,5,2,0:0:0:0:
416,252,1400,1,2,0:0:0:0:
416,132,1869,1,2,0:0:0:0:
316,64,2338,1,2,0:0:0:0:
316,64,2572,5,2,0:0:0:0:
196,64,3041,1,2,0:0:0:0:
256,168,3510,1,2,0:0:0:0:
136,168,3978,1,2,0:0:0:0:
76,64,4447,5,2,0:0:0:0:
136,168,4916,1,2,0:0:0:0:
76,272,5385,1,2,0:0:0:0:
196,296,5853,1,2,0:0:0:0:
256,192,6322,1,2,0:0:0:0:
256,192,6557,1,4,0:1:0:0:
76,300,21557,6,0,L|196:300,1,120,4|0,0:0|1:0,0:0:0:0:
279,289,22260,1,2,0:0:0:0:
356,256,22494,2,0,P|372:196|344:144,1,120,0|0,1:0|1:0,0:0:0:0:
180,172,23432,6,0,B|120:172|120:172|64:152,1,120,2|0,1:2|1:0,0:0:0:0:
16,81,24135,2,0,P|69:70|131:88,1,120,2|2,0:0|0:0,0:0:0:0:
216,92,24838,2,0,L|280:88,1,60,0|2,1:0|0:0,0:0:0:0:
336,28,25307,6,0,P|358:82|343:139,1,120,2|0,1:2|1:0,0:0:0:0:
256,284,26244,2,0,L|251:319|256:344,2,60,0|2|0,1:0|0:0|1:0,0:0:0:0:
288,206,26947,1,2,0:0:0:0:
368,216,27182,6,0,L|492:224,1,120,2|0,1:2|1:0,0:0:0:0:
492,56,28119,2,0,L|432:52,1,60,0|0,1:0|1:0,0:0:0:0:
352,28,28588,2,0,L|298:54,1,60,0|0,1:0|1:0,0:0:0:0:
224,96,29057,5,4,0:0:0:0:
340,216,29525,1,0,1:0:0:0:
224,336,29994,2,0,P|160:344|112:320,1,120,0|0,1:0|1:0,0:0:0:0:
64,252,30697,1,2,0:0:0:0:
40,172,30932,6,0,B|40:84|40:84|56:56,1,120,2|0,1:2|1:0,0:0:0:0:
139,36,31635,1,2,0:0:0:0:
128,120,31869,2,0,L|128:180,2,60,0|2|0,1:0|0:0|1:0,0:0:0:0:
288,68,32807,6,0,P|344:44|404:48,2,120,2|0|0,1:2|1:0|1:0,0:0:0:0:
252,232,34213,2,0,L|260:292,1,60,0|2,1:0|0:0,0:0:0:0:
308,360,34682,6,0,B|340:364|340:364|432:348,1,120,2|0,1:2|1:0,0:0:0:0:
480,284,35385,1,2,0:0:0:0:
404,249,35619,2,0,P|400:217|408:185,1,60,0|0,1:0|1:0,0:0:0:0:
471,136,36088,1,8,0:0:0:0:
316,204,36557,6,0,L|192:192,1,120,4|8,0:0|0:0,0:0:0:0:
114,172,37260,1,2,0:0:0:0:
90,92,37494,2,0,P|90:60|98:32,2,60,0|2|8,1:0|0:0|0:0,0:0:0:0:
136,254,38432,6,0,P|136:283|128:312,2,60,0|2|8,1:0|0:0|0:0,0:0:0:0:
54,274,39135,1,2,0:0:0:0:
60,357,39369,2,0,L|181:375,1,120,0|8,1:0|0:0,0:0:0:0:
347,357,40307,6,0,L|391:317,1,60,0|2,1:0|0:0,0:0:0:0:
428,240,40775,1,8,0:0:0:0:
356,88,41244,1,0,1:0:0:0:
228,196,41713,1,8,0:0:0:0:
95,91,42182,6,0,P|94:62|100:32,2,60,0|2|8,1:0|0:0|0:0,0:0:0:0:
177,68,42885,2,0,L|300:56,1,120,2|8,0:0|0:0,0:0:0:0:
380,48,43588,1,8,0:0:0:0:
460,76,43822,1,0,1:0:0:0:
460,76,44057,6,0,L|460:200,1,120,0|8,1:0|0:0,0:0:0:0:
423,272,44760,2,0,P|453:278|482:276,1,60,2|0,0:0|1:0,0:0:0:0:
372,152,45463,2,0,L|304:152,1,60,8|2,0:0|0:0,0:0:0:0:
228,164,45932,6,0,L|228:228,2,60,0|2|8,1:0|0:0|0:0,0:0:0:0:
80,84,46869,2,0,L|80:208,1,120,0|8,1:0|0:0,0:0:0:0:
80,288,47572,1,2,0:0:0:0:
136,352,47807,5,4,1:2:0:0:
256,192,48041,12,2,51557,0:0:0:0:
252,320,53432,6,0,P|312:312|356:272,1,120,6|8,0:1|0:0,0:0:0:0:
388,110,54369,2,0,L|272:80,1,120,2|8,0:0|0:0,0:0:0:0:
188,80,55072,5,2,2:1:0:0:
272,224,55541,1,2,2:0:0:0:
126,307,56010,1,2,2:0:0:0:
104,225,56244,2,0,L|106:106,1,120,2|8,0:0|0:0,0:0:0:0:
127,24,56947,1,2,2:0:0:0:
188,80,57182,6,0,P|243:101|300:88,1,120,2|8,0:0|0:0,0:0:0:0:
376,47,57885,2,0,P|433:61|469:108,2,120,2|2|2,2:1|2:0|2:0,0:0:0:0:
388,132,59057,6,0,L|388:252,1,120,2|8,0:0|0:0,0:0:0:0:
470,232,59760,2,0,L|470:352,1,120,2|2,2:1|2:0,0:0:0:0:
388,336,60463,1,8,0:0:0:0:
236,268,60932,6,0,B|152:268|152:268|120:288,1,120,4|8,0:2|0:0,0:0:0:0:
60,345,61635,2,0,P|39:291|54:234,1,120,2|2,2:1|2:0,0:0:0:0:
108,168,62338,1,8,0:0:0:0:
276,168,62807,6,0,L|336:168,2,60,2|2|8,0:0|2:0|0:0,0:0:0:0:
193,152,63510,2,0,P|181:88|208:40,1,120,2|2,2:1|2:0,0:0:0:0:
288,20,64213,1,8,0:0:0:0:
440,92,64682,5,2,0:0:0:0:
322,212,65150,1,8,0:0:0:0:
484,256,65619,1,2,0:0:0:0:
366,376,66088,1,8,0:0:0:0:
204,332,66557,6,0,L|76:320,1,120,2|8,0:0|0:0,0:0:0:0:
36,252,67260,1,2,2:0:0:0:
36,168,67494,2,0,L|48:104,1,60,0|2,0:0|2:0,0:0:0:0:
100,44,67963,1,8,1:2:0:0:
256,108,68432,6,0,L|256:228,1,120,4|8,0:0|0:0,0:0:0:0:
424,224,69369,2,0,L|424:344,1,120,2|8,0:0|0:0,0:0:0:0:
344,368,70072,5,2,2:1:0:0:
256,228,70541,1,2,2:0:0:0:
396,136,71010,1,2,2:0:0:0:
459,79,71244,2,0,P|408:52|350:64,1,120,2|8,0:0|0:0,0:0:0:0:
288,120,71947,1,2,2:0:0:0:
216,164,72182,6,0,P|158:176|106:148,1,120,2|8,0:0|0:0,0:0:0:0:
169,91,72885,1,2,2:1:0:0:
176,260,73353,2,0,L|168:320,2,60,2|8|2,2:0|0:0|2:0,0:0:0:0:
256,288,74057,6,0,L|384:300,1,120,2|8,0:0|0:0,0:0:0:0:
460,296,74760,2,0,P|488:236|480:184,1,120,2|2,2:1|2:0,0:0:0:0:
436,112,75463,1,8,0:0:0:0:
276,160,75932,6,0,L|156:148,1,120,4|8,0:2|0:0,0:0:0:0:
72,148,76635,2,0,B|40:168|40:168|32:268,1,120,2|2,2:1|2:0,0:0:0:0:
39,334,77338,1,8,0:0:0:0:
200,287,77807,6,0,P|229:282|259:283,2,60,2|2|8,0:0|2:0|0:0,0:0:0:0:
236,364,78510,2,0,P|294:359|336:318,1,120,2|2,2:1|2:0,0:0:0:0:
344,235,79213,1,8,0:0:0:0:
256,92,79682,5,2,0:0:0:0:
424,108,80150,1,8,0:0:0:0:
424,276,80619,1,2,0:0:0:0:
256,292,81088,1,8,0:0:0:0:
120,196,81557,6,0,P|94:136|108:84,1,120,2|8,0:0|0:0,0:0:0:0:
168,28,82260,1,2,2:1:0:0:
252,36,82494,2,0,L|320:40,1,60,0|2,0:0|2:0,0:0:0:0:
384,84,82963,1,8,0:0:0:0:
256,192,83432,5,4,0:1:0:0:
256,192,83666,12,4,87182,0:1:0:0:
224,68,94682,6,0,L|104:72,1,120,4|0,0:0|0:0,0:0:0:0:
28,220,95619,2,0,L|148:224,1,120,0|8,0:0|2:0,0:0:0:0:
228,200,96322,1,0,2:0:0:0:
300,240,96557,6,0,P|321:302|312:356,2,120,2|0|0,0:2|0:0|0:0,0:0:0:0:
219,91,97963,2,0,P|221:63|234:35,1,60,8|0,2:0|2:0,0:0:0:0:
304,84,98432,6,0,L|380:88,2,60,2|0|0,0:2|2:0|0:0,0:0:0:0:
216,228,99369,1,0,0:0:0:0:
328,352,99838,2,0,P|361:351|388:344,1,60,8|0,2:0|2:0,0:0:0:0:
452,292,100307,6,0,L|456:172,1,120,2|0,0:2|0:0,0:0:0:0:
440,88,101010,1,0,2:0:0:0:
364,52,101244,2,0,L|304:68,2,60,0|2|8,0:0|2:0|2:0,0:0:0:0:
283,199,102182,6,0,P|228:178|189:134,1,120,4|8,0:0|0:0,0:0:0:0:
177,50,102885,1,2,0:0:0:0:
260,48,103119,2,0,L|332:52,2,60,0|2|8,1:0|0:0|0:0,0:0:0:0:
104,116,104057,6,0,L|32:120,2,60,0|2|8,1:0|0:0|0:0,0:0:0:0:
184,144,104760,1,2,0:0:0:0:
220,220,104994,2,0,P|203:281|162:324,2,120,0|8|0,1:0|0:0|1:0,0:0:0:0:
184,144,106166,5,2,0:0:0:0:
108,176,106400,2,0,L|48:176,2,60,8|2|0,0:0|0:0|1:0,0:0:0:0:
268,232,107338,2,0,L|328:232,1,60,8|2,0:0|0:0,0:0:0:0:
412,240,107807,6,0,P|416:277|412:304,2,60,0|2|8,1:0|0:0|0:0,0:0:0:0:
352,80,108744,2,0,P|348:43|352:16,2,60,0|2|8,1:0|0:0|0:0,0:0:0:0:
420,128,109447,1,2,0:0:0:0:
344,164,109682,6,0,L|224:156,1,120,0|8,1:0|0:0,0:0:0:0:
148,120,110385,1,2,0:0:0:0:
192,280,110853,2,0,L|188:340,2,60,2|8|2,0:0|0:0|0:0,0:0:0:0:
108,264,111557,6,0,L|104:204,1,60,0|2,1:0|0:0,0:0:0:0:
63,127,112025,2,0,P|79:71|128:38,1,120,8|0,0:0|1:0,0:0:0:0:
296,36,112963,1,8,0:0:0:0:
256,192,113432,5,4,1:2:0:0:
256,192,113666,12,0,117182,1:0:0:0:
71,172,119057,6,0,L|76:52,1,120,6|8,0:1|0:0,0:0:0:0:
240,20,119994,2,0,P|296:40|380:28,1,120,2|8,0:0|0:0,0:0:0:0:
440,44,120697,6,0,P|458:100|453:160,1,120,2|2,2:1|2:0,0:0:0:0:
428,240,121400,1,8,0:0:0:0:
276,168,121869,2,0,L|152:176,1,120,2|8,0:0|0:0,0:0:0:0:
80,212,122572,1,2,2:0:0:0:
100,295,122807,6,0,P|154:325|216:320,1,120,2|8,0:0|0:0,0:0:0:0:
276,268,123510,1,2,2:1:0:0:
432,200,123978,2,0,P|475:242|484:300,1,120,2|2,2:0|2:0,0:0:0:0:
436,368,124682,6,0,B|356:360|356:360|324:336,1,120,2|8,0:0|0:0,0:0:0:0:
276,268,125385,2,0,P|264:204|282:154,1,120,2|2,2:1|2:0,0:0:0:0:
344,96,126088,1,8,0:0:0:0:
192,20,126557,6,0,P|126:35|88:72,1,120,4|8,0:2|0:0,0:0:0:0:
68,152,127260,1,2,2:1:0:0:
68,236,127494,2,0,L|68:300,2,60,0|2|8,0:0|2:0|0:0,0:0:0:0:
236,204,128432,6,0,L|364:212,1,120,2|8,0:0|0:0,0:0:0:0:
432,176,129135,1,2,2:1:0:0:
496,232,129369,2,0,P|497:269|492:296,2,60,0|2|8,0:0|2:0|0:0,0:0:0:0:
479,62,130307,5,2,0:0:0:0:
311,78,130775,1,8,0:0:0:0:
189,192,131244,1,2,0:0:0:0:
161,358,131713,1,8,0:0:0:0:
318,300,132182,6,0,L|440:296,1,120,2|8,0:0|0:0,0:0:0:0:
488,228,132885,1,2,2:1:0:0:
428,169,133119,2,0,P|424:132|432:105,1,60,0|2,0:0|2:0,0:0:0:0:
488,48,133588,1,8,1:2:0:0:
336,128,134057,6,0,L|216:124,1,120,4|8,0:0|0:0,0:0:0:0:
79,28,134994,2,0,P|49:79|49:138,1,120,2|8,0:0|0:0,0:0:0:0:
124,180,135697,2,0,P|138:237|122:294,1,120,2|2,2:1|2:0,0:0:0:0:
62,352,136400,1,8,0:0:0:0:
216,280,136869,2,0,P|288:276|336:296,1,120,2|8,0:0|0:0,0:0:0:0:
392,352,137572,1,2,2:0:0:0:
476,336,137807,6,0,P|496:272|480:220,1,120,2|8,0:0|0:0,0:0:0:0:
432,156,138510,1,2,2:1:0:0:
280,224,138978,2,0,L|160:224,1,120,2|2,2:0|2:0,0:0:0:0:
76,228,139682,6,0,L|80:304,2,60,2|2|8,0:0|2:0|0:0,0:0:0:0:
64,144,140385,2,0,P|75:85|124:56,1,120,2|2,2:1|2:0,0:0:0:0:
207,39,141088,1,8,0:0:0:0:
372,20,141557,6,0,L|368:152,1,120,4|8,0:2|0:0,0:0:0:0:
328,216,142260,1,2,2:1:0:0:
412,212,142494,2,0,L|476:218,2,60,0|2|8,0:0|2:0|0:0,0:0:0:0:
268,296,143432,6,0,L|148:284,1,120,2|8,0:0|0:0,0:0:0:0:
64,280,144135,1,2,2:1:0:0:
108,208,144369,2,0,L|108:144,2,60,0|2|8,0:0|2:0|0:0,0:0:0:0:
276,200,145307,5,2,0:0:0:0:
400,88,145775,1,8,0:0:0:0:
512,212,146244,1,2,0:0:0:0:
388,324,146713,1,8,0:0:0:0:
220,328,147182,6,0,L|84:320,1,120,2|8,0:0|0:0,0:0:0:0:
44,260,147885,1,2,2:1:0:0:
88,188,148119,2,0,P|132:184|156:192,1,60,0|2,0:0|2:0,0:0:0:0:
224,224,148588,1,8,0:0:0:0:
320,84,149057,5,4,0:1:0:0:
256,192,149291,12,6,152807,0:0:0:0:
388,72,167807,6,0,L|328:72,1,60,6|2,1:0|0:0,0:0:0:0:
244,68,168275,2,0,P|220:124|236:192,1,120,8|0,0:0|1:0,0:0:0:0:
260,260,168978,1,2,0:0:0:0:
236,340,169213,1,8,0:0:0:0:
68,316,169682,6,0,L|51:258,1,60,0|2,1:0|0:0,0:0:0:0:
32,176,170150,2,0,L|64:48,1,120,8|0,0:0|1:0,0:0:0:0:
136,22,170853,1,2,0:0:0:0:
216,48,171088,1,8,0:0:0:0:
260,208,171557,6,0,L|256:272,1,60,2|2,1:0|0:0,0:0:0:0:
292,344,172025,2,0,P|360:356|408:332,1,120,8|0,0:0|1:0,0:0:0:0:
444,260,172728,1,2,0:0:0:0:
444,176,172963,1,8,0:0:0:0:
336,48,173432,6,0,L|212:40,2,120,0|8|0,1:0|0:0|1:0,0:0:0:0:
420,64,174603,1,2,0:0:0:0:
456,140,174838,1,8,0:0:0:0:
404,300,175307,6,0,P|374:309|346:311,1,60,2|2,1:0|0:0,0:0:0:0:
264,288,175775,2,0,L|259:168,1,120,8|0,0:0|1:0,0:0:0:0:
264,84,176478,1,2,0:0:0:0:
335,131,176713,1,8,0:0:0:0:
180,200,177182,6,0,L|108:192,1,60,0|2,1:0|0:0,0:0:0:0:
83,271,177650,2,0,L|202:284,1,120,8|0,0:0|1:0,0:0:0:0:
268,228,178353,1,2,0:0:0:0:
284,144,178588,1,8,0:0:0:0:
144,48,179057,6,0,P|124:120|132:168,1,120,6|8,0:1|0:0,0:0:0:0:
188,324,179994,2,0,P|247:329|303:310,1,120,4|8,0:1|0:0,0:0:0:0:
384,160,180932,1,4,0:0:0:0:
256,192,181166,12,0,184564,0:0:0:0:
296,232,186557,6,0,L|168:224,1,120,4|8,2:1|0:0,0:0:0:0:
112,172,187260,1,2,2:0:0:0:
108,88,187494,2,0,P|155:44|212:36,1,120,2|8,0:0|0:0,0:0:0:0:
292,44,188197,5,2,2:1:0:0:
396,176,188666,1,2,2:0:0:0:
252,264,189135,1,2,2:0:0:0:
288,340,189369,2,0,P|343:359|401:344,1,120,2|8,0:0|0:0,0:0:0:0:
472,297,190072,1,2,2:0:0:0:
480,212,190307,6,0,L|468:92,1,120,2|8,0:0|0:0,0:0:0:0:
401,40,191010,2,0,P|344:22|288:43,2,120,2|2|2,2:1|2:0|2:0,0:0:0:0:
347,106,192182,6,0,L|335:226,1,120,2|8,0:0|0:0,0:0:0:0:
320,308,192885,2,0,P|262:326|206:304,1,120,2|2,2:1|2:0,0:0:0:0:
168,232,193588,1,8,0:0:0:0:
168,60,194057,6,0,L|296:68,1,120,4|8,0:2|0:0,0:0:0:0:
372,56,194760,1,2,2:1:0:0:
456,66,194994,2,0,P|467:98|469:124,1,60,0|2,0:0|2:0,0:0:0:0:
463,206,195463,1,8,0:0:0:0:
344,324,195932,6,0,L|216:316,1,120,2|8,0:0|0:0,0:0:0:0:
140,328,196635,1,2,2:1:0:0:
56,318,196869,2,0,P|44:285|42:259,1,60,0|2,0:0|2:0,0:0:0:0:
49,178,197338,1,8,0:0:0:0:
168,60,197807,5,2,0:0:0:0:
304,160,198275,1,8,0:0:0:0:
200,292,198744,1,2,0:0:0:0:
360,348,199213,1,8,0:0:0:0:
464,216,199682,6,0,P|484:156|468:100,1,120,2|8,0:0|0:0,0:0:0:0:
414,38,200385,1,2,2:1:0:0:
332,24,200619,2,0,L|272:32,1,60,0|2,0:0|2:0,0:0:0:0:
192,56,201088,1,8,1:2:0:0:
312,172,201557,6,0,L|312:296,1,120,4|8,0:0|0:0,0:0:0:0:
260,360,202260,1,2,2:0:0:0:
176,360,202494,2,0,P|116:347|80:300,1,120,2|8,0:0|0:0,0:0:0:0:
112,224,203197,6,0,L|112:100,1,120,2|2,2:1|2:0,0:0:0:0:
148,28,203900,1,8,0:0:0:0:
288,124,204369,2,0,P|346:131|400:106,1,120,2|8,0:0|0:0,0:0:0:0:
416,24,205072,1,2,2:0:0:0:
332,40,205307,6,0,L|208:40,1,120,2|8,0:0|0:0,0:0:0:0:
128,44,206010,1,2,2:1:0:0:
228,176,206478,2,0,B|228:260|228:260|218:279|204:292,1,120,2|2,2:0|2:0,0:0:0:0:
215,373,207182,6,0,P|159:358|124:310,1,120,2|8,0:0|0:0,0:0:0:0:
132,224,207885,2,0,L|132:100,1,120,2|2,2:1|2:0,0:0:0:0:
176,32,208588,1,8,0:0:0:0:
344,16,209057,6,0,L|460:64,1,120,4|8,0:2|0:0,0:0:0:0:
496,136,209760,1,2,2:1:0:0:
484,220,209994,2,0,P|456:235|429:240,1,60,0|2,0:0|2:0,0:0:0:0:
344,232,210463,1,8,0:0:0:0:
196,152,210932,6,0,L|80:200,1,120,2|8,0:0|0:0,0:0:0:0:
44,272,211635,1,2,2:1:0:0:
55,355,211869,2,0,P|82:370|111:376,1,60,0|2,0:0|2:0,0:0:0:0:
196,368,212338,1,8,0:0:0:0:
336,276,212807,5,2,0:0:0:0:
220,156,213275,1,8,0:0:0:0:
340,40,213744,1,2,0:0:0:0:
176,76,214213,1,8,0:0:0:0:
302,192,214682,6,0,P|261:233|203:244,1,120,2|8,0:0|0:0,0:0:0:0:
120,224,215385,1,2,2:1:0:0:
72,156,215619,2,0,L|72:96,1,60,0|2,0:0|2:0,0:0:0:0:
112,20,216088,1,8,0:0:0:0:
278,28,216557,5,4,0:1:0:0:
168,288,231557,6,0,P|224:328|276:332,1,120,4|8,0:1|0:0,0:0:0:0:
357,320,232260,1,2,0:0:0:0:
420,264,232494,2,0,L|420:200,2,60,0|2|8,1:0|0:0|0:0,0:0:0:0:
264,200,233432,6,0,L|264:80,1,120,0|8,1:0|0:0,0:0:0:0:
316,12,234135,1,2,0:0:0:0:
400,8,234369,2,0,P|439:16|466:28,2,60,0|2|8,1:0|0:0|0:0,0:0:0:0:
248,80,235307,6,0,L|184:76,1,60,0|2,1:0|0:0,0:0:0:0:
104,92,235775,2,0,P|112:126|109:155,1,60,8|2,0:0|0:0,0:0:0:0:
60,219,236244,2,0,P|59:249|67:278,2,60,0|2|8,1:0|0:0|0:0,0:0:0:0:
228,232,237182,6,0,L|287:235,1,60,0|2,1:0|0:0,0:0:0:0:
372,220,237650,2,0,P|364:191|365:161,1,60,8|2,0:0|0:0,0:0:0:0:
415,92,238119,1,0,1:0:0:0:
497,110,238353,1,8,0:0:0:0:
497,110,238588,1,8,0:0:0:0:
500,283,239057,6,0,L|384:315,1,120,4|8,0:0|0:0,0:0:0:0:
300,308,239760,1,2,0:0:0:0:
236,252,239994,2,0,L|233:220|236:192,2,60,0|2|8,1:0|0:0|0:0,0:0:0:0:
96,344,240932,6,0,P|75:252|80:200,1,120,0|8,1:0|0:0,0:0:0:0:
84,144,241635,1,2,0:0:0:0:
168,152,241869,2,0,L|232:152,2,60,0|2|8,1:0|0:0|0:0,0:0:0:0:
284,28,242807,6,0,L|345:44,1,60,0|2,1:0|0:0,0:0:0:0:
416,84,243275,2,0,L|448:139,1,60,8|2,0:0|0:0,0:0:0:0:
456,220,243744,2,0,L|439:281,2,60,0|2|8,1:0|0:0|0:0,0:0:0:0:
296,276,244682,6,0,L|234:259,1,60,0|2,1:0|0:0,0:0:0:0:
164,220,245150,2,0,L|131:164,1,60,8|2,0:0|0:0,0:0:0:0:
124,84,245619,1,0,1:0:0:0:
184,24,245853,1,8,0:0:0:0:
184,24,246088,1,8,0:0:0:0:
264,172,246557,6,0,L|264:296,1,120,4|8,0:1|0:0,0:0:0:0:
212,360,247260,1,2,0:0:0:0:
128,372,247494,2,0,P|92:363|68:352,1,60,0|2,1:0|0:0,0:0:0:0:
28,280,247963,1,8,0:0:0:0:
84,120,248432,6,0,L|204:104,1,120,0|8,1:0|0:0,0:0:0:0:
285,87,249135,1,2,0:0:0:0:
368,108,249369,2,0,P|377:139|377:167,1,60,0|2,1:0|0:0,0:0:0:0:
365,251,249838,1,8,0:0:0:0:
196,240,250307,6,0,L|136:247,1,60,0|2,1:0|0:0,0:0:0:0:
136,332,250775,2,0,L|196:340,1,60,8|2,0:0|0:0,0:0:0:0:
280,339,251244,2,0,L|340:332,1,60,0|2,1:0|0:0,0:0:0:0:
365,251,251713,1,8,0:0:0:0:
288,100,252182,6,0,P|282:69|288:40,1,60,0|2,1:0|0:0,0:0:0:0:
371,41,252650,2,0,P|377:70|371:100,1,60,8|2,0:0|0:0,0:0:0:0:
330,173,253119,1,0,1:0:0:0:
365,251,253353,1,8,0:0:0:0:
365,251,253588,1,8,0:0:0:0:
200,224,254057,6,0,L|80:224,1,120,4|8,0:0|0:0,0:0:0:0:
24,160,254760,1,2,0:0:0:0:
20,76,254994,2,0,P|41:53|72:36,1,60,0|2,1:0|0:0,0:0:0:0:
148,20,255463,1,8,0:0:0:0:
312,48,255932,6,0,P|333:114|320:164,1,120,0|8,1:0|0:0,0:0:0:0:
268,226,256635,1,2,0:0:0:0:
248,308,256869,2,0,P|272:352|284:364,1,60,0|2,1:0|0:0,0:0:0:0:
361,379,257338,1,8,0:0:0:0:
500,280,257807,6,0,L|500:220,1,60,0|2,1:0|0:0,0:0:0:0:
480,136,258275,2,0,P|450:130|421:136,1,60,8|2,0:0|0:0,0:0:0:0:
400,220,258744,2,0,L|400:280,1,60,0|2,1:0|0:0,0:0:0:0:
452,348,259213,1,8,0:0:0:0:
284,348,259682,6,0,L|216:340,1,60,0|2,1:0|0:0,0:0:0:0:
168,280,260150,2,0,P|160:240|164:216,1,60,8|2,0:0|0:0,0:0:0:0:
184,140,260619,1,0,1:0:0:0:
252,92,260853,1,8,0:0:0:0:
252,92,261088,1,8,0:0:0:0:
344,232,261557,5,4,0:1:0:0:
256,192,261791,12,6,265072,0:1:0:0:
