osu file format v13

[General]
AudioFilename: Kakushigoto.mp3
AudioLeadIn: 700
PreviewTime: 187972
Countdown: 0
SampleSet: Normal
StackLeniency: 0.7
Mode: 0
LetterboxInBreaks: 0
WidescreenStoryboard: 1

[Editor]
Bookmarks: 148972,191372
DistanceSpacing: 1
BeatDivisor: 2
GridSize: 4
TimelineZoom: 1.099999

[Metadata]
Title:Kakushigoto
TitleUnicode:かくしごと
Artist:Sharlo & yealina
ArtistUnicode:Sharlo & yealina
Creator:Sharlo
Version:Oracle's Normal
Source:
Tags:Vocaloid mafumafu IA Narcissu Oracle Fycho Kawaiwkyik RLC Icing_wind victorica_db Simple_Star Rumia- Xinely
BeatmapID:515346
BeatmapSetID:208095

[Difficulty]
HPDrainRate:4
CircleSize:3
OverallDifficulty:4
ApproachRate:6
SliderMultiplier:1.10000000596047
SliderTickRate:1

[Events]
//Background and Video events
0,0,"BG.jpg",0,0
//Break Periods
2,73573,80723
2,141973,147923
2,177773,186923
//Storyboard Layer 0 (Background)
//Storyboard Layer 1 (Fail)
//Storyboard Layer 2 (Pass)
//Storyboard Layer 3 (Foreground)
//Storyboard Sound Samples

[TimingPoints]
1373,300,4,1,22,45,1,0
1373,-100,4,2,22,45,0,0
1973,-100,4,1,22,55,0,0
13373,-133.333333333333,4,2,22,60,0,0
21773,-133.333333333333,4,1,22,60,0,0
22973,-100,4,1,22,60,0,0
32573,-100,4,3,22,45,0,0
41573,-100,4,1,22,60,0,0
51773,-100,4,1,22,80,0,1
69773,-100,4,1,22,60,0,1
70073,-100,4,1,22,65,0,1
70373,-100,4,1,22,70,0,1
70673,-100,4,1,22,75,0,1
70973,-100,4,1,22,80,0,0
81773,-133.333333333333,4,2,22,60,0,0
91373,-100,4,1,22,60,0,0
100973,-100,4,3,22,45,0,0
109973,-100,4,1,22,60,0,0
120173,-100,4,1,22,80,0,1
138173,-100,4,1,22,60,0,1
138473,-100,4,1,22,65,0,1
138773,-100,4,1,22,70,0,1
139073,-100,4,1,22,75,0,1
139373,-100,4,1,22,80,0,0
158573,-100,4,3,22,45,0,0
167573,-100,4,1,22,60,0,0
187973,-133.333333333333,4,2,22,40,0,0
189773,-100,4,1,22,80,0,1
204173,-100,4,1,22,80,0,0
205373,-100,4,1,22,40,0,0
205673,-100,4,1,22,80,0,1
222773,-100,4,1,22,60,0,1
223073,-100,4,1,22,65,0,1
223373,-100,4,1,22,70,0,1
223673,-100,4,1,22,75,0,1
224573,-100,4,1,22,80,0,0

[Colours]
Combo1 : 255,184,149
Combo2 : 251,159,175
Combo3 : 117,232,211
Combo4 : 152,140,255

[HitObjects]
252,236,1373,6,0,L|132:220,1,110.000000596047,4|4,0:0|0:0,0:0:0:0:
36,204,1973,1,8,0:0:0:0:
36,204,2273,1,8,0:0:0:0:
48,92,2573,6,0,P|96:68|156:72,1,110.000000596047,4|8,0:2|0:0,0:0:0:0:
260,52,3173,2,0,L|304:16,2,55.0000002980235,0|0|8,0:0|0:0|0:0,0:0:0:0:
216,152,3773,2,0,L|184:264,1,110.000000596047,0|8,0:0|0:0,0:0:0:0:
96,196,4373,2,0,L|64:308,1,110.000000596047,0|8,0:0|0:0,0:0:0:0:
164,352,4973,6,0,P|220:351|268:316,1,110.000000596047,0|8,0:0|0:0,0:0:0:0:
184,244,5573,2,0,P|228:208|248:136,1,110.000000596047,0|8,0:0|0:0,0:0:0:0:
292,60,6173,2,0,L|412:44,1,110.000000596047,0|8,0:0|0:0,0:0:0:0:
496,100,6773,2,0,P|519:148|505:200,1,110.000000596047,0|8,0:0|0:0,0:0:0:0:
428,280,7373,6,0,L|308:292,1,110.000000596047,4|8,0:2|0:0,0:0:0:0:
212,296,7973,2,0,P|234:355|281:381,2,110.000000596047,0|8|0,0:0|0:0|0:0,0:0:0:0:
196,188,8873,1,8,0:0:0:0:
244,88,9173,2,0,L|356:68,1,110.000000596047,0|8,0:0|0:0,0:0:0:0:
452,116,9773,5,0,0:0:0:0:
452,116,10073,1,8,0:0:0:0:
396,212,10373,2,0,L|284:232,1,110.000000596047,0|8,0:0|0:0,0:0:0:0:
184,272,10973,1,0,0:0:0:0:
92,332,11273,1,8,0:0:0:0:
88,224,11573,2,0,P|84:168|48:116,1,110.000000596047,0|2,0:0|0:2,0:0:0:0:
392,48,13373,6,0,P|424:76|444:124,1,82.5000035941606
408,196,13973,2,0,L|324:212,1,82.5000035941606,2|2,0:0|0:0,0:0:0:0:
256,156,14573,1,10,0:0:0:0:
116,40,15173,2,0,P|76:44|36:76,1,82.5000035941606,2|2,0:0|0:0,0:0:0:0:
108,132,15773,6,0,L|88:216,1,82.5000035941606
180,216,16373,2,0,L|160:300,1,82.5000035941606,2|2,0:0|0:0,0:0:0:0:
236,348,16973,1,10,0:0:0:0:
348,204,17573,2,0,P|388:196|432:212,1,82.5000035941606,2|2,0:0|0:0,0:0:0:0:
384,284,18173,6,0,P|388:184|432:124,1,165.000007188321,2|2,0:0|0:0,0:0:0:0:
468,52,19073,1,2,0:0:0:0:
468,52,19373,2,0,B|288:36,1,165.000007188321,0|2,0:0|0:0,0:0:0:0:
224,200,20573,6,0,P|212:240|176:272,1,82.5000035941606,2|0,0:0|0:0,0:0:0:0:
132,344,21173,2,0,P|104:312|96:268,1,82.5000035941606,2|0,0:0|0:0,0:0:0:0:
136,192,21773,1,0,0:0:0:0:
136,192,22073,1,0,0:0:0:0:
176,112,22373,2,0,L|268:96,1,82.5000035941606
368,88,22973,6,0,P|397:133|401:188,1,110.000000596047,4|8,0:2|0:0,0:0:0:0:
380,296,23573,2,0,B|312:288|312:288|268:320|216:300,1,165.00000089407
172,276,24173,2,0,P|144:228|148:172,2,110.000000596047,0|8|0,0:0|0:0|0:0,0:0:0:0:
364,164,25373,6,0,P|392:120|388:56,1,110.000000596047,0|8,0:0|0:0,0:0:0:0:
284,88,25973,2,0,L|108:76,1,165.00000089407
64,72,26573,2,0,P|24:108|36:160,1,110.000000596047,0|8,0:0|0:0,0:0:0:0:
120,228,27173,1,0,0:0:0:0:
227,220,27473,2,0,P|252:208|264:184,1,55.0000002980235,8|0,0:0|0:0,0:0:0:0:
284,132,27773,6,0,L|400:132,1,110.000000596047,0|8,0:0|0:0,0:0:0:0:
488,192,28373,2,0,P|492:260|416:244,1,165.00000089407
372,216,28973,2,0,P|313:225|276:264,2,110.000000596047,0|8|0,0:0|0:0|0:0,0:0:0:0:
368,328,29873,1,8,0:0:0:0:
264,360,30173,6,0,P|213:340|179:291,1,110.000000596047,0|8,0:0|0:0,0:0:0:0:
160,188,30773,1,0,0:0:0:0:
232,108,31073,1,8,0:0:0:0:
340,80,31373,2,0,L|460:84,1,110.000000596047,0|8,0:0|0:0,0:0:0:0:
484,188,31973,2,0,L|488:244,2,55.0000002980235,0|0|8,0:0|0:0|0:0,0:0:0:0:
376,216,32573,6,0,L|252:216,1,110.000000596047,2|0,0:2|0:0,0:0:0:0:
268,104,33173,2,0,L|144:104,1,110.000000596047
56,64,33773,1,2,0:2:0:0:
48,264,34373,2,0,B|92:292|92:292|160:284,1,110.000000596047
248,236,34973,6,0,L|272:344,1,110.000000596047,2|0,0:2|0:0,0:0:0:0:
352,264,35573,2,0,L|376:372,1,110.000000596047
468,312,36173,1,2,0:2:0:0:
440,100,36773,2,0,B|400:68|400:68|328:72,1,110.000000596047
268,152,37373,6,0,L|236:32,1,110.000000596047,2|0,0:2|0:0,0:0:0:0:
164,128,37973,2,0,L|135:21,1,110.000000596047
40,76,38573,1,2,0:2:0:0:
72,292,39173,2,0,B|192:292,1,110.000000596047
227,191,39773,6,0,P|275:223|291:275,1,110.000000596047,2|0,0:2|0:0,0:0:0:0:
336,371,40373,2,0,P|379:341|400:283,1,110.000000596047
432,184,40973,2,0,L|420:124,1,55.0000002980235,0|2,0:0|0:2,0:0:0:0:
376,96,41273,2,0,L|312:68,1,55.0000002980235,0|2,0:0|0:2,0:0:0:0:
280,56,41573,6,0,L|164:56,1,110.000000596047,4|4,0:2|0:2,0:0:0:0:
64,84,42173,6,0,P|44:140|56:196,1,110.000000596047,4|8,0:2|0:0,0:0:0:0:
160,204,42773,2,0,P|196:248|256:260,1,110.000000596047,0|8,0:0|0:0,0:0:0:0:
321,179,43373,2,0,P|289:273|368:365,1,220.000001192094
399,258,44273,1,8,0:0:0:0:
432,152,44573,6,0,L|412:32,1,110.000000596047,0|8,0:0|0:0,0:0:0:0:
308,76,45173,2,0,P|263:44|192:48,1,110.000000596047,0|8,0:0|0:0,0:0:0:0:
128,116,45773,2,0,L|100:240,1,110.000000596047,0|8,0:0|0:0,0:0:0:0:
320,256,46673,1,0,0:0:0:0:
320,256,46973,6,0,P|360:216|432:212,1,110.000000596047,6|8,0:2|0:0,0:0:0:0:
480,120,47573,2,0,P|448:72|396:48,1,110.000000596047,8|8,0:0|0:0,0:0:0:0:
300,84,48173,1,8,0:0:0:0:
300,84,48473,1,8,0:0:0:0:
196,48,48773,1,8,0:0:0:0:
196,48,49073,1,8,0:0:0:0:
92,88,49373,6,0,B|124:152|188:156|188:156|132:172|112:232,1,220.000001192094,4|0,0:2|0:0,0:0:0:0:
36,296,50273,2,0,P|104:329|196:298,1,165.00000089407,0|4,0:0|0:2,0:0:0:0:
268,232,51023,2,0,L|280:164,1,55.0000002980235,8|4,0:0|0:2,0:0:0:0:
76,44,51773,6,0,L|52:172,1,110.000000596047,4|8,0:2|0:0,0:0:0:0:
72,260,52373,2,0,P|152:260|176:124,1,220.000001192094,0|2,0:2|0:2,0:0:0:0:
160,36,53273,1,8,0:0:0:0:
264,76,53573,2,0,L|380:88,1,110.000000596047,0|8,0:0|0:0,0:0:0:0:
432,180,54173,6,0,P|447:237|432:300,1,110.000000596047,2|8,0:2|0:0,0:0:0:0:
328,284,54773,2,0,P|312:226|328:172,1,110.000000596047,0|8,0:2|0:0,0:0:0:0:
372,80,55373,1,2,0:2:0:0:
156,40,55973,2,0,L|56:92,1,110.000000596047,0|8,0:0|0:0,0:0:0:0:
64,200,56573,6,0,P|49:257|64:312,1,110.000000596047,4|8,0:2|0:0,0:0:0:0:
172,308,57173,2,0,P|188:250|172:196,1,110.000000596047,0|8,0:0|0:0,0:0:0:0:
124,104,57773,2,0,P|240:108|288:200,1,220.000001192094,2|0,0:2|0:2,0:0:0:0:
296,300,58673,1,8,0:0:0:0:
396,256,58973,6,0,L|464:256,2,55.0000002980235,8|8|4,0:0|0:0|0:2,0:0:0:0:
360,152,59573,2,0,L|424:152,2,55.0000002980235,8|8|4,0:0|0:0|0:2,0:0:0:0:
260,108,60173,6,0,L|144:128,1,110.000000596047,0|8,0:0|0:0,0:0:0:0:
96,224,60773,1,0,0:0:0:0:
168,320,61073,1,8,0:0:0:0:
224,212,61373,2,0,P|272:248|284:296,1,110.000000596047,4|8,0:2|0:0,0:0:0:0:
396,344,61973,2,0,P|460:272|376:244,1,220.000001192094,0|2,0:0|0:2,0:0:0:0:
284,324,62873,5,8,0:0:0:0:
176,332,63173,2,0,L|64:348,1,110.000000596047,0|8,0:0|0:0,0:0:0:0:
68,236,63773,2,0,L|92:112,1,110.000000596047,0|8,0:0|0:0,0:0:0:0:
196,152,64373,2,0,L|292:76,2,110.000000596047,0|8|0,0:0|0:0|0:0,0:0:0:0:
320,336,65573,5,0,0:0:0:0:
424,296,65873,1,8,0:0:0:0:
448,188,66173,2,0,L|460:72,1,110.000000596047,4|8,0:2|0:0,0:0:0:0:
356,44,66773,5,0,0:0:0:0:
248,48,67073,1,8,0:0:0:0:
216,152,67373,2,0,L|204:268,1,110.000000596047,4|8,0:2|0:0,0:0:0:0:
300,316,67973,5,0,0:0:0:0:
368,232,68273,1,8,0:0:0:0:
328,132,68573,2,0,B|272:112|220:128|220:128|184:168|116:160,1,220.000001192094,4|2,0:2|0:2,0:0:0:0:
32,92,69473,5,8,0:0:0:0:
8,200,69773,2,0,P|40:316|136:344,2,220.000001192094,4|8|4,0:2|0:0|0:2,0:0:0:0:
256,192,71123,12,4,73373,0:2:0:0:
444,64,81773,6,0,L|456:156,1,82.5000035941606
372,188,82373,2,0,L|361:106,1,82.5000035941606,2|2,0:0|0:0,0:0:0:0:
300,40,82973,1,10,0:0:0:0:
192,188,83573,2,0,P|158:211|118:215,1,82.5000035941606,2|2,0:0|0:0,0:0:0:0:
128,124,84173,6,0,L|147:43,1,82.5000035941606
56,56,84773,2,0,L|36:140,1,82.5000035941606,2|2,0:0|0:0,0:0:0:0:
92,208,85373,1,10,0:0:0:0:
232,92,85973,2,0,P|270:79|310:87,1,82.5000035941606,2|2,0:0|0:0,0:0:0:0:
400,108,86573,6,0,B|424:136|424:176|424:176|452:188|468:196|468:216|460:228|444:232|432:220,1,165.000007188321,2|0,0:0|0:0,0:0:0:0:
344,216,87473,1,2,0:0:0:0:
344,216,87773,2,0,P|312:248|304:288,2,82.5000035941606,0|2|2,0:0|0:0|0:0,0:0:0:0:
180,136,88973,6,0,L|72:132,1,82.5000035941606,2|0,0:0|0:0,0:0:0:0:
40,60,89573,2,0,P|12:90|3:130,1,82.5000035941606,2|0,0:0|0:0,0:0:0:0:
52,208,90173,1,0,3:0:0:0:
52,208,90473,1,0,3:0:0:0:
140,224,90773,2,0,L|221:238,1,82.5000035941606,2|0,0:0|0:0,0:0:0:0:
316,176,91373,6,0,L|356:284,1,110.000000596047,4|8,0:2|0:0,0:0:0:0:
448,220,91973,2,0,L|455:55,1,165.00000089407
416,16,92573,2,0,P|364:0|312:16,2,110.000000596047,0|8|0,0:0|0:0|0:0,0:0:0:0:
288,192,93773,6,0,P|256:148|260:84,1,110.000000596047,0|8,0:0|0:0,0:0:0:0:
364,112,94373,2,0,L|392:292,1,165.00000089407
400,328,94973,2,0,P|360:360|304:348,1,110.000000596047,0|8,0:0|0:0,0:0:0:0:
296,240,95573,1,0,0:0:0:0:
312,132,95873,1,8,0:0:0:0:
364,112,96023,1,0,0:0:0:0:
416,132,96173,6,0,P|428:192|408:240,1,110.000000596047,0|8,0:0|0:0,0:0:0:0:
296,240,96773,2,0,P|240:204|128:232,1,165.00000089407
108,256,97373,2,0,L|88:368,2,110.000000596047,0|8|0,0:0|0:0|0:0,0:0:0:0:
60,156,98273,1,8,0:0:0:0:
155,99,98573,6,0,P|206:119|239:163,1,110.000000596047,0|8,0:0|0:0,0:0:0:0:
220,272,99173,1,0,0:0:0:0:
136,204,99473,1,8,0:0:0:0:
239,163,99773,2,0,L|348:159,1,110.000000596047,0|8,0:0|0:0,0:0:0:0:
436,228,100373,2,0,L|432:284,2,55.0000002980235,0|0|8,0:0|0:0|0:0,0:0:0:0:
332,264,100973,6,0,L|208:276,1,110.000000596047,2|0,0:2|0:0,0:0:0:0:
240,164,101573,2,0,L|130:164,1,110.000000596047
44,92,102173,1,2,0:2:0:0:
256,28,102773,2,0,B|324:28|324:28|364:52,1,110.000000596047
416,144,103373,6,0,L|392:252,1,110.000000596047,2|0,0:2|0:0,0:0:0:0:
288,212,103973,2,0,L|156:212,1,110.000000596047
72,240,104573,1,2,0:2:0:0:
268,344,105173,2,0,B|336:344|336:344|376:320,1,110.000000596047
420,224,105773,6,0,L|452:104,1,110.000000596047,2|0,0:2|0:0,0:0:0:0:
340,136,106373,2,0,L|369:29,1,110.000000596047
260,48,106973,1,2,0:2:0:0:
36,68,107573,2,0,B|36:180,1,110.000000596047
64,284,108173,6,0,P|82:334|128:364,1,110.000000596047,2|0,0:2|0:0,0:0:0:0:
172,264,108773,2,0,P|190:213|236:184,1,110.000000596047
280,284,109373,2,0,L|340:312,1,55.0000002980235,0|2,0:0|0:2,0:0:0:0:
384,312,109673,2,0,L|456:284,1,55.0000002980235,2|2,0:2|0:2,0:0:0:0:
432,236,109973,6,0,L|432:116,1,110.000000596047,4|4,0:2|0:2,0:0:0:0:
340,64,110573,6,0,P|293:35|239:36,1,110.000000596047,4|8,0:2|0:0,0:0:0:0:
220,144,111173,2,0,P|167:168|140:212,1,110.000000596047,0|8,0:0|0:0,0:0:0:0:
240,260,111773,2,0,P|167:183|63:201,1,220.000001192094
132,288,112673,1,8,0:0:0:0:
240,260,112973,6,0,L|276:144,1,110.000000596047,0|8,0:0|0:0,0:0:0:0:
356,80,113573,2,0,P|311:48|240:52,1,110.000000596047,0|8,0:0|0:0,0:0:0:0:
164,104,114173,2,0,L|131:209,1,110.000000596047,0|8,0:0|0:0,0:0:0:0:
352,284,115373,6,0,L|476:284,1,110.000000596047,6|8,0:2|0:0,0:0:0:0:
462,176,115973,2,0,L|352:176,1,110.000000596047,8|8,0:0|0:0,0:0:0:0:
240,176,116573,1,8,0:0:0:0:
240,176,116873,1,8,0:0:0:0:
240,284,117173,1,8,0:0:0:0:
240,284,117473,1,8,0:0:0:0:
144,228,117773,6,0,P|152:112|248:68,1,220.000001192094,4|0,0:2|0:0,0:0:0:0:
240,176,118673,2,0,L|408:180,1,165.00000089407,0|4,0:0|0:2,0:0:0:0:
488,256,119423,2,0,L|478:310,1,55.0000002980235,8|4,0:0|0:2,0:0:0:0:
261,296,120173,6,0,L|240:180,1,110.000000596047,4|8,0:2|0:0,0:0:0:0:
268,80,120773,2,0,P|164:100|108:204,1,220.000001192094,0|2,0:0|0:2,0:0:0:0:
164,288,121673,1,8,0:0:0:0:
268,324,121973,2,0,L|384:312,1,110.000000596047,0|8,0:0|0:0,0:0:0:0:
452,232,122573,6,0,P|464:176|444:124,1,110.000000596047,0|8,0:0|0:0,0:0:0:0:
336,124,123173,2,0,P|318:175|330:228,1,110.000000596047,0|8,0:0|0:0,0:0:0:0:
392,320,123773,1,2,0:2:0:0:
176,356,124373,2,0,L|48:360,1,110.000000596047,0|8,0:0|0:0,0:0:0:0:
72,248,124973,6,0,P|59:194|71:141,1,110.000000596047,4|8,0:2|0:0,0:0:0:0:
180,144,125573,2,0,P|191:197|179:250,1,110.000000596047,0|8,0:2|0:0,0:0:0:0:
124,348,126173,2,0,P|253:333|288:244,1,220.000001192094,2|0,0:2|0:0,0:0:0:0:
276,152,127073,1,8,0:0:0:0:
208,68,127373,6,0,P|184:52|144:44,2,55.0000002980235,8|8|4,0:0|0:0|0:2,0:0:0:0:
276,152,127973,2,0,L|252:224,2,55.0000002980235,8|8|4,0:0|0:0|0:2,0:0:0:0:
340,64,128573,5,4,0:2:0:0:
428,132,128873,1,8,0:0:0:0:
432,240,129173,1,0,0:0:0:0:
356,320,129473,1,8,0:0:0:0:
312,220,129773,2,0,L|236:132,1,110.000000596047,4|8,0:2|0:0,0:0:0:0:
132,148,130373,2,0,P|141:85|172:48,2,110.000000596047,0|8|0,0:0|0:0|0:0,0:0:0:0:
128,260,131273,5,8,0:0:0:0:
228,308,131573,2,0,L|336:324,1,110.000000596047,0|8,0:0|0:0,0:0:0:0:
424,256,132173,1,2,0:2:0:0:
437,146,132473,1,8,0:0:0:0:
336,192,132773,2,0,P|324:136|344:84,2,110.000000596047,0|8|0,0:0|0:0|0:0,0:0:0:0:
208,372,133973,5,0,0:0:0:0:
108,328,134273,1,8,0:0:0:0:
152,228,134573,2,0,L|128:108,1,110.000000596047,4|8,0:2|0:0,0:0:0:0:
188,28,135173,5,0,0:0:0:0:
296,44,135473,1,8,0:0:0:0:
356,136,135773,2,0,L|380:248,1,110.000000596047,4|8,0:2|0:0,0:0:0:0:
280,296,136373,5,0,0:0:0:0:
188,232,136673,1,8,0:0:0:0:
248,140,136973,2,0,B|304:116|360:144|360:144|384:168|412:168|420:148|420:116|384:92,2,220.000001192094,4|0|4,0:2|0:0|0:2,0:0:0:0:
150,192,138473,1,8,0:0:0:0:
201,290,138773,1,8,0:0:0:0:
310,290,139073,1,8,0:0:0:0:
361,192,139373,1,4,0:2:0:0:
256,192,139523,12,4,141773,0:2:0:0:
468,60,148973,6,0,L|304:100,1,165.00000089407,4|2,0:2|0:2,0:0:0:0:
224,172,149723,2,0,P|272:204|332:208,1,110.000000596047,2|2,0:2|0:2,0:0:0:0:
372,188,150173,2,0,P|392:216|396:244,1,55.0000002980235,0|2,0:0|0:2,0:0:0:0:
396,292,150473,2,0,P|372:308|343:308,1,55.0000002980235,0|2,0:0|0:2,0:0:0:0:
292,296,150773,2,0,L|164:296,1,110.000000596047,2|8,0:2|0:0,0:0:0:0:
84,248,151373,6,0,P|104:224|116:200,1,55.0000002980235,0|2,0:0|0:2,0:0:0:0:
116,148,151673,2,0,P|92:128|76:96,1,55.0000002980235,0|2,0:0|0:2,0:0:0:0:
104,56,151973,2,0,L|280:56,1,165.00000089407,2|2,0:2|0:2,0:0:0:0:
324,68,152573,2,0,B|368:112|368:112|330:141,1,110.000000596047,0|8,0:0|0:0,0:0:0:0:
220,152,153173,2,0,B|182:181|182:181|226:225,1,110.000000596047,0|8,0:0|0:0,0:0:0:0:
332,252,153773,6,0,B|360:248|376:268|376:296|360:308|332:304|332:304|272:292|208:352,1,220.000001192094,4|2,0:2|0:2,0:0:0:0:
116,360,154673,1,8,0:0:0:0:
140,252,154973,2,0,B|148:192|100:140|100:140|116:92|196:80,1,220.000001192094,4|2,0:2|0:2,0:0:0:0:
288,100,155873,1,8,0:0:0:0:
368,176,156173,5,4,0:2:0:0:
368,176,156473,1,8,0:0:0:0:
344,284,156773,1,8,0:0:0:0:
344,284,157073,1,8,0:0:0:0:
236,246,157373,2,0,B|176:232|176:232|136:264|136:264|128:208|128:208|104:168|104:168|160:148|152:68,1,330.000001788141,6|8,0:2|0:0,0:0:0:0:
252,24,158573,6,0,L|364:16,1,110.000000596047,2|0,0:2|0:0,0:0:0:0:
320,120,159173,2,0,L|436:112,1,110.000000596047,0|0,0:0|0:0,0:0:0:0:
460,220,159773,1,2,0:2:0:0:
284,352,160373,2,0,L|160:348,1,110.000000596047
96,268,160973,6,0,L|72:156,1,110.000000596047,2|0,0:2|0:0,0:0:0:0:
184,172,161573,2,0,L|160:60,1,110.000000596047
264,24,162173,1,2,0:2:0:0:
480,60,162773,2,0,P|503:110|502:164,1,110.000000596047
412,224,163373,6,0,P|376:260|372:324,1,110.000000596047,2|0,0:2|0:0,0:0:0:0:
264,344,163973,2,0,L|148:344,1,110.000000596047
60,284,164573,1,2,0:2:0:0:
128,76,165173,2,0,L|256:48,1,110.000000596047
344,76,165773,6,0,P|372:132|368:192,1,110.000000596047,2|0,0:2|0:0,0:0:0:0:
404,284,166373,2,0,P|352:304|280:280,1,110.000000596047
212,228,166973,2,0,P|192:204|187:178,1,55.0000002980235,0|2,0:0|0:2,0:0:0:0:
176,128,167273,2,0,P|184:100|207:82,1,55.0000002980235,0|2,0:0|0:2,0:0:0:0:
256,68,167573,6,0,L|372:60,1,110.000000596047,4|4,0:2|0:2,0:0:0:0:
444,140,168173,6,0,P|424:192|428:252,1,110.000000596047,4|8,0:2|0:0,0:0:0:0:
316,232,168773,2,0,P|324:292|344:340,1,110.000000596047,0|8,0:0|0:0,0:0:0:0:
236,308,169373,2,0,P|144:260|64:332,1,220.000001192094,0|2,0:0|0:2,0:0:0:0:
24,224,170273,1,8,0:0:0:0:
24,224,170573,6,0,L|48:112,1,110.000000596047,0|8,0:0|0:0,0:0:0:0:
116,32,171173,2,0,P|152:84|148:144,1,110.000000596047,0|8,0:0|0:0,0:0:0:0:
144,240,171773,2,0,L|256:240,1,110.000000596047,0|8,0:0|0:0,0:0:0:0:
360,208,172373,2,0,P|332:160|284:136,1,110.000000596047,0|8,0:0|0:0,0:0:0:0:
176,136,172973,6,0,L|56:96,1,110.000000596047,12|8,0:2|0:0,0:0:0:0:
40,204,173573,2,0,L|160:244,1,110.000000596047,8|8,0:0|0:0,0:0:0:0:
216,324,174173,1,8,0:0:0:0:
216,324,174473,1,8,0:0:0:0:
272,228,174773,1,8,0:0:0:0:
272,228,175073,1,8,0:0:0:0:
268,120,175373,6,0,P|192:156|166:236,2,165.00000089407,4|0|2,0:2|0:0|0:2,0:0:0:0:
272,228,176573,6,0,L|272:308,2,73.333333730698,8|8|8,0:0|0:0|0:0,0:0:0:0:
356,168,177173,2,0,L|356:80,2,73.333333730698,8|8|8,0:0|0:0|0:0,0:0:0:0:
216,67,187973,6,0,P|256:60|296:68,1,82.5000035941606,0|2,0:0|0:0,0:0:0:0:
256,152,188573,2,0,L|256:324,1,165.000007188321,2|2,0:0|0:0,0:0:0:0:
444,160,189773,6,0,P|436:100|400:64,1,110.000000596047,4|8,0:2|0:0,0:0:0:0:
304,120,190373,2,0,P|256:136|192:116,1,110.000000596047,0|8,0:0|0:0,0:0:0:0:
108,64,190973,1,0,0:0:0:0:
36,148,191273,1,8,0:0:0:0:
88,244,191573,2,0,L|200:268,1,110.000000596047,0|8,0:0|0:0,0:0:0:0:
305,260,192173,6,0,P|332:145|252:74,1,220.000001192094,0|2,0:0|0:2,0:0:0:0:
232,180,193073,1,8,0:0:0:0:
132,228,193373,2,0,L|24:244,2,110.000000596047,4|8|0,0:2|0:0|0:0,0:0:0:0:
232,180,194273,1,8,0:0:0:0:
136,128,194573,6,0,L|16:124,1,110.000000596047,2|8,0:2|0:0,0:0:0:0:
92,36,195173,2,0,B|156:40|156:40|204:60,1,110.000000596047,0|8,0:0|0:0,0:0:0:0:
272,140,195773,2,0,L|272:200,2,55.0000002980235,8|0|4,0:0|0:0|0:2,0:0:0:0:
364,76,196373,2,0,L|364:20,2,55.0000002980235,8|0|4,0:0|0:0|0:2,0:0:0:0:
400,180,196973,6,0,P|408:232|456:272,1,110.000000596047,4|8,0:2|0:0,0:0:0:0:
360,332,197573,2,0,P|308:312|256:328,1,110.000000596047,0|8,0:0|0:0,0:0:0:0:
152,356,198173,2,0,P|224:265|156:188,1,220.000001192094,4|2,0:2|0:2,0:0:0:0:
72,148,199073,1,8,0:0:0:0:
156,76,199373,5,0,0:0:0:0:
256,120,199673,1,8,0:0:0:0:
356,76,199973,2,0,P|408:64|464:80,1,110.000000596047,0|8,0:0|0:0,0:0:0:0:
452,188,200573,2,0,L|440:312,1,110.000000596047,2|8,0:2|0:0,0:0:0:0:
336,332,201173,2,0,L|348:216,1,110.000000596047,0|8,0:0|0:0,0:0:0:0:
256,164,201773,5,0,0:0:0:0:
36,192,202373,1,0,0:0:0:0:
60,300,202673,1,8,0:0:0:0:
156,352,202973,2,0,P|208:356|264:324,1,110.000000596047,4|8,0:2|0:0,0:0:0:0:
300,228,203573,2,0,P|344:260|368:324,1,110.000000596047,0|8,0:0|0:0,0:0:0:0:
444,232,204173,5,0,0:0:0:0:
508,144,204473,1,8,0:0:0:0:
400,120,204773,2,0,P|345:117|301:149,1,110.000000596047,8|8,0:0|0:0,0:0:0:0:
256,248,205373,5,8,2:2:0:0:
176,324,205673,6,0,L|56:324,1,110.000000596047,4|0,0:2|0:0,0:0:0:0:
24,224,206273,1,8,0:0:0:0:
24,224,206573,2,0,P|21:168|44:120,1,110.000000596047,0|8,0:0|0:0,0:0:0:0:
152,100,207173,2,0,P|200:72|256:76,1,110.000000596047,0|8,0:0|0:0,0:0:0:0:
324,156,207773,5,2,0:2:0:0:
395,238,208073,1,8,0:0:0:0:
492,188,208373,1,0,0:0:0:0:
480,80,208673,1,8,0:0:0:0:
372,56,208973,5,2,0:2:0:0:
304,272,209573,2,0,P|336:320|384:336,1,110.000000596047,0|8,0:0|0:0,0:0:0:0:
404,228,210173,2,0,P|320:164|208:204,1,220.000001192094,4|2,0:2|0:2,0:0:0:0:
172,296,211073,1,8,0:0:0:0:
64,268,211373,6,0,B|44:216|44:216|60:148,1,110.000000596047,0|8,0:0|0:0,0:0:0:0:
140,92,211973,2,0,L|252:88,1,110.000000596047,0|8,0:0|0:0,0:0:0:0:
340,152,212573,2,0,L|312:216,2,55.0000002980235,8|8|4,0:0|0:0|0:2,0:0:0:0:
432,92,213173,2,0,L|420:32,2,55.0000002980235,8|8|4,0:0|0:0|0:2,0:0:0:0:
484,188,213773,5,4,0:2:0:0:
440,288,214073,1,8,0:0:0:0:
364,208,214373,2,0,P|312:196|256:220,1,110.000000596047,0|8,0:0|0:0,0:0:0:0:
232,324,214973,2,0,L|120:316,1,110.000000596047,4|8,0:2|0:0,0:0:0:0:
40,244,215573,2,0,P|37:129|120:80,1,220.000001192094,2|0,0:2|0:0,0:0:0:0:
132,188,216473,5,8,0:0:0:0:
216,260,216773,2,0,L|324:288,1,110.000000596047,0|8,0:0|0:0,0:0:0:0:
412,224,217373,1,2,0:2:0:0:
444,120,217673,1,8,0:0:0:0:
336,92,217973,2,0,P|344:144|316:196,2,110.000000596047,0|8|0,0:0|0:0|0:2,0:0:0:0:
120,40,219173,5,0,0:0:0:0:
32,104,219473,1,8,0:0:0:0:
24,212,219773,2,0,L|40:320,1,110.000000596047,4|0,0:2|0:0,0:0:0:0:
148,336,220373,5,0,0:0:0:0:
144,228,220673,1,8,0:0:0:0:
236,284,220973,2,0,L|352:296,1,110.000000596047,4|8,0:2|0:0,0:0:0:0:
444,244,221573,5,8,0:0:0:0:
440,136,221873,1,0,0:0:0:0:
352,188,222173,2,0,L|236:176,1,110.000000596047,4|8,0:2|0:0,0:0:0:0:
168,96,222773,2,0,P|140:148|140:216,1,110.000000596047,8|8,0:0|0:0,0:0:0:0:
204,288,223373,2,0,L|316:300,1,110.000000596047,4|8,0:2|0:0,0:0:0:0:
424,308,223973,1,4,0:2:0:0:
256,188,224573,5,4,0:2:0:0:
256,192,224723,12,4,229373,0:2:0:0:
