osu file format v13

[General]
AudioFilename: natsukoi.mp3
AudioLeadIn: 0
PreviewTime: 67183
Countdown: 0
SampleSet: Soft
StackLeniency: 0.7
Mode: 0
LetterboxInBreaks: 0
WidescreenStoryboard: 0

[Editor]
DistanceSpacing: 1.3
BeatDivisor: 4
GridSize: 4
TimelineZoom: 2.4

[Metadata]
Title:Natsukoi Hanabi
TitleUnicode:夏恋花火
Artist:Shano x 40mP
ArtistUnicode:シャノ x 40㍍
Creator:DevilA1r
Version:Insane
Source:
Tags:litoluna sugar panoram a note summer festival fireworks chano
BeatmapID:446256
BeatmapSetID:186896

[Difficulty]
HPDrainRate:7
CircleSize:4
OverallDifficulty:8
ApproachRate:8.5
SliderMultiplier:1.8
SliderTickRate:1

[Events]
//Background and Video events
0,0,"hanabi.jpg",0,0
//Break Periods
//Storyboard Layer 0 (Background)
//Storyboard Layer 1 (Fail)
//Storyboard Layer 2 (Pass)
//Storyboard Layer 3 (Foreground)
//Storyboard Sound Samples
//Background Colour Transformations
3,100,163,162,255

[TimingPoints]
348,379.746835443038,4,2,1,60,1,0
9461,-100,4,2,1,30,0,0
12499,-100,4,2,1,50,0,0
24272,-100,4,2,1,20,0,0
24366,-100,4,2,1,30,0,0
24461,-100,4,2,1,40,0,0
24556,-100,4,2,1,50,0,0
26930,-100,4,2,1,40,0,0
27310,-100,4,2,1,30,0,0
27689,-100,4,2,1,20,0,0
33765,-100,4,2,1,40,0,0
41360,-100,4,2,1,20,0,0
45917,-100,4,2,1,40,0,0
64145,-100,4,2,1,30,0,0
64335,-100,4,2,1,35,0,0
64525,-100,4,2,1,40,0,0
64715,-100,4,2,1,45,0,0
64904,-100,4,2,1,48,0,0
65094,-100,4,2,1,51,0,0
65284,-100,4,2,1,53,0,0
65474,-100,4,2,1,56,0,0
65664,-100,4,2,1,60,0,0
66613,-200,4,2,1,60,0,0
66708,-200,4,2,1,10,0,0
67183,-100,4,2,1,60,0,1
78765,-100,4,2,1,60,0,1
78955,-100,4,2,1,40,0,1
79145,-100,4,2,1,30,0,0
79335,-100,4,2,1,50,0,1
85601,-100,4,2,1,30,0,1
85791,-100,4,2,1,50,0,1
85980,-100,4,2,1,30,0,1
86170,-100,4,2,1,50,0,1
86360,-100,4,2,1,30,0,1
86550,-100,4,2,1,50,0,1
86740,-100,4,2,1,30,0,1
86930,-100,4,2,1,50,0,1
87120,-100,4,2,1,30,0,1
87310,-100,4,2,1,50,0,1
87499,-100,4,2,1,30,0,1
87689,-100,4,2,1,50,0,1
87879,-100,4,2,1,30,0,1
88069,-100,4,2,1,50,0,1
88259,-100,4,2,1,30,0,1
88449,-100,4,2,1,50,0,1
88639,-100,4,2,1,30,0,1
88829,-100,4,2,1,50,0,1
89018,-100,4,2,1,30,0,1
89208,-100,4,2,1,50,0,1
89398,-100,4,2,1,30,0,1
89588,-100,4,2,1,50,0,1
89778,-100,4,2,1,30,0,1
89968,-100,4,2,1,50,0,1
90158,-100,4,2,1,30,0,1
90348,-100,4,2,1,50,0,1
90537,-100,4,2,1,30,0,1
90727,-100,4,2,1,50,0,1
90917,-100,4,2,1,30,0,1
91107,-100,4,2,1,10,0,1
91202,-100,4,2,1,20,0,1
91297,-100,4,2,1,30,0,1
91392,-100,4,2,1,40,0,0
91487,-100,4,2,1,50,0,1
91866,-100,4,2,1,40,0,1
92626,-100,4,2,1,30,0,1
93385,-100,4,2,1,20,0,1
94145,-100,4,2,1,10,0,1
94525,-100,4,2,1,10,0,0

[Colours]
Combo1 : 242,182,0
Combo2 : 255,128,128
Combo3 : 128,64,0
Combo4 : 255,0,0

[HitObjects]
204,144,9461,5,2,0:0:0:0:
68,264,9841,1,4,0:3:0:0:
68,264,10031,2,0,P|124:328|218:318,1,180,4|8,0:3|3:0,0:0:0:0:
430,298,10791,6,0,P|373:233|279:243,1,180,4|4,0:0|0:3,0:0:0:0:
213,321,11360,1,8,0:0:0:0:
336,324,11550,2,0,B|320:240|392:240|380:156,1,180,2|8,0:0|0:3,0:0:0:0:
328,68,12120,1,4,0:3:0:0:
328,68,12499,6,0,P|240:66|174:124,1,180,4|8,0:0|0:0,0:0:0:0:
356,192,13069,2,0,P|320:165|276:157,1,90,2|0,0:0|0:0,0:0:0:0:
120,272,13449,2,0,P|168:264|204:232,1,90,2|8,0:0|0:0,0:0:0:0:
276,156,13829,2,0,P|308:240|264:340,1,180,2|2,0:0|0:0,0:0:0:0:
176,372,14398,1,8,0:0:0:0:
110,157,14588,6,0,P|154:155|192:180,1,90,2|0,0:0|0:0,0:0:0:0:
236,288,14968,1,0,0:0:0:0:
120,272,15158,1,8,0:0:0:0:
276,156,15348,1,0,0:0:0:0:
360,360,15537,5,2,0:0:0:0:
456,292,15727,2,0,L|459:201,1,90,0|8,0:0|0:0,0:0:0:0:
504,104,16107,2,0,P|460:96|416:104,1,90,0|0,0:0|0:0,0:0:0:0:
275,199,16487,2,0,P|319:191|364:200,1,90,2|8,0:0|0:0,0:0:0:0:
456,257,16866,6,0,P|470:171|416:104,1,180
364,200,17436,1,8,0:0:0:0:
324,40,17626,1,2,0:0:0:0:
324,40,17721,1,8,0:0:0:0:
324,40,17816,2,0,P|308:84|308:128,1,90,0|2,0:0|0:0,0:0:0:0:
392,280,18196,2,0,B|348:284|348:284|300:264|300:264|256:268,1,135,8|0,3:0|0:0,0:0:0:0:
195,220,18575,6,0,P|183:264|192:308,1,90,4|0,0:0|0:0,0:0:0:0:
364,200,18955,2,0,B|316:184|316:184|276:188,1,90,8|0,0:0|0:0,0:0:0:0:
284,348,19335,1,8,0:0:0:0:
460,332,19525,2,0,P|476:288|472:244,1,90,0|8,0:0|0:0,0:0:0:0:
364,200,19904,5,2,0:0:0:0:
280,116,20094,2,0,P|316:88|380:88,2,90,8|2|8,0:0|0:0|0:0,0:0:0:0:
252,232,20664,1,2,0:0:0:0:
364,200,20854,1,8,0:0:0:0:
168,152,21044,1,0,0:0:0:0:
224,344,21234,1,8,0:0:0:0:
224,344,21329,1,0,0:0:0:0:
224,344,21423,1,2,0:0:0:0:
224,344,21518,1,0,0:0:0:0:
224,344,21613,5,4,0:0:0:0:
140,264,21803,2,0,L|48:268,1,90,2|8,0:0|0:0,0:0:0:0:
332,300,22183,2,0,P|364:232|348:132,1,180,2|0,0:0|0:0,0:0:0:0:
347,131,22753,1,8,0:0:0:0:
50,267,22942,1,4,0:0:0:0:
50,267,23322,5,8,0:0:0:0:
240,208,23512,1,8,0:0:0:0:
108,96,23702,2,0,L|112:188,1,90,8|8,0:0|0:0,0:0:0:0:
120,344,24082,1,8,0:0:0:0:
240,128,24272,1,8,0:0:0:0:
279,136,24366,1,0,0:0:0:0:
308,163,24461,1,8,0:0:0:0:
320,201,24556,1,0,0:0:0:0:
315,241,24651,5,4,0:0:0:0:
315,241,25031,1,8,0:0:0:0:
236,328,25221,1,0,0:0:0:0:
428,280,25411,1,2,0:0:0:0:
236,328,25601,2,0,P|208:288|200:248,1,90,0|8,0:0|0:0,0:0:0:0:
256,52,25980,1,4,0:0:0:0:
256,52,26360,5,8,0:0:0:0:
176,136,26550,1,8,0:0:0:0:
428,280,26740,1,4,0:0:0:0:
428,280,27120,1,8,3:0:0:0:
452,164,27310,2,0,P|408:164|364:180,1,90,8|0,3:0|0:0,0:0:0:0:
236,328,27689,5,4,0:0:0:0:
92,252,29208,1,4,0:0:0:0:
92,252,30158,5,2,3:0:0:0:
244,112,30348,1,4,3:0:0:0:
244,112,30727,6,0,B|268:196|208:196|244:288,1,180,4|8,0:0|0:0,0:0:0:0:
348,236,31297,1,2,0:0:0:0:
152,148,31487,2,0,P|140:192|136:236,1,90,0|8,0:0|0:0,0:0:0:0:
244,288,31866,1,8,0:0:0:0:
244,112,32056,6,0,P|180:52|96:68,1,180,2|10,0:0|0:0,0:0:0:0:
40,172,32626,1,10,0:0:0:0:
260,208,32816,2,0,P|324:148|408:164,1,180,8|2,3:0|0:0,0:0:0:0:
464,268,33385,1,10,0:0:0:0:
135,236,33765,6,0,P|140:191|152:148,1,90,4|0,0:0|0:0,0:0:0:0:
252,88,34145,2,0,P|263:131|268:176,1,90,8|2,0:0|0:0,0:0:0:0:
180,352,34525,1,0,0:0:0:0:
312,292,34715,2,0,L|404:296,1,90,2|8,0:0|0:0,0:0:0:0:
496,228,35094,1,0,0:0:0:0:
360,184,35284,5,0,0:0:0:0:
392,72,35474,2,0,P|431:91|460:128,1,90,0|8,0:0|0:0,0:0:0:0:
263,247,35854,2,0,P|246:160|296:88,1,180,2|8,0:0|0:0,0:0:0:0:
360,184,36423,1,10,0:0:0:0:
328,336,36613,1,0,0:0:0:0:
172,328,36803,6,0,P|152:292|140:244,1,90,2|0,0:0|0:0,0:0:0:0:
264,248,37183,1,8,0:0:0:0:
92,368,37373,2,0,P|60:296|48:196,1,180,2|2,0:0|0:0,0:0:0:0:
92,88,37942,1,8,0:0:0:0:
360,184,38132,1,4,0:0:0:0:
360,184,38512,5,2,0:0:0:0:
168,312,38702,1,8,0:0:0:0:
256,158,38892,6,0,L|264:248,1,90,2|0,3:0|0:0,0:0:0:0:
444,140,39272,2,0,P|412:108|368:92,1,90,2|4,3:0|3:0,0:0:0:0:
142,224,39841,5,4,0:0:0:0:
372,304,41360,1,4,0:0:0:0:
259,355,42310,6,0,P|248:312|252:267,1,90,4|8,3:0|3:0,0:0:0:0:
296,168,42879,6,0,B|232:160|232:160|180:176|180:176|120:168,1,180,4|8,0:0|0:0,0:0:0:0:
36,248,43449,1,4,0:0:0:0:
56,84,43639,2,0,P|96:64|144:64,1,90,8|8,0:0|0:0,0:0:0:0:
296,168,44018,1,0,0:0:0:0:
120,344,44208,6,0,B|128:280|128:280|112:228|112:228|120:168,1,180,4|8,0:0|0:0,0:0:0:0:
120,167,44778,1,8,0:0:0:0:
364,243,44968,2,0,P|280:267|208:220,1,180,8|8,3:0|3:0,0:0:0:0:
148,64,45537,1,8,0:0:0:0:
148,64,45917,6,0,P|231:39|304:87,1,180,4|8,0:0|0:0,0:0:0:0:
352,196,46487,1,2,0:0:0:0:
505,77,46677,2,0,P|464:95|420:100,1,90,0|2,0:0|0:0,0:0:0:0:
304,88,47056,1,8,0:0:0:0:
212,160,47246,6,0,L|216:252,1,90,2|0,0:0|0:0,0:0:0:0:
424,316,47626,2,0,L|427:226,1,90,0|8,0:0|0:0,0:0:0:0:
320,144,48006,2,0,L|316:328,1,180,2|2,0:0|0:0,0:0:0:0:
428,228,48575,1,8,0:0:0:0:
212,160,48765,1,2,0:0:0:0:
316,324,48955,5,4,0:0:0:0:
316,324,49335,1,8,0:0:0:0:
212,160,49525,2,0,L|120:172,1,90,2|0,0:0|0:0,0:0:0:0:
384,192,49904,2,0,P|396:148|392:104,1,90,2|8,0:0|0:0,0:0:0:0:
256,24,50284,5,4,0:0:0:0:
256,24,50664,1,2,0:0:0:0:
164,104,50854,2,0,L|168:196,1,90,8|2,0:0|3:0,0:0:0:0:
316,300,51234,5,0,0:0:0:0:
412,236,51423,1,8,0:0:0:0:
312,180,51613,1,4,0:3:0:0:
408,108,51803,1,8,0:3:0:0:
408,108,51993,6,0,B|364:24|260:52|260:52|260:108|260:108|260:172|176:236|96:172,1,450,4|0,0:0|0:0,0:0:0:0:
164,104,53132,5,0,3:0:0:0:
288,232,53322,1,0,3:0:0:0:
96,172,53512,1,0,3:0:0:0:
264,136,53702,1,0,0:0:0:0:
120,272,53892,1,0,3:0:0:0:
264,136,54082,1,0,0:0:0:0:
220,300,54272,1,0,3:0:0:0:
164,104,54461,1,0,0:0:0:0:
220,300,54651,6,0,P|264:308|308:300,1,90,0|0,0:0|0:0,0:0:0:0:
408,256,55031,2,0,P|408:160|320:160,1,180,2|0,0:0|3:0,0:0:0:0:
104,256,55601,2,0,P|104:160|192:160,1,180,0|0,0:0|3:0,0:0:0:0:
256,124,56170,2,0,L|256:214,1,90,0|0,0:0|3:0,0:0:0:0:
256,336,56550,6,0,P|340:300|376:224,1,180,2|0,0:0|3:0,0:0:0:0:
256,212,57120,1,0,3:0:0:0:
256,212,57215,1,0,0:0:0:0:
256,212,57310,1,0,3:0:0:0:
140,132,57499,1,0,0:0:0:0:
256,32,57689,1,0,3:0:0:0:
364,128,57879,1,0,0:0:0:0:
256,32,58069,6,0,L|256:216,1,180,4|0,0:0|0:0,0:0:0:0:
256,320,58639,2,0,P|340:284|356:192,1,180
324,120,59208,1,0,0:0:0:0:
236,140,59398,1,0,0:0:0:0:
196,220,59588,6,0,P|164:196|144:152,1,90,2|0,0:0|0:0,0:0:0:0:
176,56,59968,1,0,0:0:0:0:
236,140,60158,1,0,3:0:0:0:
72,76,60348,1,0,3:0:0:0:
60,84,60727,6,0,L|240:68,1,180,0|4,3:0|0:0,0:0:0:0:
239,68,61487,1,0,0:0:0:0:
436,208,61677,2,0,L|256:192,1,180,4|4,0:0|0:0,0:0:0:0:
60,332,62436,2,0,L|240:316,1,180,4|2,0:0|0:0,0:0:0:0:
348,356,63006,1,0,0:0:0:0:
256,192,63196,2,0,P|212:196|168:212,1,90
239,316,63575,1,2,3:0:0:0:
392,248,63765,2,0,P|404:204|404:160,1,90,4|0,3:0|0:0,0:0:0:0:
367,55,64145,5,4,0:0:0:0:
85,237,64335,1,0,0:0:0:0:
420,255,64525,1,0,0:0:0:0:
160,43,64715,1,8,0:0:0:0:
246,368,64904,1,8,0:0:0:0:
367,55,65094,1,8,0:0:0:0:
256,192,65284,5,2,0:0:0:0:
92,125,65474,5,4,0:0:0:0:
349,342,65664,1,0,0:0:0:0:
268,15,65854,1,12,0:0:0:0:
142,326,66044,1,8,0:0:0:0:
427,149,66234,1,8,0:0:0:0:
92,125,66613,6,0,L|104:240,1,112.5
116,316,67183,5,4,0:0:0:0:
24,244,67373,1,0,0:0:0:0:
200,176,67563,2,0,L|209:265,1,90,8|2,0:0|0:0,0:0:0:0:
276,364,67942,1,0,0:0:0:0:
412,288,68132,2,0,P|371:270|327:260,1,90,2|8,0:0|0:0,0:0:0:0:
116,316,68512,5,2,0:0:0:0:
200,176,68702,1,0,0:0:0:0:
84,64,68892,1,2,0:0:0:0:
120,224,69082,1,8,0:0:0:0:
268,80,69272,2,0,P|316:152|300:240,1,180,2|2,0:0|0:0,0:0:0:0:
200,300,69841,1,8,0:0:0:0:
200,176,70031,1,0,0:0:0:0:
381,237,70221,5,4,0:0:0:0:
311,334,70411,1,0,0:0:0:0:
200,175,70601,1,8,0:0:0:0:
312,142,70791,1,0,0:0:0:0:
200,300,70980,1,0,0:0:0:0:
200,175,71170,1,2,0:0:0:0:
381,237,71360,1,8,0:0:0:0:
188,256,71550,6,0,P|172:300|172:348,1,90,2|0,0:0|0:0,0:0:0:0:
234,101,71930,2,0,P|204:65|162:41,1,90,2|8,0:0|0:0,0:0:0:0:
345,218,72310,2,0,P|391:210|433:186,1,90
500,84,72689,1,2,0:0:0:0:
352,40,72879,2,0,L|360:132,1,90,8|0,0:0|0:0,0:0:0:0:
226,334,73259,6,0,P|199:299|187:256,1,90,4|0,0:0|0:0,0:0:0:0:
236,140,73639,1,8,0:0:0:0:
302,238,73829,1,0,0:0:0:0:
117,171,74018,1,0,0:0:0:0:
302,238,74208,1,2,0:0:0:0:
112,291,74398,1,8,0:0:0:0:
116,56,74588,6,0,P|159:64|197:88,1,90,2|0,0:0|0:0,0:0:0:0:
228,352,74968,2,0,P|213:309|215:265,1,90,2|8,0:0|0:0,0:0:0:0:
464,120,75348,2,0,P|435:154|396:176,1,90,2|0,0:0|0:0,0:0:0:0:
312,64,75727,5,2,0:0:0:0:
92,184,75917,1,8,0:0:0:0:
316,324,76107,1,0,0:0:0:0:
310,203,76297,2,0,P|230:237|200:320,1,180,2|8,0:0|0:0,0:0:0:0:
316,324,76866,5,2,0:0:0:0:
92,184,77056,1,0,0:0:0:0:
312,64,77246,1,2,0:0:0:0:
200,320,77436,2,0,P|160:299|131:265,1,90,8|2,0:0|0:0,0:0:0:0:
312,64,77816,5,4,0:0:0:0:
211,140,78006,2,0,P|211:185|219:229,1,90,2|8,0:0|0:0,0:0:0:0:
304,176,78385,2,0,P|340:144|464:108,1,180
464,108,78955,1,4,3:0:0:0:
312,64,79145,1,2,0:0:0:0:
460,204,79335,6,0,P|416:188|384:160,1,90,4|0,0:0|0:0,0:0:0:0:
248,12,79715,2,0,P|232:52|236:100,1,90,8|2,0:0|0:0,0:0:0:0:
288,284,80094,1,0,0:0:0:0:
176,216,80284,1,2,0:0:0:0:
352,164,80474,1,8,0:0:0:0:
176,216,80664,6,0,P|132:240|104:272,1,90,2|0,0:0|0:0,0:0:0:0:
275,110,81044,2,0,P|276:60|262:20,1,90,2|8,0:0|0:0,0:0:0:0:
316,249,81423,2,0,P|359:275|401:283,1,90,0|0,0:0|0:0,0:0:0:0:
492,212,81803,1,2,0:0:0:0:
384,104,81993,2,0,L|388:196,1,90,8|0,0:0|0:0,0:0:0:0:
244,308,82373,6,0,P|228:268|228:220,1,90,4|0,0:0|0:0,0:0:0:0:
276,112,82753,1,8,0:0:0:0:
317,249,82942,2,0,L|137:237,1,180,0|2,0:0|0:0,0:0:0:0:
172,364,83512,1,8,0:0:0:0:
317,249,83702,6,0,L|312:158,1,90,4|0,0:0|0:0,0:0:0:0:
307,41,84082,1,2,0:0:0:0:
209,106,84272,1,8,0:0:0:0:
424,97,84461,1,8,0:0:0:0:
424,97,84556,1,0,0:0:0:0:
424,97,84651,1,8,0:0:0:0:
209,106,84841,1,10,0:0:0:0:
312,159,85031,2,0,L|317:249,1,90,4|0,3:0|0:0,0:0:0:0:
384,334,85411,6,0,P|420:286|416:226,1,90,4|2,0:0|0:0,0:0:0:0:
272,88,85791,2,0,P|242:121|233:165,1,90,8|2,0:0|0:0,0:0:0:0:
312,340,86170,5,8,0:0:0:0:
233,165,86360,1,2,0:0:0:0:
396,259,86550,1,8,0:0:0:0:
207,277,86740,1,2,0:0:0:0:
348,152,86930,1,8,0:0:0:0:
312,340,87120,6,0,P|356:348|400:320,1,90,2|8,0:0|0:0,0:0:0:0:
380,80,87499,2,0,P|336:72|298:93,1,90,2|8,0:0|0:0,0:0:0:0:
207,277,87879,5,2,0:0:0:0:
348,152,88069,1,8,0:0:0:0:
312,340,88259,1,2,0:0:0:0:
93,289,88449,5,8,0:0:0:0:
234,164,88639,1,2,0:0:0:0:
45,182,88829,1,8,0:0:0:0:
207,277,89018,1,2,0:0:0:0:
129,101,89208,1,8,0:0:0:0:
93,288,89398,5,2,0:0:0:0:
93,287,89588,2,0,P|116:250|156:229,1,90,8|6,0:0|0:0,0:0:0:0:
419,285,89968,5,0,0:0:0:0:
419,285,90158,2,0,P|376:284|338:260,1,90,8|8,0:0|0:0,0:0:0:0:
255,3,90537,5,0,0:0:0:0:
255,3,90727,2,0,P|275:41|273:86,1,90,4|8,3:0|0:0,0:0:0:0:
256,380,91107,5,8,0:0:0:0:
235,341,91202,1,0,0:0:0:0:
228,296,91297,1,8,0:0:0:0:
236,252,91392,1,0,0:0:0:0:
258,213,91487,1,4,0:0:0:0:
256,192,91582,12,4,94525,0:0:0:0:
