osu file format v12

[General]
AudioFilename: Kiritorisen.mp3
AudioLeadIn: 2000
PreviewTime: 59012
Countdown: 0
SampleSet: Soft
StackLeniency: 0.7
Mode: 0
LetterboxInBreaks: 0

[Editor]
Bookmarks: 147733,189914
DistanceSpacing: 1.2
BeatDivisor: 4
GridSize: 8

[Metadata]
Title:Kiritorisen
TitleUnicode:キリトリセン
Artist:Shano x 40mP
ArtistUnicode:シャノ × 40㍍
Creator:Frostmourne
Version:Hard
Source:
Tags:Vocaloid Sugar Chano Megpoid Gumi
BeatmapID:231467
BeatmapSetID:79307

[Difficulty]
HPDrainRate:6
CircleSize:4
OverallDifficulty:6
ApproachRate:7
SliderMultiplier:1.3
SliderTickRate:2

[Events]
//Background and Video events
0,0,"bgkiritori.jpg",0,0
//Break Periods
2,85394,90112
2,143576,159931
//Storyboard Layer 0 (Background)
//Storyboard Layer 1 (Fail)
//Storyboard Layer 2 (Pass)
//Storyboard Layer 3 (Foreground)
//Storyboard Sound Samples
//Background Colour Transformations
3,100,163,162,255

[TimingPoints]
831,363.636363636364,4,2,1,30,1,0
10649,-100,4,2,1,50,0,0
47376,-153.846153846154,4,2,1,40,0,0
53194,-100,4,2,1,50,0,0
59012,-100,4,2,1,70,0,1
82285,-100,4,2,1,70,0,0
85194,-100,4,2,1,50,0,0
94103,-100,4,2,2,50,0,0
104285,-100,4,2,1,50,0,0
104467,-100,4,2,2,50,0,0
104558,-100,4,2,1,50,0,0
117194,-153.846153846154,4,2,1,40,0,0
134649,-100,4,2,1,50,0,0
140467,-100,4,2,1,60,0,1
140558,-100,4,2,1,60,0,0
174012,-100,4,2,0,30,0,0
174921,-100,4,2,1,50,0,0
175376,-100,4,2,1,70,0,1
186921,-100,4,2,1,70,0,0
187012,-100,4,2,1,70,0,1
197012,-100,4,2,1,70,0,0
198649,-100,4,2,1,70,0,1
198740,-100,4,2,1,60,0,0

[Colours]
Combo1 : 124,56,252
Combo2 : 254,164,41
Combo3 : 103,173,39
Combo4 : 254,224,18

[HitObjects]
292,64,831,1,0,0:0:0:0:
360,204,1194,2,0,P|364:272|360:340,1,130
284,348,1740,2,0,L|208:328,1,65
160,284,2103,1,0,0:0:0:0:
80,148,2467,6,0,P|44:184|32:264,1,130
172,196,3194,2,0,L|332:216,1,130
352,272,3740,1,0,0:0:0:0:
360,60,4103,6,0,P|300:80|248:140,1,130
176,112,4649,2,0,L|164:36,2,65
96,248,5376,2,0,L|24:264,2,65
168,276,5921,1,0,0:0:0:0:
240,248,6103,2,0,P|304:244|392:264,1,130
444,280,6649,1,0,0:0:0:0:
396,64,7012,6,0,P|328:68|256:32,1,130
194,30,7558,1,0,0:0:0:0:
128,72,7740,1,0,0:0:0:0:
56,40,7921,2,0,P|28:92|44:180,1,130
188,128,8649,2,0,P|216:180|200:268,1,130
132,240,9194,1,0,0:0:0:0:
120,316,9376,1,0,0:0:0:0:
192,336,9558,6,0,P|244:348|340:328,1,130
319,337,10103,1,0,0:0:0:0:
464,136,10467,2,0,L|448:220,1,65,0|8,0:0|0:0,0:0:0:0:
388,248,10831,1,6,0:0:0:0:
152,156,11194,5,8,0:0:0:0:
152,156,11376,1,8,0:0:0:0:
92,204,11558,2,0,P|64:172|44:76,1,130,2|8,0:0|0:0,0:0:0:0:
116,60,12103,1,8,0:0:0:0:
192,84,12285,1,8,0:0:0:0:
260,44,12467,1,2,0:0:0:0:
260,44,12831,6,0,B|288:80|352:40|392:100,1,130,6|2,0:0|0:0,0:0:0:0:
432,144,13376,1,2,0:0:0:0:
432,144,13558,2,0,L|460:218,1,65,8|2,0:0|0:0,0:0:0:0:
288,348,14103,6,0,L|336:272,1,65,2|8,0:0|0:0,0:0:0:0:
396,268,14467,2,0,L|364:188,1,65,0|2,0:0|0:0,0:0:0:0:
296,196,14831,2,0,L|312:120,1,65,2|8,0:0|0:0,0:0:0:0:
316,56,15194,2,0,P|276:60|248:72,1,65,0|2,0:0|0:0,0:0:0:0:
212,220,15740,1,8,0:0:0:0:
60,252,16103,6,0,L|40:328,2,65,2|2|8,0:0|0:0|0:0,0:0:0:0:
132,224,16649,2,0,P|136:168|88:104,2,130,2|2|8,0:0|0:0|0:0,0:0:0:0:
306,279,17740,2,0,L|174:287,1,130,2|0,0:0|0:0,0:0:0:0:
132,224,18285,1,2,0:0:0:0:
32,60,18649,6,0,P|84:36|184:48,1,130,12|2,0:0|0:0,0:0:0:0:
210,92,19194,1,2,0:0:0:0:
285,73,19376,1,8,0:0:0:0:
352,112,19558,2,0,L|488:96,1,130,2|2,0:0|0:0,0:0:0:0:
481,96,20103,1,8,0:0:0:0:
376,300,20467,5,2,0:0:0:0:
300,324,20649,2,0,P|296:284|300:260,1,65,2|8,0:0|0:0,0:0:0:0:
312,184,21012,1,0,0:0:0:0:
312,184,21194,2,0,L|232:184,1,65,2|0,0:0|0:0,0:0:0:0:
184,232,21558,6,0,L|120:196,1,65,8|2,0:0|0:0,0:0:0:0:
52,224,21921,1,0,0:0:0:0:
20,152,22103,1,8,0:0:0:0:
20,152,22285,1,8,0:0:0:0:
100,48,22467,6,0,P|102:85|92:116,1,65,2|0,0:0|0:0,0:0:0:0:
172,124,22831,2,0,P|161:159|141:185,1,65,8|8,0:0|0:0,0:0:0:0:
216,216,23194,2,0,P|193:245|166:262,1,65,2|0,0:0|0:0,0:0:0:0:
220,324,23558,2,0,P|156:348|68:340,1,130,8|2,0:0|0:0,0:0:0:0:
64,276,24103,1,6,0:0:0:0:
320,324,24467,6,0,L|396:324,2,65,8|0|2,0:0|0:0|0:0,0:0:0:0:
284,256,25012,1,2,0:0:0:0:
320,188,25194,1,8,0:0:0:0:
392,216,25376,2,0,P|404:164|376:68,1,130,2|2,0:0|0:0,0:0:0:0:
324,48,25921,1,8,0:0:0:0:
280,112,26103,1,2,0:0:0:0:
64,236,26467,6,0,L|48:160,1,65,2|8,0:0|0:0,0:0:0:0:
120,128,26831,2,0,L|152:276,1,130
164,332,27376,1,8,0:0:0:0:
164,332,27558,2,0,P|224:316|264:256,1,130,2|2,0:0|0:0,0:0:0:0:
120,128,28285,2,0,P|60:144|20:204,1,130,2|2,0:0|0:0,0:0:0:0:
32,276,28831,1,8,0:0:0:0:
28,72,29194,5,6,0:0:0:0:
100,40,29376,2,0,L|172:40,1,65,8|12,0:0|0:0,0:0:0:0:
240,56,29740,2,0,L|292:56,2,32.5,8|8|2,0:0|0:0|0:0,0:0:0:0:
456,152,30285,5,8,0:0:0:0:
384,180,30467,1,0,0:0:0:0:
316,144,30649,2,0,P|260:136|232:148,1,65,2|2,0:0|0:0,0:0:0:0:
184,176,31012,1,8,0:0:0:0:
112,144,31194,2,0,P|100:180|108:280,1,130,2|2,0:0|0:0,0:0:0:0:
132,344,31740,1,8,0:0:0:0:
132,344,31921,1,2,0:0:0:0:
456,260,32285,6,0,L|392:260,1,65,2|8,0:0|0:0,0:0:0:0:
312,256,32649,2,0,P|244:240|108:248,1,195,0|8,0:0|0:0,0:0:0:0:
92,172,33376,2,0,P|160:160|223:161,1,130,2|2,0:0|0:0,0:0:0:0:
297,173,33921,1,8,0:0:0:0:
372,200,34103,6,0,P|392:148|372:60,1,130,2|2,0:0|0:0,0:0:0:0:
312,40,34649,1,8,0:0:0:0:
264,100,34831,1,0,0:0:0:0:
208,156,35012,6,0,L|144:116,1,65,6|8,0:0|0:0,0:0:0:0:
88,76,35376,1,12,0:0:0:0:
40,136,35558,2,0,L|16:168,2,32.5,8|8|6,0:0|0:0|0:0,0:0:0:0:
180,280,36103,6,0,L|256:280,1,65,8|0,0:0|0:0,0:0:0:0:
276,352,36467,1,2,0:0:0:0:
200,364,36649,1,2,0:0:0:0:
124,344,36831,1,8,0:0:0:0:
96,272,37012,2,0,P|84:228|84:136,1,130,2|2,0:0|0:0,0:0:0:0:
140,80,37558,2,0,L|172:136,1,65,8|2,0:0|0:0,0:0:0:0:
408,80,38103,5,2,0:0:0:0:
408,80,38285,2,0,L|396:160,1,65,8|0,0:0|0:0,0:0:0:0:
472,168,38649,2,0,P|452:240|404:288,1,130,2|8,0:0|0:0,0:0:0:0:
340,296,39194,2,0,L|312:164,1,130,2|2,0:0|0:0,0:0:0:0:
236,152,39740,2,0,L|252:76,1,65,8|2,0:0|0:0,0:0:0:0:
64,284,40285,5,2,0:0:0:0:
44,208,40467,1,8,0:0:0:0:
60,132,40649,1,0,0:0:0:0:
104,68,40831,2,0,P|164:56|232:76,2,130,6|12|2,0:0|0:0|0:0,0:0:0:0:
144,272,41921,5,8,0:0:0:0:
212,232,42103,2,0,L|288:248,1,65,0|2,0:0|0:0,0:0:0:0:
348,272,42467,1,2,0:0:0:0:
348,272,42649,1,8,0:0:0:0:
424,256,42831,2,0,P|448:196|436:108,2,130,2|2|2,0:0|0:0|0:0,0:0:0:0:
152,352,43921,5,2,0:0:0:0:
76,328,44103,2,0,L|40:248,1,65,8|0,0:0|0:0,0:0:0:0:
32,192,44467,2,0,P|28:112|36:56,1,130,2|8,0:0|0:0,0:0:0:0:
112,68,45012,2,0,P|116:148|108:204,1,130,2|2,0:0|0:0,0:0:0:0:
109,197,45558,1,8,0:0:0:0:
160,256,45740,6,0,P|292:252|308:256,1,130,2|2,0:0|0:0,0:0:0:0:
364,272,46285,1,8,0:0:0:0:
440,252,46467,1,0,0:0:0:0:
476,184,46649,2,2,P|488:116|480:40,2,130,6|12|6,0:0|0:0|0:0,0:0:0:0:
404,152,47558,1,0,0:0:0:0:
240,276,47921,6,0,L|288:268,1,42.2499980659486,2|8,0:0|0:0,0:0:0:0:
296,228,48285,1,0,0:0:0:0:
304,188,48467,1,2,0:0:0:0:
316,148,48649,2,0,P|324:112|312:48,1,84.4999961318971,2|8,0:0|0:0,0:0:0:0:
280,48,49194,1,0,0:0:0:0:
236,52,49376,2,0,P|172:56|104:52,1,126.749994197846,2|2,0:0|0:0,0:0:0:0:
72,72,50103,5,2,0:0:0:0:
48,108,50285,2,0,L|52:156,1,42.2499980659486,2|0,0:0|0:0,0:0:0:0:
152,332,50831,2,0,L|168:284,1,42.2499980659486,2|8,0:0|0:0,0:0:0:0:
148,252,51194,2,0,L|96:248,2,42.2499980659486,0|2|2,0:0|0:0|0:0,0:0:0:0:
360,216,51921,6,0,L|300:208,1,42.2499980659486,8|0,0:0|0:0,0:0:0:0:
288,180,52285,2,0,P|292:140|284:40,1,126.749994197846,2|8,0:0|0:0,0:0:0:0:
244,48,53012,2,0,L|188:52,1,42.2499980659486,2|6,0:0|0:0,0:0:0:0:
64,240,53558,5,8,0:0:0:0:
24,172,53740,2,0,P|76:156|160:168,1,130,0|2,0:0|0:0,0:0:0:0:
216,208,54285,1,8,0:0:0:0:
216,208,54467,2,0,P|232:120|216:72,1,130,2|2,0:0|0:0,0:0:0:0:
144,72,55012,2,0,L|60:64,1,65,8|2,0:0|0:0,0:0:0:0:
96,292,55558,6,0,P|100:335|121:365,2,65,2|8|0,0:0|0:0|0:0,0:0:0:0:
172,304,56103,2,0,P|216:316|304:284,1,130,2|0,0:0|0:0,0:0:0:0:
292,212,56649,1,2,0:0:0:0:
292,212,56831,1,2,0:0:0:0:
220,241,57012,1,8,0:0:0:0:
220,241,57194,1,8,0:0:0:0:
172,304,57376,6,0,P|132:292|40:296,1,130,6|8,0:0|0:0,0:0:0:0:
32,216,57921,2,0,L|64:152,1,65,8|6,0:0|0:0,0:0:0:0:
224,28,58467,2,0,P|232:68|192:224,1,195,6|6,0:0|0:0,0:0:0:0:
80,60,59376,5,8,0:0:0:0:
40,252,59740,2,0,P|88:280|172:280,1,130,2|8,0:0|0:0,0:0:0:0:
240,272,60285,2,0,L|268:120,1,130,6|2,0:0|0:0,0:0:0:0:
280,68,60831,1,8,0:0:0:0:
208,92,61012,2,0,L|348:128,1,130,2|2,0:0|0:0,0:0:0:0:
192,340,61740,5,0,0:0:0:0:
192,340,61921,2,0,P|252:332|324:292,1,130,6|8,0:0|0:0,0:0:0:0:
448,80,62649,2,0,L|416:140,1,65,2|8,0:0|0:0,0:0:0:0:
360,192,63012,1,8,0:0:0:0:
360,192,63194,2,0,P|304:192|236:152,1,130,6|8,0:0|0:0,0:0:0:0:
104,32,63921,6,0,P|143:71|163:147,1,130,8|8,0:0|0:0,0:0:0:0:
92,172,64467,2,0,L|104:244,1,65,8|8,0:0|0:0,0:0:0:0:
128,312,64831,2,0,P|172:328|256:320,1,130,6|8,0:0|0:0,0:0:0:0:
448,184,65558,5,2,0:0:0:0:
376,216,65740,1,2,0:0:0:0:
300,220,65921,1,8,0:0:0:0:
224,212,66103,2,0,P|192:164|176:88,1,130,2|2,0:0|0:0,0:0:0:0:
244,52,66649,1,8,0:0:0:0:
244,52,66831,2,0,L|104:56,1,130,0|2,0:0|0:0,0:0:0:0:
56,108,67376,1,8,0:0:0:0:
56,108,67558,2,0,L|64:188,1,65,0|2,0:0|0:0,0:0:0:0:
316,240,68103,5,8,0:0:0:0:
272,304,68285,2,0,L|204:292,1,65,2|0,0:0|0:0,0:0:0:0:
132,308,68649,2,0,P|120:248|152:172,1,130,8|2,0:0|0:0,0:0:0:0:
400,144,69376,6,0,P|412:204|380:280,1,130,8|2,0:0|0:0,0:0:0:0:
56,188,70103,1,8,0:0:0:0:
56,188,70285,1,8,0:0:0:0:
240,192,70649,6,0,P|260:128|244:56,2,130,6|8|2,0:0|0:0|0:0,0:0:0:0:
164,176,71558,1,2,0:0:0:0:
164,176,71740,2,0,L|128:104,1,65,8|6,0:0|0:0,0:0:0:0:
336,40,72285,5,2,0:0:0:0:
336,40,72467,1,8,0:0:0:0:
398,87,72649,2,0,P|417:145|397:221,1,130,2|2,0:0|0:0,0:0:0:0:
332,244,73194,1,8,0:0:0:0:
256,268,73376,2,0,L|180:256,1,65,0|6,0:0|0:0,0:0:0:0:
40,136,73921,6,0,P|64:112|168:84,1,130,8|2,0:0|0:0,0:0:0:0:
208,140,74467,1,8,0:0:0:0:
208,140,74649,1,8,0:0:0:0:
284,120,74831,2,0,L|444:120,2,130,6|8|8,0:0|0:0|0:0,0:0:0:0:
92,240,75921,2,0,L|24:212,1,65,8|8,0:0|0:0,0:0:0:0:
64,144,76285,2,0,L|132:172,1,65,8|6,0:0|0:0,0:0:0:0:
164,23,76831,6,0,P|192:63|208:151,1,130,8|2,0:0|0:0,0:0:0:0:
200,220,77376,1,2,0:0:0:0:
200,220,77558,2,0,L|192:288,1,65,8|2,0:0|0:0,0:0:0:0:
356,232,78103,2,0,L|336:84,1,130,8|2,0:0|0:0,0:0:0:0:
84,48,78831,2,0,L|104:196,1,130,8|8,0:0|0:0,0:0:0:0:
156,232,79376,6,0,P|216:256|288:252,1,130,2|8,0:0|0:0,0:0:0:0:
356,232,79921,1,2,0:0:0:0:
428,259,80103,2,0,L|444:175,1,65,0|8,0:0|0:0,0:0:0:0:
456,120,80467,1,8,0:0:0:0:
380,104,80649,6,0,P|311:96|232:76,1,130,2|8,0:0|0:0,0:0:0:0:
24,176,81376,2,0,P|92:168|172:148,1,130,2|8,0:0|0:0,0:0:0:0:
176,80,81921,2,0,L|184:12,2,65,8|2|6,0:0|0:0|0:0,0:0:0:0:
256,192,82467,12,0,85194,0:0:0:0:
256,192,91012,12,2,92285,0:0:0:0:
200,232,92649,6,0,L|45:191,2,130,8|2|8,0:0|0:0|0:0,0:0:0:0:
264,280,93558,2,0,P|278:249|276:208,1,65,8|2,0:0|0:0,0:0:0:0:
228,156,93921,1,6,0:0:0:0:
60,320,94285,5,8,0:0:0:0:
60,320,94467,2,0,L|132:320,1,65,0|2,0:0|0:0,0:0:0:0:
196,352,94831,2,0,L|268:352,1,65,2|8,0:0|0:0,0:0:0:0:
336,332,95194,2,0,L|476:332,1,130,2|2,0:0|0:0,0:0:0:0:
484,256,95740,2,0,L|412:256,1,65,8|0,0:0|0:0,0:0:0:0:
196,268,96285,6,0,L|116:264,1,65,2|8,0:0|0:0,0:0:0:0:
56,240,96649,1,0,0:0:0:0:
56,240,96831,2,0,L|56:100,1,130,2|8,0:0|0:0,0:0:0:0:
132,92,97376,2,0,B|184:72|216:112|272:92,2,130,0|2|2,0:0|0:0|0:0,0:0:0:0:
444,60,98467,6,0,L|348:60,1,65,2|8,0:0|0:0,0:0:0:0:
300,60,98831,2,0,P|296:96|304:144,1,65,0|4,0:0|0:0,0:0:0:0:
372,200,99194,2,0,P|376:164|368:116,1,65,8|12,0:0|0:0,0:0:0:0:
452,152,99558,2,0,L|480:136,2,32.5,8|8|2,0:0|0:0|0:0,0:0:0:0:
212,56,100103,6,0,P|170:85|129:183,1,130,8|2,0:0|0:0,0:0:0:0:
148,232,100649,1,2,0:0:0:0:
148,232,100831,2,0,L|232:232,1,65,8|2,0:0|0:0,0:0:0:0:
372,200,101376,2,0,P|384:148|372:56,1,130,2|0,0:0|0:0,0:0:0:0:
172,132,102103,6,0,L|256:152,1,65,2|8,0:0|0:0,0:0:0:0:
288,204,102467,1,0,0:0:0:0:
288,204,102649,2,0,P|296:252|276:344,1,130,2|8,0:0|0:0,0:0:0:0:
208,360,103194,2,0,P|200:312|220:220,1,130,0|2,0:0|0:0,0:0:0:0:
140,212,103740,2,0,P|129:240|123:289,1,65,8|2,0:0|0:0,0:0:0:0:
292,72,104285,6,0,L|368:96,1,65,2|8,0:0|0:0,0:0:0:0:
428,112,104649,1,0,0:0:0:0:
376,172,104831,1,6,0:0:0:0:
396,248,105012,2,0,L|472:240,1,65,8|12,0:0|0:0,0:0:0:0:
488,168,105376,1,8,0:0:0:0:
488,168,105467,1,8,0:0:0:0:
488,168,105558,1,2,0:0:0:0:
240,236,105921,5,6,0:0:0:0:
164,260,106103,2,0,L|92:260,1,65,0|2,0:0|0:0,0:0:0:0:
100,180,106467,2,0,L|168:180,1,65,2|8,0:0|0:0,0:0:0:0:
240,160,106831,2,0,P|256:100|252:32,2,130,2|2|2,0:0|0:0|0:0,0:0:0:0:
44,104,107921,6,0,L|116:68,1,65,2|8,0:0|0:0,0:0:0:0:
180,60,108285,2,0,P|216:84|316:72,1,130,0|2,0:0|0:0,0:0:0:0:
376,60,108831,1,8,0:0:0:0:
376,60,109012,2,0,L|360:200,2,130,2|2|2,0:0|0:0|0:0,0:0:0:0:
440,248,110103,6,0,L|460:172,1,65,2|8,0:0|0:0,0:0:0:0:
460,108,110467,2,0,L|452:36,1,65,0|6,0:0|0:0,0:0:0:0:
376,60,110831,2,0,L|288:60,1,65,8|12,0:0|0:0,0:0:0:0:
236,84,111194,1,8,0:0:0:0:
236,84,111285,1,8,0:0:0:0:
236,84,111376,2,0,P|160:88|100:72,1,130,2|8,0:0|0:0,0:0:0:0:
52,132,111921,6,0,P|81:150|122:155,1,65,0|2,0:0|0:0,0:0:0:0:
188,168,112285,2,0,L|260:168,1,65,2|8,0:0|0:0,0:0:0:0:
304,228,112649,2,0,P|296:280|264:360,1,130,2|2,0:0|0:0,0:0:0:0:
200,316,113194,2,0,L|216:240,1,65,8|2,0:0|0:0,0:0:0:0:
116,64,113740,5,2,0:0:0:0:
92,140,113921,1,8,0:0:0:0:
92,140,114103,2,0,L|96:220,1,65,0|2,0:0|0:0,0:0:0:0:
304,228,114649,2,0,L|300:148,1,65,8|2,0:0|0:0,0:0:0:0:
492,76,115194,5,2,0:0:0:0:
500,152,115376,1,8,0:0:0:0:
476,224,115558,2,0,P|412:216|368:172,1,130,2|2,0:0|0:0,0:0:0:0:
360,92,116103,5,8,0:0:0:0:
360,92,116285,2,0,L|280:72,1,65,0|6,0:0|0:0,0:0:0:0:
232,124,116649,2,0,L|188:76,1,65,8|12,0:0|0:0,0:0:0:0:
112,52,117012,1,8,0:0:0:0:
112,52,117103,1,8,0:0:0:0:
112,52,117194,1,6,0:0:0:0:
48,112,117376,6,0,P|44:156|52:200,1,84.4999961318971,0|2,0:0|0:0,0:0:0:0:
88,216,117921,2,0,L|184:224,1,84.4999961318971,8|2,0:0|0:0,0:0:0:0:
216,228,118467,2,0,P|220:276|208:320,1,84.4999961318971,2|8,0:0|0:0,0:0:0:0:
184,344,119012,1,0,0:0:0:0:
184,344,119194,2,0,L|128:336,1,42.2499980659486,2|8,0:0|0:0,0:0:0:0:
436,224,119740,6,0,L|488:208,2,42.2499980659486,2|2|2,0:0|0:0|0:0,0:0:0:0:
396,236,120285,2,0,P|344:228|308:212,1,84.4999961318971,0|2,0:0|0:0,0:0:0:0:
292,180,120831,1,8,0:0:0:0:
280,140,121012,2,0,L|280:88,2,42.2499980659486,0|2|2,0:0|0:0|0:0,0:0:0:0:
256,312,121740,2,0,P|212:320|160:300,1,84.4999961318971,8|2,0:0|0:0,0:0:0:0:
136,296,122285,1,8,0:0:0:0:
60,152,122649,6,0,L|44:108,2,42.2499980659486,2|2|2,0:0|0:0|0:0,0:0:0:0:
100,164,123194,2,0,L|146:172,2,42.2499980659486,0|0|2,0:0|0:0|0:0,0:0:0:0:
69,194,123740,2,0,L|38:229,2,42.2499980659486,8|0|2,0:0|0:0|0:0,0:0:0:0:
60,152,124285,6,0,L|48:64,1,84.4999961318971,2|8,0:0|0:0,0:0:0:0:
204,48,125012,2,0,L|161:48,1,42.2499980659486,2|8,0:0|0:0,0:0:0:0:
136,216,125558,2,0,P|176:220|220:212,1,84.4999961318971,2|2,0:0|0:0,0:0:0:0:
348,40,126285,5,0,0:0:0:0:
348,40,126467,2,0,L|296:120,1,84.4999961318971,2|0,0:0|0:0,0:0:0:0:
288,152,127012,1,2,0:0:0:0:
288,152,127194,2,0,L|384:148,1,84.4999961318971,2|8,0:0|0:0,0:0:0:0:
416,148,127740,2,0,P|428:168|404:320,1,168.999992263794,2|8,0:0|0:0,0:0:0:0:
208,328,128831,6,0,L|72:320,1,126.749994197846,6|2,0:0|0:0,0:0:0:0:
76,280,129558,2,0,L|64:192,1,84.4999961318971,8|2,0:0|0:0,0:0:0:0:
60,156,130103,1,2,0:0:0:0:
220,48,130467,1,8,0:0:0:0:
232,88,130649,1,0,0:0:0:0:
240,128,130831,2,0,P|240:190|216:262,1,126.749994197846,2|2,0:0|0:0,0:0:0:0:
196,284,131558,5,2,0:0:0:0:
196,284,131740,2,0,L|160:196,1,84.4999961318971,2|0,0:0|0:0,0:0:0:0:
40,76,132467,2,0,L|76:164,1,84.4999961318971,8|2,0:0|0:0,0:0:0:0:
76,196,133012,2,0,L|76:300,1,84.4999961318971,2|8,0:0|0:0,0:0:0:0:
252,312,133740,5,2,0:0:0:0:
288,292,133921,1,8,0:0:0:0:
320,264,134103,1,8,0:0:0:0:
347,231,134285,2,0,L|368:188,2,42.2499980659486,8|2|6,0:0|0:0|0:0,0:0:0:0:
76,196,135012,5,8,0:0:0:0:
76,196,135194,2,0,P|132:168|156:104,1,130,0|2,0:0|0:0,0:0:0:0:
88,68,135740,1,8,0:0:0:0:
88,68,135921,1,2,0:0:0:0:
298,101,136285,1,2,0:0:0:0:
298,101,136467,2,0,L|248:164,1,65,8|2,0:0|0:0,0:0:0:0:
424,272,137012,5,2,0:0:0:0:
348,296,137194,1,8,0:0:0:0:
272,284,137376,2,0,P|204:276|132:272,1,130,0|2,0:0|0:0,0:0:0:0:
84,200,137921,2,0,L|160:180,1,65,8|0,0:0|0:0,0:0:0:0:
220,156,138285,1,2,0:0:0:0:
292,184,138467,1,8,0:0:0:0:
292,184,138649,1,8,0:0:0:0:
368,176,138831,6,0,P|388:120|364:40,1,130,6|8,0:0|0:0,0:0:0:0:
296,44,139376,1,8,0:0:0:0:
224,72,139558,2,0,L|80:72,1,130,6|2,0:0|0:0,0:0:0:0:
44,132,140103,6,0,L|16:160,4,32.5,8|8|2|2|6,0:0|0:0|0:0|0:0|0:0,0:0:0:0:
256,192,140649,12,0,143376,0:0:0:0:
256,192,160831,12,2,162103,0:0:0:0:
432,135,162467,6,0,P|400:167|300:199,1,130,8|2,0:0|0:0,0:0:0:0:
248,220,163012,2,0,L|192:176,1,65,8|2,0:0|0:0,0:0:0:0:
125,146,163376,1,8,0:0:0:0:
56,184,163558,5,8,0:0:0:0:
56,184,163649,1,8,0:0:0:0:
56,184,163740,2,0,P|48:120|60:44,1,130
236,40,164467,2,0,P|244:104|232:180,1,130
172,216,165012,2,0,L|332:200,1,130
448,96,165740,2,0,L|288:112,1,130
56,184,166467,5,0,0:0:0:0:
56,184,166649,2,0,P|44:112|64:36,2,130
116,232,167558,2,0,P|128:304|108:380,2,130
56,48,168649,6,0,L|208:60,1,130
256,96,169194,2,0,L|320:60,1,65
392,52,169558,1,2,0:0:0:0:
316,264,169921,6,0,P|344:236|372:148,1,130,2|2,0:0|0:0,0:0:0:0:
371,151,170467,1,0,0:0:0:0:
444,120,170649,2,0,P|449:152|444:196,1,65,2|0,0:0|0:0,0:0:0:0:
276,336,171194,6,0,L|200:336,2,65,0|2|0,0:0|0:0|0:0,0:0:0:0:
72,328,171921,2,0,P|60:276|80:188,1,130
128,144,172467,1,2,0:0:0:0:
128,144,172831,5,2,0:0:0:0:
132,68,173012,2,0,L|68:68,1,65,0|2,0:0|0:0,0:0:0:0:
20,132,173376,2,0,P|26:169|110:250,1,130,8|6,0:0|0:0,0:0:0:0:
288,24,174103,6,0,L|260:160,1,130,2|2,0:0|0:0,0:0:0:0:
132,68,174831,2,0,L|148:152,1,65,2|6,0:0|0:0,0:0:0:0:
372,44,175376,6,0,P|392:96|372:184,1,130,6|8,0:0|0:0,0:0:0:0:
188,224,176103,2,0,L|44:196,1,130,2|8,0:0|0:0,0:0:0:0:
40,124,176649,1,6,0:0:0:0:
236,80,177012,6,0,L|304:60,2,65,2|8|2,0:0|0:0|0:0,0:0:0:0:
40,124,177740,2,0,P|28:176|52:248,1,130,2|0,0:0|0:0,0:0:0:0:
120,284,178285,2,0,L|280:280,1,130,6|8,0:0|0:0,0:0:0:0:
384,104,179012,5,2,0:0:0:0:
384,104,179194,1,8,0:0:0:0:
432,164,179376,1,8,0:0:0:0:
432,164,179558,2,0,L|408:316,1,130,6|8,0:0|0:0,0:0:0:0:
192,200,180285,2,0,L|216:48,1,130,8|8,0:0|0:0,0:0:0:0:
292,84,180831,6,0,L|283:153,1,65,8|8,0:0|0:0,0:0:0:0:
271,225,181194,1,6,0:0:0:0:
56,196,181558,1,8,0:0:0:0:
220,304,181921,6,0,L|292:308,1,65,2|2,0:0|0:0,0:0:0:0:
348,260,182285,2,0,L|380:188,1,65,8|2,0:0|0:0,0:0:0:0:
216,44,182831,1,2,0:0:0:0:
216,44,183012,1,8,0:0:0:0:
172,108,183194,2,0,P|216:124|304:112,1,130,0|2,0:0|0:0,0:0:0:0:
364,76,183740,1,8,0:0:0:0:
364,76,183921,2,0,L|440:84,1,65,0|2,0:0|0:0,0:0:0:0:
428,301,184467,6,0,L|364:308,1,65,8|2,0:0|0:0,0:0:0:0:
285,303,184831,2,0,P|237:295|197:299,1,65,0|8,0:0|0:0,0:0:0:0:
144,300,185194,1,8,0:0:0:0:
144,300,185376,2,0,P|120:228|132:152,1,130,2|8,0:0|0:0,0:0:0:0:
176,116,185921,2,0,L|116:64,1,65,8|2,0:0|0:0,0:0:0:0:
44,300,186467,5,8,0:0:0:0:
44,300,186649,1,8,0:0:0:0:
16,196,186831,1,8,0:0:0:0:
16,196,187012,1,6,0:0:0:0:
256,192,187194,12,8,189921,0:0:0:0:
208,344,190285,6,0,P|184:280|184:204,1,130,8|8,0:0|0:0,0:0:0:0:
280,96,191012,1,8,0:0:0:0:
388,208,191376,1,8,0:0:0:0:
304,340,191740,1,8,0:0:0:0:
152,312,192103,1,8,0:0:0:0:
140,156,192467,1,8,0:0:0:0:
280,96,192831,6,0,B|339:97|339:97|424:132,1,130,6|0,0:0|0:0,0:0:0:0:
456,180,193376,2,0,L|452:256,1,65,2|8,0:0|0:0,0:0:0:0:
392,296,193740,2,0,L|320:280,1,65,0|2,0:0|0:0,0:0:0:0:
256,248,194103,2,0,P|192:232|116:244,2,130,8|8|2,0:0|0:0|0:0,0:0:0:0:
256,248,195012,6,0,L|292:176,1,65,8|2,0:0|0:0,0:0:0:0:
160,40,195558,2,0,L|124:112,1,65,8|2,0:0|0:0,0:0:0:0:
40,296,196103,2,0,L|120:296,1,65,0|2,0:0|0:0,0:0:0:0:
172,252,196467,1,8,0:0:0:0:
172,252,196649,2,0,P|184:216|184:180,2,65,8|2|4,0:0|0:0|0:0,0:0:0:0:
360,320,197376,5,8,0:0:0:0:
360,320,197558,2,0,P|380:272|386:179,1,130,2|8,0:0|0:0,0:0:0:0:
344,128,198103,1,8,0:0:0:0:
272,160,198285,6,0,L|236:160,4,32.5,8|8|2|2|6,0:0|0:0|0:0|0:0|0:0,0:0:0:0:
256,192,198831,12,2,204467,0:0:0:0:
288,60,204831,6,0,P|348:64|426:98,1,130,12|2,0:0|0:0,0:0:0:0:
436,164,205376,1,2,0:0:0:0:
436,164,205558,2,0,L|414:247,1,65,8|2,0:0|0:0,0:0:0:0:
260,312,206103,2,0,L|196:312,2,65,2|8|0,0:0|0:0|0:0,0:0:0:0:
332,280,206649,5,2,0:0:0:0:
332,280,206831,2,0,L|332:216,1,65,2|8,0:0|0:0,0:0:0:0:
264,176,207194,2,0,L|228:240,1,65,0|2,0:0|0:0,0:0:0:0:
36,208,207740,6,0,P|16:152|28:60,1,130,8|0,0:0|0:0,0:0:0:0:
96,60,208285,1,8,0:0:0:0:
152,116,208467,2,0,L|212:80,1,65,8|2,0:0|0:0,0:0:0:0:
456,72,209012,6,0,L|388:44,1,65,8|8,0:0|0:0,0:0:0:0:
316,52,209376,2,0,P|300:92|312:180,1,130,2|8,0:0|0:0,0:0:0:0:
388,168,209921,2,0,L|385:249,1,65,8|2,0:0|0:0,0:0:0:0:
312,256,210285,1,2,0:0:0:0:
312,256,210649,6,0,P|232:232|160:232,1,130,4|2,0:0|0:0,0:0:0:0:
200,152,211194,1,2,0:0:0:0:
136,108,211376,2,0,P|124:136|128:176,1,65,8|2,0:0|0:0,0:0:0:0:
302,318,211921,6,0,P|314:290|310:250,1,65,2|8,0:0|0:0,0:0:0:0:
387,247,212285,2,0,P|388:216|371:180,1,65,0|2,0:0|0:0,0:0:0:0:
448,160,212649,2,0,P|439:130|410:102,1,65,2|8,0:0|0:0,0:0:0:0:
348,68,213012,1,0,0:0:0:0:
272,88,213194,6,0,L|124:88,2,130,2|8|2,0:0|0:0|0:0,0:0:0:0:
348,68,214103,1,2,0:0:0:0:
348,148,214285,2,0,L|300:212,1,65,8|2,0:0|0:0,0:0:0:0:
120,291,214831,6,0,P|96:228|116:155,1,130,2|0,0:0|0:0,0:0:0:0:
184,180,215376,1,2,0:0:0:0:
224,248,215558,1,2,0:0:0:0:
288,292,215740,2,0,P|321:304|352:308,2,65,8|0|2,0:0|0:0|0:0,0:0:0:0:
220,108,216467,6,0,P|156:80|72:100,1,130,12|2,0:0|0:0,0:0:0:0:
44,144,217012,1,2,0:0:0:0:
44,144,217194,2,0,L|44:212,1,65,8|2,0:0|0:0,0:0:0:0:
232,328,217740,6,0,L|256:252,1,65,2|8,0:0|0:0,0:0:0:0:
320,304,218103,2,0,P|344:256|328:160,1,130,0|2,0:0|0:0,0:0:0:0:
300,112,218649,1,8,0:0:0:0:
228,144,218831,1,0,0:0:0:0:
152,128,219012,6,0,L|136:60,2,65,2|0|8,0:0|0:0|0:0,0:0:0:0:
152,128,219558,1,2,0:0:0:0:
100,188,219740,1,0,0:0:0:0:
100,188,219921,1,8,0:0:0:0:
24,172,220103,2,0,L|16:88,1,65,8|2,0:0|0:0,0:0:0:0:
244,80,220649,6,0,L|228:148,1,65,8|8,0:0|0:0,0:0:0:0:
248,220,221012,2,0,P|292:244|384:244,1,130,2|8,0:0|0:0,0:0:0:0:
428,196,221558,6,0,L|440:160,4,32.5,8|10|2|2|6,0:0|0:0|0:0|0:0|0:0,0:0:0:0:
256,192,222103,12,6,229558,0:0:0:0:
