osu file format v13

[General]
AudioFilename: SHANIA TWAIN - Nah!.mp3
AudioLeadIn: 0
PreviewTime: 57622
Countdown: 0
SampleSet: Soft
StackLeniency: 0.7
Mode: 0
LetterboxInBreaks: 0
EpilepsyWarning: 1
WidescreenStoryboard: 0

[Editor]
Bookmarks: 17081
DistanceSpacing: 0.9
BeatDivisor: 4
GridSize: 4
TimelineZoom: 0.9

[Metadata]
Title:Nah!
TitleUnicode:Nah!
Artist:Shania Twain
ArtistUnicode:Shania Twain
Creator:samplefish
Version:Easy
Source:
Tags:country lanturn up!
BeatmapID:525082
BeatmapSetID:223794

[Difficulty]
HPDrainRate:2
CircleSize:2.5
OverallDifficulty:2
ApproachRate:3
SliderMultiplier:2
SliderTickRate:2

[Events]
//Background and Video events
0,0,"thanksringating.jpg",0,0
//Break Periods
2,159784,164831
//Storyboard Layer 0 (Background)
//Storyboard Layer 1 (Fail)
//Storyboard Layer 2 (Pass)
//Storyboard Layer 3 (Foreground)
//Storyboard Sound Samples
//Background Colour Transformations
3,100,163,162,255

[TimingPoints]
4109,810.810810810811,4,2,1,80,1,0
59244,-100,4,2,1,80,0,1
72014,-100,4,2,1,80,0,0
72217,-100,4,2,1,80,0,1
83568,-100,4,2,1,80,0,0
114379,-100,4,2,1,80,0,1
127149,-100,4,2,1,80,0,0
127352,-100,4,2,1,80,0,1
137081,-100,4,2,1,80,0,0
195460,-100,4,2,1,80,0,1
208230,-100,4,2,1,80,0,0
208433,-100,4,2,1,80,0,1
218163,-100,4,2,1,80,0,0

[Colours]
Combo1 : 239,82,82
Combo2 : 213,218,116
Combo3 : 122,205,203
Combo4 : 226,134,103
Combo5 : 243,128,27

[HitObjects]
176,244,17081,6,0,B|224:232|272:260|272:260|332:244|336:176,1,200,2|0,0:1|1:0,0:0:0:0:
316,100,18298,1,0,0:0:0:0:
236,60,18703,2,0,P|136:60|88:148,1,200,2|0,0:1|1:0,0:0:0:0:
96,316,20325,6,0,P|152:324|204:304,1,100,2|0,0:1|0:0,0:0:0:0:
252,244,21136,2,0,B|280:216|284:156|284:156|336:132|400:152,1,200,0|2,1:0|0:1,0:0:0:0:
500,288,22757,1,0,1:0:0:0:
324,328,23568,6,0,L|124:340,1,200,2|0,0:1|1:0,0:0:0:0:
48,288,24784,1,0,0:0:0:0:
68,200,25190,2,0,B|112:164|112:164|124:80|124:80|184:36,1,200,2|0,0:1|1:0,0:0:0:0:
322,143,26811,6,0,P|371:128|406:76,1,100,2|0,0:1|0:0,0:0:0:0:
319,54,27622,2,0,P|243:98|259:206,1,200,0|0,1:0|0:0,0:0:0:0:
433,193,29244,1,0,1:0:0:0:
319,54,30054,6,0,P|275:34|219:42,1,100,2|2,0:1|0:1,0:0:0:0:
147,86,30865,1,0,1:0:0:0:
192,260,31676,2,0,P|272:308|368:256,1,200,2|0,0:1|1:0,0:0:0:0:
462,116,33298,5,2,0:1:0:0:
404,44,33703,1,2,0:1:0:0:
316,68,34109,2,0,L|304:280,1,200,0|2,1:0|0:1,0:0:0:0:
140,340,35730,2,0,P|84:338|48:309,1,100,0|0,1:0|0:0,0:0:0:0:
119,253,36541,6,0,B|163:157|91:157|143:53,1,200,2|0,0:1|1:0,0:0:0:0:
225,20,37757,1,0,0:0:0:0:
308,53,38163,2,0,P|306:138|402:153,1,200,2|0,0:1|1:0,0:0:0:0:
452,324,39784,6,0,B|344:332|344:332|312:296|256:292,1,200,2|0,0:1|1:0,0:0:0:0:
176,316,41000,1,0,0:0:0:0:
116,248,41406,2,0,B|116:188|60:168|60:168|32:112|84:56,1,200,2|0,0:1|1:0,0:0:0:0:
248,92,43027,6,0,P|296:112|376:104,1,100,4|2,2:0|0:1,0:0:0:0:
392,40,43838,2,0,P|441:41|487:61,1,100,0|0,1:0|0:0,0:0:0:0:
508,148,44649,1,2,0:1:0:0:
432,196,45054,2,0,P|420:244|424:320,1,100,0|0,0:0|1:0,0:0:0:0:
252,364,46271,6,0,B|144:368|144:368|48:324,1,200,2|0,0:1|1:0,0:0:0:0:
48,240,47487,1,0,0:0:0:0:
108,172,47892,2,0,P|200:156|224:56,1,200,2|0,0:1|1:0,0:0:0:0:
140,88,49109,1,0,0:0:0:0:
52,92,49514,6,0,P|15:136|26:213,1,100,2|2,0:1|0:1,0:0:0:0:
60,252,50325,1,0,1:0:0:0:
228,316,51136,2,0,P|280:296|348:304,1,100,2|0,0:1|0:0,0:0:0:0:
408,328,51946,1,0,1:0:0:0:
500,172,52757,6,0,P|504:120|484:60,1,100,6|2,2:1|0:1,0:0:0:0:
416,24,53568,1,0,1:0:0:0:
336,64,53973,1,2,0:1:0:0:
252,35,54379,2,0,P|271:127|363:148,1,200,0|0,0:0|1:0,0:0:0:0:
424,80,55595,1,8,0:3:0:0:
336,64,56000,5,4,0:3:0:0:
278,322,58433,2,0,P|234:286|170:290,1,100,8|0,3:0|0:0,0:0:0:0:
124,340,59244,6,0,P|108:252|216:196,1,200,4|0,0:1|1:0,0:0:0:0:
276,212,60460,1,0,0:0:0:0:
360,180,60865,2,0,P|400:140|364:32,1,100,2|2,0:1|0:1,0:0:0:0:
368,16,61676,1,0,1:0:0:0:
288,52,62081,1,0,0:0:0:0:
240,127,62487,6,0,P|191:135|147:113,1,100,2|2,0:1|0:1,0:0:0:0:
104,32,63298,2,0,P|147:114|72:207,1,200,0|2,1:0|0:1,0:0:0:0:
12,232,64514,1,2,0:1:0:0:
60,308,64919,1,0,1:0:0:0:
148,284,65325,1,0,0:0:0:0:
220,336,65730,6,0,L|352:352,1,100,2|2,0:1|0:1,0:0:0:0:
408,344,66541,2,0,P|436:300|428:236,1,100,0|2,1:0|0:0,0:0:0:0:
348,228,67352,2,0,P|320:184|328:120,1,100,2|2,0:1|0:1,0:0:0:0:
404,100,68163,2,0,P|316:136|228:48,1,200,0|2,1:0|0:1,0:0:0:0:
166,24,69379,5,2,0:1:0:0:
87,68,69784,2,0,P|75:128|99:228,1,100,0|0,1:0|0:0,0:0:0:0:
127,240,70595,2,0,P|74:257|18:231,2,100,2|2|0,0:1|0:1|1:0,0:0:0:0:
277,134,72217,6,0,P|322:125|382:140,1,100,4|2,1:0|0:1,0:0:0:0:
462,117,73027,2,0,B|475:170|432:208|432:208|418:261|430:325,1,200,0|2,1:0|0:1,0:0:0:0:
362,369,74244,1,2,0:1:0:0:
295,308,74649,2,0,P|207:266|58:289,1,200,0|2,1:0|0:1,0:0:0:0:
55,342,75865,5,2,0:1:0:0:
12,262,76271,2,0,B|18:215|56:188|56:188|30:123|51:41,1,200,0|2,1:0|0:1,0:0:0:0:
119,30,77487,2,0,L|289:21,1,100,2|0,0:1|1:0,0:0:0:0:
306,48,78298,1,0,0:0:0:0:
386,88,78703,6,0,P|393:138|373:226,1,100,2|2,0:1|0:1,0:0:0:0:
311,235,79514,2,0,B|256:252|212:201|212:201|156:202|119:290,1,200,0|2,1:0|0:1,0:0:0:0:
103,332,80730,1,2,0:1:0:0:
181,375,81136,1,0,1:0:0:0:
360,366,81946,6,0,L|474:355,1,100,2|0,0:1|0:0,0:0:0:0:
505,279,82757,1,0,1:0:0:0:
428,231,83163,2,0,P|383:210|350:143,1,100,2|2,0:0|0:1,0:0:0:0:
284,51,85190,6,0,P|244:81|196:94,1,100,2|2,0:1|0:1,0:0:0:0:
136,28,86000,2,0,P|108:111|188:185,2,200,0|2|0,1:0|0:1|1:0,0:0:0:0:
316,48,88433,6,0,L|320:272,1,200,2|0,0:1|1:0,0:0:0:0:
252,308,89649,1,0,0:0:0:0:
176,260,90054,2,0,B|132:252|96:296|96:296|24:272|24:192,1,200,2|0,0:1|1:0,0:0:0:0:
196,164,91676,6,0,P|224:128|220:48,1,100,2|2,0:1|0:1,0:0:0:0:
164,12,92487,1,0,1:0:0:0:
92,176,93298,2,0,P|144:256|266:236,1,200,2|0,0:1|1:0,0:0:0:0:
416,212,94919,5,2,0:1:0:0:
472,140,95325,1,2,0:1:0:0:
400,88,95730,2,0,B|324:104|280:44|280:44|180:80,1,200,0|0,1:0|0:0,0:0:0:0:
127,219,97352,2,0,P|122:268|130:317,1,100,0|0,1:0|0:0,0:0:0:0:
220,336,98163,6,0,L|344:336,1,100,4|2,1:0|0:1,0:0:0:0:
396,292,98973,1,0,1:0:0:0:
468,236,99379,2,0,P|480:184|456:116,1,100,0|2,0:0|0:1,0:0:0:0:
384,112,100190,2,0,P|336:120|280:72,1,100,0|0,0:0|1:0,0:0:0:0:
132,32,101406,6,0,L|120:164,1,100,2|2,0:1|0:1,0:0:0:0:
112,220,102217,1,0,1:0:0:0:
244,336,103027,1,2,0:1:0:0:
292,260,103433,1,0,0:0:0:0:
240,188,103838,2,0,P|188:168|160:108,1,100,0|0,1:0|0:0,0:0:0:0:
248,100,104649,6,0,B|300:104|324:152|324:152|360:100|440:100,1,200,2|0,0:1|1:0,0:0:0:0:
488,264,106271,2,0,B|436:260|412:212|412:212|376:264|296:252,1,200,2|0,0:1|1:0,0:0:0:0:
144,228,107892,6,0,P|128:180|148:92,1,100,6|2,0:1|0:1,0:0:0:0:
164,48,108703,1,0,1:0:0:0:
248,16,109109,1,2,0:1:0:0:
307,83,109514,2,0,P|355:99|404:96,1,100,0|0,0:0|0:0,0:0:0:0:
452,20,110325,2,0,P|490:68|484:135,1,100,0|2,1:0|0:1,0:0:0:0:
440,176,111136,5,4,3:0:0:0:
236,64,113568,2,0,P|280:100|344:96,1,100,8|0,3:0|0:0,0:0:0:0:
388,44,114379,6,0,P|404:132|296:188,1,200,4|0,0:1|1:0,0:0:0:0:
236,172,115595,1,0,0:0:0:0:
152,204,116000,2,0,P|112:244|148:352,1,100,2|2,0:1|0:1,0:0:0:0:
144,368,116811,1,0,1:0:0:0:
224,332,117217,1,0,0:0:0:0:
272,256,117622,6,0,P|320:248|376:292,1,100,2|2,0:1|0:1,0:0:0:0:
408,352,118433,2,0,P|372:236|464:172,1,200,0|2,1:0|0:1,0:0:0:0:
500,152,119649,1,2,0:1:0:0:
452,76,120054,1,0,1:0:0:0:
364,100,120460,1,0,0:0:0:0:
292,48,120865,6,0,L|160:32,1,100,2|2,0:1|0:1,0:0:0:0:
104,40,121676,2,0,P|76:84|84:148,1,100,0|2,1:0|0:1,0:0:0:0:
164,156,122487,2,0,P|192:200|184:264,1,100,2|2,0:1|0:1,0:0:0:0:
108,284,123298,2,0,P|196:248|284:336,1,200,0|2,1:0|0:1,0:0:0:0:
328,376,124514,5,2,0:1:0:0:
400,320,124919,2,0,P|412:260|388:160,1,100,0|0,1:0|0:0,0:0:0:0:
360,148,125730,2,0,P|413:131|469:157,2,100,2|2|0,0:0|0:1|1:0,0:0:0:0:
230,273,127352,6,0,P|188:250|96:256,1,100,4|0,1:0|0:0,0:0:0:0:
50,267,128163,2,0,B|37:214|80:176|80:176|94:123|82:59,1,200,0|2,1:0|0:1,0:0:0:0:
150,15,129379,1,2,0:1:0:0:
217,76,129784,2,0,P|306:118|405:115,1,200,0|2,1:0|0:1,0:0:0:0:
462,45,131000,5,2,0:1:0:0:
505,125,131406,2,0,B|499:172|461:199|461:199|487:264|466:346,1,200,0|2,1:0|0:1,0:0:0:0:
394,347,132622,2,0,L|224:356,1,100,2|0,0:1|1:0,0:0:0:0:
206,336,133433,1,0,0:0:0:0:
126,296,133838,6,0,P|119:246|139:158,1,100,2|2,0:1|0:1,0:0:0:0:
201,149,134649,2,0,B|256:132|300:183|300:183|356:182|393:94,1,200,0|2,1:0|0:1,0:0:0:0:
407,54,135865,1,2,0:1:0:0:
324,17,136271,1,0,1:0:0:0:
201,149,137081,6,0,P|211:207|203:266,1,100,2|2,0:1|0:1,0:0:0:0:
132,298,137892,2,0,P|65:277|90:198,2,150,0|0|2,1:0|1:0|0:1,0:0:0:0:
220,280,139514,2,0,P|284:263|342:277,1,100,2|0,1:0|1:0,0:0:0:0:
398,305,140325,5,4,1:1:0:0:
441,226,140730,1,2,0:1:0:0:
413,140,141136,2,0,P|330:121|239:31,1,200,0|0,1:0|0:0,0:0:0:0:
155,40,142352,1,2,0:1:0:0:
64,60,142757,2,0,P|40:104|60:184,1,100,0|0,1:0|0:0,0:0:0:0:
108,216,143568,6,0,B|204:172|204:240|308:200,1,200,2|0,0:1|1:0,0:0:0:0:
356,128,144784,1,2,0:0:0:0:
428,76,145190,1,0,0:0:0:0:
500,132,145595,1,2,0:1:0:0:
428,188,146000,2,0,P|412:244|424:296,1,100,0|2,1:0|0:0,0:0:0:0:
504,316,146811,6,0,P|408:288|340:356,1,200,4|0,0:1|1:0,0:0:0:0:
252,340,148027,1,0,0:0:0:0:
184,280,148433,2,0,P|172:228|184:168,1,100,0|2,0:0|0:1,0:0:0:0:
224,104,149244,1,0,1:0:0:0:
304,64,149649,1,0,0:0:0:0:
364,132,150054,6,0,P|384:192|364:240,1,100,4|0,1:0|0:0,0:0:0:0:
296,272,150865,2,0,P|208:252|88:264,1,200,0|0,1:0|0:0,0:0:0:0:
32,324,152081,1,2,0:1:0:0:
116,360,152487,2,0,P|188:306|181:204,1,200,0|2,1:0|0:1,0:0:0:0:
132,128,153703,5,2,0:1:0:0:
200,68,154109,1,0,1:0:0:0:
264,132,154514,2,0,P|316:140|364:128,1,100,2|0,0:1|0:0,0:0:0:0:
428,68,155325,1,2,0:1:0:0:
480,144,155730,2,0,P|488:204|464:256,1,100,0|0,1:0|0:0,0:0:0:0:
256,192,156541,12,0,158973,1:0:0:0:
128,184,166271,5,2,0:1:0:0:
180,108,166676,1,2,0:1:0:0:
260,152,167081,2,0,P|300:180|360:176,1,100,0|0,1:0|0:0,0:0:0:0:
438,213,167892,6,0,P|422:119|332:88,2,200,2|0|2,0:1|1:0|0:1,0:0:0:0:
384,284,169919,1,2,0:1:0:0:
316,344,170325,2,0,P|232:376|128:340,1,200,0|2,1:0|0:1,0:0:0:0:
36,192,171946,1,0,1:0:0:0:
80,116,172352,1,0,0:0:0:0:
152,64,172757,6,0,P|204:52|264:60,1,100,2|2,0:1|0:1,0:0:0:0:
296,136,173568,2,0,P|345:139|394:128,1,100,0|0,1:0|0:0,0:0:0:0:
424,44,174379,2,0,P|483:109|432:208,1,200,2|0,0:1|1:0,0:0:0:0:
264,196,176000,6,0,P|216:188|156:212,1,100,2|2,0:1|0:1,0:0:0:0:
452,344,177825,2,0,L|460:184,1,150,2|0,0:1|1:0,0:0:0:0:
511,121,178838,1,8,3:0:0:0:
462,44,179244,5,4,1:0:0:0:
399,108,179649,2,0,P|351:116|283:104,1,100,2|0,0:1|1:0,0:0:0:0:
259,29,180460,2,0,P|215:77|211:113,1,100,2|2,0:0|0:1,0:0:0:0:
259,184,181271,2,0,P|247:231|210:264,1,100,2|0,0:0|1:0,0:0:0:0:
47,343,182487,6,0,P|102:330|151:343,1,100,2|2,0:1|0:1,0:0:0:0:
227,371,183298,1,0,1:0:0:0:
388,304,184109,2,0,P|436:228|404:112,1,200,2|0,0:1|1:0,0:0:0:0:
344,72,185325,1,0,0:0:0:0:
268,119,185730,6,0,P|218:128|170:117,1,100,4|2,1:0|0:1,0:0:0:0:
148,32,186541,2,0,P|84:102|123:191,1,200,0|2,1:0|0:1,0:0:0:0:
204,221,187757,1,2,0:1:0:0:
293,209,188163,2,0,P|363:123|329:47,1,200,2|6,1:0|0:1,0:0:0:0:
248,17,189379,5,2,0:1:0:0:
184,80,189784,1,0,1:0:0:0:
268,116,190190,1,2,0:1:0:0:
352,148,190595,2,0,B|396:188|392:232|392:232|344:280|364:340,1,200,0|0,0:0|1:0,0:0:0:0:
453,306,191811,1,4,3:0:0:0:
485,222,192217,5,12,0:3:0:0:
236,64,194649,2,0,P|280:64|344:96,1,100,8|0,3:0|0:0,0:0:0:0:
400,144,195460,6,0,P|398:239|304:260,1,200,4|0,1:0|1:0,0:0:0:0:
252,192,196676,1,0,0:0:0:0:
168,160,197081,2,0,P|108:152|72:172,1,100,0|2,0:0|0:1,0:0:0:0:
24,244,197892,1,0,1:0:0:0:
76,320,198298,1,0,0:0:0:0:
156,280,198703,6,0,P|204:272|260:316,1,100,2|2,0:1|0:1,0:0:0:0:
288,376,199514,2,0,P|252:260|344:196,1,200,0|2,1:0|0:1,0:0:0:0:
376,164,200730,1,2,0:1:0:0:
456,200,201136,1,0,1:0:0:0:
432,288,201541,1,0,0:0:0:0:
340,296,201946,6,0,L|208:280,1,100,2|2,0:1|0:1,0:0:0:0:
164,240,202757,2,0,P|164:190|191:149,1,100,0|0,1:0|0:0,0:0:0:0:
276,175,203568,2,0,P|303:133|303:84,1,100,2|2,0:1|0:1,0:0:0:0:
232,31,204379,2,0,P|309:86|398:50,1,200,0|2,1:0|0:1,0:0:0:0:
484,20,205595,5,2,0:1:0:0:
488,108,206000,2,0,P|489:157|478:206,1,100,0|2,1:0|0:1,0:0:0:0:
392,236,206811,2,0,P|380:284|382:334,1,100,0|2,0:0|0:1,0:0:0:0:
460,380,207622,1,0,1:0:0:0:
284,336,208433,6,0,P|242:313|150:319,1,100,6|2,0:1|0:1,0:0:0:0:
104,332,209244,2,0,B|91:279|134:236|134:236|148:188|136:124,1,200,0|2,1:0|0:1,0:0:0:0:
80,72,210460,1,2,0:1:0:0:
48,156,210865,2,0,P|143:138|166:44,1,200,0|2,1:0|0:1,0:0:0:0:
257,48,212081,5,2,0:1:0:0:
345,64,212487,2,0,B|343:99|300:148|243:137|243:137|265:185|243:229,1,200,0|2,1:0|0:1,0:0:0:0:
207,274,213703,2,0,P|211:338|242:381,1,100,2|0,0:1|1:0,0:0:0:0:
319,380,214514,1,0,0:0:0:0:
398,337,214919,6,0,L|407:228,1,100,2|2,0:1|0:1,0:0:0:0:
429,150,215730,2,0,B|371:135|330:184|330:184|279:182|255:126,1,200,0|2,1:0|0:1,0:0:0:0:
205,65,216946,1,2,0:1:0:0:
119,35,217352,2,0,P|42:103|78:179,1,200,0|2,1:0|0:1,0:0:0:0:
158,216,218568,5,2,0:1:0:0:
237,173,218973,1,0,1:0:0:0:
307,229,219379,2,0,P|355:247|414:225,1,100,0|0,3:0|0:0,0:0:0:0:
468,176,220190,1,2,0:1:0:0:
420,99,220595,6,0,L|416:-8,2,100,0|0|4,1:0|1:0|1:0,0:0:0:0:
