osu file format v9

[General]
AudioFilename: SHANIA TWAIN - Nah!.mp3
AudioLeadIn: 0
PreviewTime: 58020
Countdown: 1
SampleSet: Soft
StackLeniency: 0.7
Mode: 0
LetterboxInBreaks: 1

[Editor]
Bookmarks: 43035,59251,91481,114371,140317,165857,195462,220587,240867
DistanceSpacing: 1.2
BeatDivisor: 2
GridSize: 8

[Metadata]
Title:Nah!
Artist:Shania Twain
Creator:0_o
Version:Hard
Source:
Tags:country Up!

[Difficulty]
HPDrainRate:7
CircleSize:5
OverallDifficulty:7
ApproachRate:7
SliderMultiplier:1.6
SliderTickRate:2

[Events]
//Background and Video events
0,0,"shania-twain.jpg"
//Break Periods
2,85198,90576
2,159986,164967
//Storyboard Layer 0 (Background)
//Storyboard Layer 1 (Fail)
//Storyboard Layer 2 (Pass)
//Storyboard Layer 3 (Foreground)
//Storyboard Sound Samples
//Background Colour Transformations
3,100,163,162,255

[TimingPoints]
868,405.405405405405,4,2,0,80,1,0
29242,-100,4,1,0,80,0,0
29647,-100,4,2,0,80,0,0
29850,-100,4,1,0,80,0,0
30255,-100,4,2,0,80,0,0
41809,-100,4,1,0,80,0,0
42012,-100,4,2,0,80,0,0
42215,-100,4,1,0,80,0,0
42620,-100,4,2,0,80,0,0
42823,-100,4,1,0,80,0,0
43431,-100,4,2,0,80,0,0
44651,-100,4,1,0,80,0,0
44854,-100,4,2,0,80,0,0
49512,-100,4,1,0,80,0,0
49917,-100,4,2,0,80,0,0
52755,-100,4,1,0,80,0,0
56809,-100,4,2,0,60,0,0
57827,-100,4,2,0,80,0,0
58431,-100,4,1,0,80,0,0
58836,-100,4,2,0,80,0,0
59039,-100,4,1,0,80,0,0
59246,-100,4,1,0,80,0,1
59247,-100,4,1,0,80,0,0
85187,-100,4,2,0,80,0,0
96336,-100,4,2,0,80,0,0
96944,-100,4,1,0,80,0,0
97146,-100,4,2,0,80,0,0
97349,-100,4,1,0,80,0,0
97754,-100,4,2,0,80,0,0
98160,-100,4,1,0,80,0,0
98565,-100,4,2,0,80,0,0
99781,-100,4,1,0,80,0,0
99984,-100,4,2,0,80,0,0
104646,-100,4,1,0,80,0,0
104849,-100,4,2,0,80,0,0
107890,-100,4,1,0,80,0,0
111944,-100,4,2,0,60,0,0
113565,-100,4,1,0,80,0,0
114381,-100,4,1,0,80,0,1
114382,-100,4,1,0,80,0,0
159781,-100,4,2,0,80,0,0
165862,-100,4,1,0,80,0,0
166065,-100,4,2,0,80,0,0
166268,-100,4,1,0,80,0,0
166471,-100,4,2,0,80,0,0
167890,-100,4,1,0,80,0,0
168092,-100,4,2,0,80,0,0
168700,-100,4,1,0,80,0,0
168903,-100,4,2,0,80,0,0
169308,-100,4,1,0,80,0,0
170322,-100,4,2,0,80,0,0
172754,-100,4,1,0,80,0,0
172957,-100,4,2,0,80,0,0
174376,-100,4,1,0,80,0,0
174579,-100,4,2,0,80,0,0
175998,-100,4,1,0,80,0,0
176200,-100,4,2,0,80,0,0
176403,-100,4,1,0,80,0,0
179646,-100,4,2,0,80,0,0
180862,-100,4,1,0,80,0,0
181065,-100,4,2,0,80,0,0
181876,-100,4,2,0,80,0,0
182281,-100,4,1,0,80,0,0
182692,-100,4,2,0,80,0,0
184106,-100,4,1,0,80,0,0
184308,-100,4,2,0,80,0,0
184917,-100,4,1,0,80,0,0
185322,-100,4,2,0,80,0,0
185727,-100,4,1,0,80,0,0
186133,-100,4,2,0,80,0,0
187349,-100,4,1,0,80,0,0
187552,-100,4,2,0,80,0,0
188160,-100,4,1,0,80,0,0
188570,-100,4,2,0,80,0,0
188971,-100,4,1,0,80,0,0
193025,-100,4,2,0,60,0,0
194043,-100,4,2,0,80,0,0
194646,-100,4,1,0,80,0,0
195462,-100,4,1,0,80,0,1
195463,-100,4,1,0,80,0,0
221408,-100,4,1,0,80,0,1
221409,-100,4,1,0,80,0,0
231138,-100,4,1,0,80,0,1
231139,-100,4,1,0,80,0,0
240862,-100,4,2,0,80,0,0

[Colours]
Combo1 : 128,255,0
Combo2 : 255,128,64
Combo3 : 0,128,192
Combo4 : 255,255,0

[HitObjects]
104,112,16881,1,0
176,136,17084,2,0,B|224:104|224:56,2,80,2|0|0
168,208,17692,1,0
128,272,17895,2,0,B|32:296|16:392,2,160,8|0|2
192,304,18908,1,0
256,272,19111,1,0
280,208,19313,2,0,B|368:256|432:176,1,160,2|0
272,64,20124,5,0
200,72,20327,1,8
152,128,20530,1,0
104,184,20732,2,0,B|40:200|8:152,2,80,2|0|8
168,160,21340,1,0
232,200,21543,1,0
224,272,21746,1,0
176,360,21949,6,0,B|288:336,1,80,2|0
408,320,22557,1,2
296,200,22962,1,0
456,232,23367,1,0
488,144,23570,6,0,B|512:88|464:56,1,80,2|0
408,88,23976,1,0
344,64,24178,2,0,B|248:104|248:200,1,160,2|0
264,256,24786,1,0
320,304,24989,1,0
392,304,25192,2,0,B|440:312|472:248,2,80,8|0|0
384,232,25800,2,0,B|272:248|224:168,1,160,2|0
32,112,26611,5,0
96,80,26813,1,2
152,128,27016,1,0
128,192,27219,1,2
64,216,27422,2,0,B|16:232|0:280,2,80,0|8|0
104,280,28030,1,0
144,336,28232,2,0,B|216:392|304:336,1,160,0|0
432,184,29043,5,0
360,160,29246,1,0
288,176,29449,1,0
224,200,29651,1,0
152,208,29854,1,0
80,184,30057,1,4
32,104,30259,5,0
104,88,30462,2,0,B|184:104|248:32,2,160,4|4|0
64,152,31476,1,0
120,200,31678,1,8
192,200,31881,1,0
232,264,32084,2,0,B|264:368|384:312,1,160,2|4
424,296,32692,1,0
360,160,33097,1,0
392,88,33300,6,0,B|472:88,2,80,2|0|8
328,56,33908,1,0
256,88,34111,1,8
216,152,34313,1,0
224,224,34516,1,0
264,288,34719,1,0
376,344,34922,6,0,B|336:256,1,80,2|0
408,112,35530,1,2
280,200,35935,1,0
176,192,36138,5,8
112,144,36340,1,0
80,72,36543,2,0,B|0:136|88:216,1,160,4|0
152,184,37151,1,0
224,160,37354,2,0,B|304:224|216:304,1,160,4|0
145,308,37962,1,0
71,276,38165,2,0,B|63:220|119:188,2,80,2|2|8
80,355,38773,2,0,B|147:328|198:400|240:352,1,160,2|0
320,296,39381,5,0
192,296,39584,1,0
256,200,39786,1,4
80,120,40192,5,8
136,72,40395,1,0
208,56,40597,2,0,B|224:160|360:64|400:168,1,240,2|4
488,328,41611,5,0
416,360,41813,1,0
336,360,42016,1,0
264,328,42219,1,0
232,256,42422,1,0
256,188,42624,1,0
256,188,43030,1,4
408,48,43435,6,0,B|496:96|480:192,1,160,4|4
407,194,44043,1,0
338,161,44246,1,2
250,285,44651,1,4
190,237,44854,5,0
115,223,45057,1,2
87,293,45259,1,0
16,321,45462,2,0,B|-13:276|8:233,2,80,4|0|8
136,336,46070,5,0
208,311,46273,2,0,B|264:319|272:367,2,80,2|0|8
164,248,46881,1,0
89,233,47084,2,0,B|49:145|121:89,2,160,4|4|0
193,247,48097,5,0
266,228,48300,1,8
313,287,48503,1,0
388,296,48705,2,2,B|499:269|492:168,1,160
464,80,49313,6,0,B|368:56,1,80,0|4
248,136,49922,5,0
320,168,50124,1,0
321,242,50327,2,0,B|233:218|241:306|145:274,1,160,2|0
124,221,50935,1,0
64,173,51138,2,0,B|16:101,1,80,2|0
51,37,51543,2,0,B|95:103,1,80,8|0
122,174,51949,2,0,B|162:270|266:238,1,160,2|0
323,212,52557,1,0
384,152,52759,5,4
256,88,53165,1,0
112,152,53570,1,8
384,288,53976,5,0
344,352,54178,1,4
168,352,54584,1,0
128,288,54786,1,4
333,159,55192,2,2,B|257:119|177:159,2,160,2|2|0
256,328,56813,5,4
32,144,57827,5,0
96,96,58030,1,8
248,56,58435,1,0
224,128,58638,1,0
384,152,59043,1,0
440,224,59246,6,0,B|536:176,2,80,4|0|0
360,216,59854,1,0
400,288,60057,2,0,B|384:384|272:376,1,160,4|0
216,344,60665,1,0
176,280,60868,2,2,B|184:232|256:224,2,80,2|0|2
96,272,61476,1,0
48,208,61678,2,0,B|144:208,1,80,8|0
176,144,62084,2,0,B|88:144,1,80,4|0
32,56,62489,5,0
112,40,62692,1,0
184,64,62895,1,8
216,136,63097,1,0
208,216,63300,2,0,B|128:256|144:352,1,160,4|0
216,384,63908,1,0
296,360,64111,2,2,B|336:272,1,80
400,320,64516,2,0,B|504:288|504:192,2,160,4|4|8
400,320,65530,1,0
368,216,65732,5,4
288,208,65935,1,0
240,144,66138,1,0
176,96,66340,2,0,B|88:56|0:80,1,160,4|0
56,152,66949,1,8
56,152,67151,1,0
96,248,67354,6,2,B|48:264|8:208,2,80,2|2|0
160,200,67962,2,2,B|224:136|328:128,1,160,2|0
360,72,68570,1,8
432,112,68773,1,0
456,192,68976,1,4
352,344,69381,5,0
160,344,69786,1,8
64,176,70192,1,0
112,112,70395,1,4
293,69,70800,1,0
269,145,71003,1,4
320,320,71408,1,8
400,304,71611,1,0
448,240,71813,1,0
432,160,72016,1,0
368,104,72219,6,2,B|272:112|216:40,2,160,2|2|4
496,240,73435,1,0
416,224,73638,1,0
352,272,73840,2,2,B|376:320|328:368,2,80,2|0|2
304,208,74449,1,0
240,160,74651,2,0,B|160:216,1,80,8|0
240,256,75057,2,0,B|160:312,1,80,4|0
88,352,75462,5,0
24,304,75665,1,0
24,224,75867,1,8
80,168,76070,1,0
152,200,76273,2,0,B|264:184|288:88,1,160,4|0
248,40,76881,1,0
328,24,77084,1,2
392,71,77286,2,2,B|432:103|488:71,2,80,2|2|0
320,48,77895,1,8
272,112,78097,1,0
336,160,78300,2,0,B|360:208|336:248,1,80,4|0
256,320,78705,5,0
181,349,78908,1,0
103,328,79111,1,0
53,265,79313,2,0,B|173:249|165:113,1,160,4|0
72,80,79922,5,0
136,40,80124,1,0
208,72,80327,2,0,B|256:88|328:32,2,80,2|2|0
176,144,80935,2,2,B|272:136|312:232,1,160,2|0
227,236,81543,1,0
158,277,81746,1,0
106,338,81949,2,0,B|258:402|419:337,2,320,4|0|0
408,64,91476,5,0
432,128,91678,1,2
392,184,91881,1,0
320,200,92084,2,0,B|328:240|376:257,1,80,2|0
440,296,92489,2,0,B|432:352|368:384,1,80,8|0
296,328,92895,5,2
224,312,93097,1,0
152,336,93300,1,2
80,312,93503,1,0
32,256,93705,2,0,B|24:168|88:109,2,160,4|4|0
256,192,94922,12,4,96340
256,24,96746,5,0
312,80,96949,1,0
288,152,97151,1,0
224,200,97354,1,0
208,280,97557,1,0
256,344,97759,1,0
256,344,98165,1,4
496,304,98570,6,0,B|496:216|416:264|408:168,1,160,4|4
464,72,99178,5,0
392,40,99381,1,2
248,120,99786,1,4
200,224,99989,5,0
120,208,100192,1,2
94,132,100395,1,0
141,67,100597,2,0,B|109:27|45:27,2,80,4|0|8
174,139,101205,1,0
64,168,101408,6,2,B|16:200|16:264,1,80
63,299,101813,1,8
143,296,102016,1,0
214,259,102219,2,0,B|310:259|358:339,1,160,4|4
496,200,103030,1,8
392,240,103232,5,0
320,204,103435,1,2
299,126,103638,1,0
339,57,103840,2,0,B|275:1|235:113|187:57,1,160,2|2
118,33,104449,1,0
59,86,104651,1,4
180,190,105057,5,0
100,180,105259,1,0
33,225,105462,2,0,B|54:281|139:251|162:329,1,160,2|0
215,370,106070,1,0
294,360,106273,2,0,B|358:384|406:352,1,80,2|0
464,296,106678,2,0,B|400:320|352:288,1,80,8|0
304,248,107084,2,0,B|384:248|456:168,1,160,2|0
472,104,107692,1,0
408,48,107895,5,4
256,120,108300,1,0
104,48,108705,1,8
352,160,109111,5,0
392,232,109314,1,4
176,200,109719,1,0
128,264,109922,1,4
336,360,110327,2,2,B|248:384|160:352,2,160,2|2|0
464,176,111949,5,4
104,88,112962,5,0
176,56,113165,1,8
328,160,113570,1,0
256,184,113773,1,0
144,328,114178,1,0
56,344,114381,6,0,B|0:320|0:272,2,80,4|0|0
112,288,114989,1,0
192,304,115192,2,0,B|240:216|160:144,1,160,4|0
96,184,115800,1,0
32,136,116003,2,2,B|0:88|24:48,1,80,2|2
96,40,116408,1,2
152,96,116611,1,0
224,64,116813,2,0,B|312:64,1,80,8|0
280,168,117219,2,0,B|192:168,1,80,4|0
112,248,117624,5,0
136,328,117827,1,0
208,360,118030,1,8
288,336,118232,1,0
248,264,118435,2,0,B|248:152|368:120,1,160,4|0
392,176,119043,2,2,B|408:208|464:232,2,80,0|2|2
440,112,119651,2,0,B|376:32|264:64,2,160,4|4|8
440,112,120665,1,0
480,208,120867,5,4
400,208,121070,1,0
352,272,121273,1,0
432,296,121476,2,0,B|408:392|304:360,1,160,4|0
256,312,122084,1,8
256,312,122286,1,0
168,248,122489,6,2,B|88:240|64:176,1,80
64,144,122895,1,0
120,88,123097,2,2,B|144:184|248:152,1,160,2|0
312,120,123705,1,8
360,56,123908,1,0
408,120,124111,5,4
256,248,124516,1,0
104,120,124922,1,8
304,88,125327,5,0
376,56,125530,1,4
208,184,125935,1,0
136,152,126138,1,4
32,344,126543,1,8
88,288,126746,1,0
168,280,126949,1,0
232,328,127151,1,0
312,344,127354,6,2,B|400:376|480:304,2,160,2|2|4
200,192,128570,1,0
144,248,128773,1,0
72,224,128976,2,2,B|24:224|0:272,2,80,2|0|2
136,176,129584,1,0
216,160,129786,2,0,B|184:104|240:64,1,80,8|0
320,152,130192,2,0,B|352:208|296:248,1,80,4|0
256,336,130597,5,0
176,352,130800,1,0
96,328,131003,1,8
64,256,131205,1,0
128,208,131408,2,0,B|224:176|208:80,1,160,4|0
136,48,132016,1,0
72,96,132219,1,2
72,176,132422,1,2
152,192,132624,2,0,B|200:176|240:224,1,80,2|0
296,280,133030,2,0,B|192:280,1,80,8|0
304,360,133435,2,0,B|384:360,1,80,4|0
504,304,133840,5,0
464,232,134043,1,0
384,216,134246,1,0
304,224,134449,2,0,B|200:216|176:144,1,160,4|0
88,56,135057,5,0
160,24,135259,1,0
232,56,135462,2,0,B|248:96|312:112,1,80,2|2
368,120,135867,1,0
400,192,136070,2,2,B|304:192|264:280,1,160,2|2
319,331,136678,1,0
248,376,136881,1,0
168,376,137084,2,0,B|0:376,2,160,4|0|8
384,304,138300,5,0
440,256,138503,1,4
264,248,138908,1,0
208,200,139111,1,4
256,32,139516,5,4
112,128,139922,1,0
168,56,140124,1,0
80,32,140327,2,0,B|8:64|-8:168|48:224|136:248|200:184,1,320,4|8
312,120,141543,1,0
384,160,141746,1,4
248,208,142151,1,0
176,240,142354,1,0
256,376,142759,5,4
328,232,143165,1,0
416,264,143367,1,0
448,176,143570,2,0,B|520:208|536:312|480:368|392:392|328:328,1,320,4|8
320,192,144786,1,0
240,176,144989,1,4
168,320,145395,1,0
88,304,145597,1,0
24,160,146003,5,4
176,64,146408,1,0
256,104,146611,1,0
336,64,146813,2,0,B|376:144|264:192|160:224|216:328,1,320,4|8
460,359,148030,5,0
401,304,148232,1,4
384,144,148638,1,0
320,96,148840,1,0
240,96,149043,1,0
168,72,149246,5,4
104,224,149651,1,8
56,288,149854,1,0
120,336,150057,2,0,B|224:336|288:392,2,160,4|0|8
32,208,151273,1,0
112,192,151476,2,0,B|200:192|264:104,1,160,4|0
216,48,152084,1,0
136,32,152286,1,0
72,72,152489,5,4
152,224,152895,1,8
232,248,153097,1,0
296,200,153300,2,0,B|336:120|432:104,2,160,4|0|8
456,264,154516,1,0
376,248,154719,2,0,B|280:264|344:352|224:336,1,160,4|0
176,336,155327,1,0
96,312,155530,1,0
64,240,155732,5,4
176,112,156138,1,0
256,152,156340,1,0
336,112,156543,1,4
256,192,156949,12,0,158976
256,192,159786,5,4
256,104,165867,6,0,B|256:16,2,80,0|0|4
216,184,166476,5,0
280,232,166678,1,2
360,232,166881,1,0
336,160,167084,2,0,B|360:112|440:120,1,80,2|0
472,152,167489,1,8
496,232,167692,1,0
416,320,167895,6,0,B|368:328|328:384,1,80
264,360,168300,1,2
208,304,168503,2,0,B|112:304,2,80,0|0|0
288,280,169111,1,2
336,216,169313,1,0
288,136,169516,6,0,B|472:136,2,160,4|0|8
224,80,170530,1,0
192,152,170732,1,0
112,136,170935,1,0
88,32,171138,6,0,B|32:56|16:96,1,80,2|0
72,264,171746,2,0,B|160:256|240:320,1,160,2|0
352,352,172354,5,8
432,328,172557,1,0
448,248,172759,1,4
368,264,172962,1,0
296,304,173165,2,0,B|248:304|200:248,1,80,8|0
248,200,173570,2,0,B|344:208|384:120,1,160,2|0
336,24,174178,5,0
256,40,174381,1,0
248,120,174584,1,0
184,168,174786,1,8
104,152,174989,1,0
48,96,175192,2,0,B|-16:168|48:256,1,160,4|0
136,328,175800,5,0
216,312,176003,1,0
296,336,176205,1,0
376,320,176408,1,0
256,192,177827,12,4,179246
178,80,179651,6,4,B|255:48|339:82,1,160
416,176,180259,5,0
496,152,180462,1,2
312,320,180867,1,4
256,240,181070,5,0
176,240,181273,1,2
160,320,181476,1,0
80,344,181678,2,0,B|24:336|-8:288,1,80,4|0
104,256,182084,5,8
64,184,182286,1,0
0,232,182489,2,0,B|-40:176|-8:128,1,80,4|0
16,88,182895,1,8
96,88,183097,1,0
152,144,183300,2,4,B|168:208|232:232|312:176,1,160
448,64,184111,1,0
408,136,184313,5,2
328,120,184516,1,8
296,48,184719,1,0
216,64,184922,2,0,B|128:96,1,80
224,160,185327,2,0,B|312:192,1,80,2|0
256,288,185732,5,4
32,120,186138,6,0,B|-8:88|24:40,1,80
112,80,186543,2,0,B|176:152|112:232,1,160,2|0
40,192,187151,1,0
8,264,187354,1,0
56,328,187557,1,2
136,336,187759,1,8
208,304,187962,1,0
176,232,188165,2,0,B|224:192|288:264|336:224,1,160,0|8
344,120,188773,5,0
344,120,188976,2,0,B|240:120,1,80,4|0
192,48,189381,2,0,B|280:48,1,80
352,48,189786,1,4
488,160,190192,1,4
368,280,190597,1,0
296,232,190800,1,0
216,232,191003,1,2
144,280,191205,1,0
176,352,191408,2,2,B|256:384|352:344,1,160,2|2
256,104,192219,1,0
256,192,193030,5,4
256,344,194043,5,0
256,344,194246,1,8
152,224,194651,1,4
352,144,195057,1,4
144,64,195462,6,2,B|96:72|48:40,2,80,6|2|2
224,48,196070,1,0
208,128,196273,2,0,B|304:136|312:240,1,160,4|0
264,296,196881,1,0
192,328,197084,2,2,B|144:336|96:296,2,80,2|0|2
248,272,197692,1,0
216,200,197895,2,0,B|104:200,1,80,8|0
312,128,198300,2,4,B|200:128,1,80,4|0
108,79,198705,5,4
170,28,198908,1,0
249,23,199111,1,8
315,66,199313,1,0
272,134,199516,2,0,B|328:230|440:174,1,160,4|0
436,112,200124,1,2
489,171,200327,2,2,B|519:205|493:266,1,80
450,309,200732,1,4
256,224,201138,1,4
62,309,201543,1,8
1,257,201746,1,0
5,160,201949,5,4
53,96,202151,1,0
132,83,202354,1,0
120,160,202557,2,0,B|160:248|264:208,1,160,4|0
256,128,203165,1,8
256,128,203367,1,0
384,80,203570,5,2
456,112,203773,1,2
496,184,203976,1,0
488,264,204178,2,2,B|448:352|344:312,1,160,2|2
320,248,204786,1,8
240,236,204989,1,0
172,284,205192,5,4
342,372,205597,1,0
448,213,206003,1,8
403,26,206408,5,0
329,57,206611,1,4
169,59,207016,1,0
95,90,207219,1,4
152,248,207624,1,8
232,232,207827,1,0
296,280,208030,1,0
312,360,208232,1,0
232,376,208435,6,2,B|144:384|80:304,2,160,2|2|4
384,272,209651,1,0
416,200,209854,1,0
480,248,210057,2,2,B|512:216|488:168,2,80,2|0|2
400,264,210665,1,0
320,224,210867,2,0,B|336:176|312:120,1,80,8|0
192,80,211273,2,0,B|168:128|192:184,1,80,4|0
240,264,211678,5,0
176,320,211881,1,0
96,304,212084,1,8
48,240,212286,1,0
88,176,212489,2,0,B|192:192|224:96,1,160,4|0
232,32,213097,1,0
296,80,213300,2,0,B|368:160,1,80,2|0
248,160,213705,2,2,B|312:224,1,80
240,264,214111,1,8
296,320,214313,1,0
368,288,214516,1,4
416,352,214719,1,0
496,280,214922,6,0,B|528:224|496:176,2,80
432,216,215530,2,0,B|392:120|296:96,1,160,4|0
200,64,216138,5,0
128,104,216340,1,0
96,176,216543,2,2,B|48:184|24:136,2,80,2|2|0
176,160,217151,2,2,B|208:216|280:160|312:224,1,160
264,288,217759,1,0
320,344,217962,1,0
400,328,218165,5,4
496,162,218570,1,0
316,92,218976,1,8
160,240,219381,5,0
200,312,219584,2,0,B|160:392|64:360,1,160,4|0
16,296,220192,1,0
24,216,220395,1,0
80,160,220597,5,4
200,56,221003,1,0
280,40,221205,1,0
360,72,221408,2,0,B|432:96|480:184,2,160,4|0|8
416,224,222624,1,0
344,184,222827,2,0,B|256:160|192:232,1,160,4|0
248,288,223435,1,0
200,352,223638,1,0
96,344,223840,5,4
168,192,224246,1,0
96,224,224449,1,0
35,176,224651,2,0,B|72:96|152:72,2,160,4|0|8
136,304,225867,1,0
200,344,226070,1,4
360,344,226476,1,0
432,320,226678,1,0
464,248,226881,1,0
432,176,227084,5,4
248,168,227489,1,0
176,200,227692,1,0
133,136,227895,2,0,B|165:24|354:24|378:140,2,320,4|0|0
168,296,229922,5,4
344,296,230327,1,4
464,160,230732,1,8
412,98,230935,1,0
333,84,231138,2,0,B|317:169|210:204|132:144,1,240,4|0
80,64,231949,5,2
30,224,232354,1,2
73,291,232557,1,0
152,272,232759,2,0,B|168:357|275:392|353:332,1,240,4|0
448,272,233570,5,4
464,124,233976,1,8
402,73,234178,1,0
333,115,234381,2,0,B|255:39|192:197|113:114,1,240,4|0
32,48,235192,5,2
15,223,235597,1,2
48,296,235800,1,0
128,328,236003,2,0,B|206:252|269:410|348:327,1,240,4|0
408,248,236813,5,6
208,168,237219,1,2
320,120,237422,1,0
256,40,237624,1,6
256,192,238030,12,4,240867
