osu file format v12

[General]
AudioFilename: Er Tong Ge Qu - HuLuWa.mp3
AudioLeadIn: 0
PreviewTime: 37562
Countdown: 0
SampleSet: Soft
StackLeniency: 0.7
Mode: 1
LetterboxInBreaks: 0
WidescreenStoryboard: 0

[Editor]
Bookmarks: 45673
DistanceSpacing: 1.2
BeatDivisor: 4
GridSize: 8
TimelineZoom: 1

[Metadata]
Title:Hu Lu Wa
TitleUnicode:葫芦娃
Artist:Shang Hai Shi Shao Nian Gong He Chang Dui
ArtistUnicode:上海市少年宫合唱队
Creator:Snowy Heart
Version:Oni
Source:葫芦兄弟
Tags:Shanghaishi Shaoniangong Hechangdui Shanghaishishaoniangonghechangdui
BeatmapID:243313
BeatmapSetID:84209

[Difficulty]
HPDrainRate:5
CircleSize:5
OverallDifficulty:5
ApproachRate:5
SliderMultiplier:1.6
SliderTickRate:1

[Events]
//Background and Video events
0,0,"1023_145545_179d5017aa287ed.jpg",0,0
//Break Periods
//Storyboard Layer 0 (Background)
//Storyboard Layer 1 (Fail)
//Storyboard Layer 2 (Pass)
//Storyboard Layer 3 (Foreground)
//Storyboard Sound Samples
//Background Colour Transformations
3,100,163,162,255

[TimingPoints]
492,421.259566102647,4,2,0,90,1,0
32614,-100,4,2,0,90,0,0
37562,-100,4,1,0,40,0,1
44303,-100,4,2,0,90,0,0
75161,-100,4,2,0,90,0,0
81373,-100,4,1,0,40,0,1
87271,-100,4,2,0,90,0,0

[HitObjects]
256,216,13972,5,0,0:0:0:0:
256,216,14077,1,0,0:0:0:0:
256,216,14182,1,2,0:0:0:0:
256,216,14288,1,2,0:0:0:0:
256,216,14393,1,0,0:0:0:0:
256,216,14604,1,2,0:0:0:0:
256,216,14814,1,0,0:0:0:0:
256,216,14920,1,0,0:0:0:0:
256,216,15025,1,0,0:0:0:0:
256,216,15236,1,2,0:0:0:0:
256,216,15341,1,2,0:0:0:0:
256,216,15446,1,2,0:0:0:0:
208,104,15657,1,0,0:0:0:0:
208,104,15762,1,0,0:0:0:0:
208,104,15867,1,2,0:0:0:0:
208,104,15973,1,2,0:0:0:0:
208,104,16078,1,0,0:0:0:0:
208,104,16289,1,2,0:0:0:0:
272,136,16499,1,0,0:0:0:0:
272,136,16710,1,0,0:0:0:0:
272,136,16815,1,0,0:0:0:0:
272,136,16921,1,2,0:0:0:0:
272,136,17342,1,0,0:0:0:0:
272,136,17553,1,0,0:0:0:0:
272,136,17763,1,2,0:0:0:0:
272,136,17974,1,0,0:0:0:0:
272,136,18184,1,2,0:0:0:0:
272,136,18290,1,0,0:0:0:0:
272,136,18395,1,2,0:0:0:0:
272,136,18606,1,2,0:0:0:0:
272,136,18816,1,0,0:0:0:0:
272,136,19027,1,2,0:0:0:0:
272,136,19132,1,0,0:0:0:0:
272,136,19238,1,0,0:0:0:0:
272,136,19343,1,0,0:0:0:0:
272,136,19448,1,2,0:0:0:0:
272,136,19659,1,2,0:0:0:0:
272,136,19869,1,0,0:0:0:0:
272,136,20080,1,0,0:0:0:0:
272,136,20185,1,0,0:0:0:0:
272,136,20291,1,2,0:0:0:0:
272,136,20712,1,2,0:0:0:0:
272,136,20817,1,2,0:0:0:0:
272,136,20923,1,0,0:0:0:0:
272,136,21028,1,0,0:0:0:0:
272,136,21133,1,2,0:0:0:0:
272,136,21344,1,0,0:0:0:0:
272,136,21554,1,0,0:0:0:0:
272,136,21660,1,2,0:0:0:0:
272,136,21765,1,2,0:0:0:0:
272,136,21976,1,2,0:0:0:0:
272,136,22186,1,0,0:0:0:0:
272,136,22397,1,0,0:0:0:0:
272,136,22502,1,2,0:0:0:0:
272,136,22608,1,2,0:0:0:0:
272,136,22713,1,2,0:0:0:0:
272,136,22818,1,0,0:0:0:0:
272,136,23029,1,2,0:0:0:0:
272,136,23240,1,0,0:0:0:0:
272,136,23345,1,2,0:0:0:0:
272,136,23450,1,0,0:0:0:0:
272,136,23555,1,2,0:0:0:0:
272,136,23661,1,2,0:0:0:0:
272,136,23871,1,0,0:0:0:0:
272,136,24082,1,2,0:0:0:0:
272,136,24187,1,2,0:0:0:0:
272,136,24293,1,0,0:0:0:0:
272,136,24503,1,2,0:0:0:0:
272,136,24609,1,2,0:0:0:0:
272,136,24714,1,0,0:0:0:0:
272,136,24925,1,0,0:0:0:0:
272,136,25030,1,2,0:0:0:0:
272,136,25135,1,2,0:0:0:0:
272,136,25346,1,0,0:0:0:0:
272,136,25451,1,2,0:0:0:0:
272,136,25556,1,2,0:0:0:0:
272,136,25767,1,0,0:0:0:0:
272,136,25872,1,0,0:0:0:0:
272,136,25978,1,2,0:0:0:0:
272,136,26083,1,0,0:0:0:0:
272,136,26188,1,2,0:0:0:0:
272,136,26399,1,0,0:0:0:0:
272,136,26610,1,6,0:0:0:0:
272,136,26820,1,0,0:0:0:0:
272,136,27031,1,6,0:0:0:0:
272,136,27452,1,0,0:0:0:0:
272,136,27558,1,0,0:0:0:0:
272,136,27663,1,2,0:0:0:0:
272,136,27768,1,2,0:0:0:0:
272,136,27873,1,0,0:0:0:0:
272,136,27979,1,0,0:0:0:0:
272,136,28084,1,2,0:0:0:0:
272,136,28189,1,2,0:0:0:0:
272,136,28295,1,0,0:0:0:0:
272,136,28400,1,0,0:0:0:0:
272,136,28505,1,2,0:0:0:0:
272,136,28611,1,2,0:0:0:0:
272,136,28716,1,0,0:0:0:0:
272,136,28821,1,0,0:0:0:0:
272,136,28927,1,2,0:0:0:0:
272,136,29137,1,0,0:0:0:0:
272,136,29348,1,0,0:0:0:0:
272,136,29558,1,2,0:0:0:0:
272,136,29769,1,2,0:0:0:0:
272,136,29980,1,0,0:0:0:0:
272,136,30085,1,0,0:0:0:0:
272,136,30190,1,0,0:0:0:0:
272,136,30296,1,2,0:0:0:0:
272,136,30401,1,0,0:0:0:0:
272,136,30506,1,0,0:0:0:0:
272,136,30612,1,2,0:0:0:0:
272,136,30822,1,0,0:0:0:0:
272,136,30928,1,0,0:0:0:0:
272,136,31033,1,2,0:0:0:0:
272,136,31138,1,2,0:0:0:0:
272,136,31243,1,0,0:0:0:0:
272,136,31349,1,0,0:0:0:0:
272,136,31454,1,2,0:0:0:0:
272,136,31559,1,2,0:0:0:0:
272,136,31665,1,0,0:0:0:0:
272,136,31770,1,0,0:0:0:0:
272,136,31875,1,2,0:0:0:0:
272,136,31981,1,2,0:0:0:0:
272,136,32086,1,0,0:0:0:0:
272,136,32191,1,0,0:0:0:0:
272,136,32297,1,2,0:0:0:0:
272,136,32507,1,0,0:0:0:0:
272,136,32718,1,0,0:0:0:0:
272,136,32823,1,0,0:0:0:0:
272,136,32928,1,0,0:0:0:0:
272,136,33034,1,2,0:0:0:0:
272,136,33139,1,0,0:0:0:0:
272,136,33244,1,0,0:0:0:0:
272,136,33350,1,2,0:0:0:0:
272,136,33560,1,0,0:0:0:0:
272,136,33771,1,2,0:0:0:0:
272,136,33982,1,2,0:0:0:0:
272,136,34192,1,0,0:0:0:0:
272,136,34403,1,0,0:0:0:0:
272,136,34614,1,2,0:0:0:0:
272,136,34824,1,0,0:0:0:0:
272,136,35035,1,2,0:0:0:0:
272,136,35245,1,2,0:0:0:0:
272,136,35456,1,0,0:0:0:0:
272,136,35667,1,0,0:0:0:0:
272,136,35877,1,0,0:0:0:0:
272,136,35983,1,0,0:0:0:0:
272,136,36088,1,2,0:0:0:0:
272,136,36193,1,2,0:0:0:0:
272,136,36299,1,0,0:0:0:0:
272,136,36404,1,0,0:0:0:0:
272,136,36509,1,2,0:0:0:0:
272,136,36720,1,0,0:0:0:0:
272,136,36825,1,0,0:0:0:0:
272,136,36930,1,2,0:0:0:0:
272,136,37036,1,2,0:0:0:0:
272,136,37141,1,2,0:0:0:0:
272,136,37246,1,0,0:0:0:0:
272,136,37352,1,2,0:0:0:0:
272,136,37562,1,2,0:0:0:0:
272,136,37668,1,2,0:0:0:0:
272,136,37773,1,0,0:0:0:0:
272,136,37984,1,0,0:0:0:0:
272,136,38194,1,2,0:0:0:0:
272,136,38405,1,0,0:0:0:0:
272,136,38510,1,0,0:0:0:0:
272,136,38615,1,2,0:0:0:0:
272,136,38721,1,2,0:0:0:0:
272,136,38826,1,0,0:0:0:0:
272,136,38931,1,0,0:0:0:0:
272,136,39037,1,2,0:0:0:0:
272,136,39247,1,0,0:0:0:0:
272,136,39353,1,2,0:0:0:0:
272,136,39458,1,2,0:0:0:0:
272,136,39669,1,0,0:0:0:0:
272,136,39879,1,2,0:0:0:0:
272,136,40090,1,0,0:0:0:0:
272,136,40195,1,0,0:0:0:0:
272,136,40301,1,2,0:0:0:0:
272,136,40511,1,0,0:0:0:0:
272,136,40722,1,2,0:0:0:0:
272,136,40932,1,0,0:0:0:0:
272,136,41038,1,0,0:0:0:0:
272,136,41143,1,0,0:0:0:0:
272,136,41354,1,2,0:0:0:0:
272,136,41564,1,0,0:0:0:0:
272,136,41775,1,2,0:0:0:0:
272,136,41880,1,2,0:0:0:0:
272,136,41986,1,2,0:0:0:0:
272,136,42196,1,0,0:0:0:0:
272,136,42407,1,2,0:0:0:0:
272,136,42512,1,2,0:0:0:0:
272,136,42617,1,2,0:0:0:0:
272,136,42828,1,0,0:0:0:0:
272,136,43039,1,2,0:0:0:0:
272,136,43249,1,2,0:0:0:0:
272,136,43460,1,0,0:0:0:0:
272,136,43565,1,0,0:0:0:0:
272,136,43671,1,2,0:0:0:0:
272,136,43776,1,0,0:0:0:0:
272,136,43881,1,0,0:0:0:0:
272,136,43987,1,2,0:0:0:0:
272,136,44092,1,2,0:0:0:0:
272,136,44197,1,2,0:0:0:0:
272,136,44303,1,0,0:0:0:0:
272,136,44513,1,0,0:0:0:0:
272,136,44724,1,2,0:0:0:0:
272,136,44934,1,2,0:0:0:0:
272,136,45145,1,0,0:0:0:0:
272,136,45356,1,0,0:0:0:0:
272,136,45566,1,2,0:0:0:0:
272,136,45672,1,2,0:0:0:0:
272,136,45777,1,2,0:0:0:0:
272,136,45988,1,2,0:0:0:0:
272,136,46198,1,0,0:0:0:0:
272,136,46409,1,2,0:0:0:0:
272,136,46619,1,0,0:0:0:0:
272,136,46830,1,2,0:0:0:0:
168,96,47146,1,2,0:0:0:0:
272,136,47251,1,2,0:0:0:0:
272,136,47462,1,2,0:0:0:0:
272,136,47673,1,0,0:0:0:0:
272,136,47883,1,2,0:0:0:0:
272,136,48094,1,0,0:0:0:0:
272,136,48304,1,2,0:0:0:0:
272,136,48515,1,0,0:0:0:0:
272,136,48620,1,0,0:0:0:0:
272,136,48726,1,2,0:0:0:0:
272,136,48936,1,2,0:0:0:0:
272,136,49147,1,2,0:0:0:0:
272,136,49358,1,0,0:0:0:0:
272,136,49463,1,0,0:0:0:0:
272,136,49568,1,2,0:0:0:0:
272,136,49674,1,0,0:0:0:0:
272,136,49779,1,0,0:0:0:0:
272,136,49884,1,2,0:0:0:0:
272,136,49990,1,2,0:0:0:0:
272,136,50095,1,0,0:0:0:0:
272,136,50200,1,0,0:0:0:0:
272,136,50411,1,2,0:0:0:0:
272,136,50621,1,0,0:0:0:0:
272,136,51043,1,0,0:0:0:0:
272,136,51253,1,0,0:0:0:0:
272,136,51464,1,2,0:0:0:0:
272,136,51675,1,2,0:0:0:0:
272,136,51885,1,0,0:0:0:0:
272,136,52096,1,0,0:0:0:0:
272,136,52201,1,0,0:0:0:0:
272,136,52306,1,2,0:0:0:0:
272,136,52412,1,2,0:0:0:0:
272,136,52517,1,0,0:0:0:0:
272,136,52728,1,0,0:0:0:0:
272,136,52938,1,2,0:0:0:0:
272,136,53149,1,2,0:0:0:0:
272,136,53360,1,0,0:0:0:0:
272,136,53570,1,2,0:0:0:0:
272,136,53676,1,2,0:0:0:0:
272,136,53781,1,0,0:0:0:0:
272,136,53886,1,0,0:0:0:0:
272,136,53991,1,2,0:0:0:0:
272,136,54202,1,0,0:0:0:0:
272,136,54307,1,0,0:0:0:0:
272,136,54413,1,0,0:0:0:0:
272,136,54623,1,2,0:0:0:0:
272,136,54834,1,2,0:0:0:0:
272,136,55045,1,0,0:0:0:0:
272,136,55255,1,0,0:0:0:0:
272,136,55361,1,0,0:0:0:0:
272,136,55466,1,0,0:0:0:0:
272,136,55677,1,6,0:0:0:0:
272,136,55887,1,0,0:0:0:0:
272,136,56098,1,0,0:0:0:0:
272,136,56203,1,0,0:0:0:0:
272,136,56308,1,2,0:0:0:0:
112,88,56414,1,0,0:0:0:0:
272,136,56519,1,0,0:0:0:0:
272,136,56730,1,0,0:0:0:0:
272,136,56835,1,2,0:0:0:0:
272,136,56940,1,2,0:0:0:0:
272,136,57151,1,0,0:0:0:0:
272,136,57362,1,2,0:0:0:0:
56,112,57572,1,2,0:0:0:0:
256,216,57783,1,0,0:0:0:0:
256,216,57888,1,0,0:0:0:0:
256,216,57993,1,2,0:0:0:0:
256,216,58099,1,2,0:0:0:0:
256,216,58204,1,0,0:0:0:0:
256,216,58415,1,2,0:0:0:0:
256,216,58625,1,0,0:0:0:0:
256,216,58731,1,0,0:0:0:0:
256,216,58836,1,0,0:0:0:0:
256,216,59047,1,2,0:0:0:0:
256,216,59152,1,2,0:0:0:0:
256,216,59257,1,2,0:0:0:0:
256,216,59468,1,2,0:0:0:0:
256,216,59573,1,2,0:0:0:0:
256,216,59678,1,0,0:0:0:0:
256,216,59784,1,0,0:0:0:0:
256,216,59889,1,2,0:0:0:0:
208,104,60100,1,0,0:0:0:0:
272,136,60310,1,2,0:0:0:0:
272,136,60416,1,0,0:0:0:0:
272,136,60521,1,2,0:0:0:0:
272,136,60732,1,0,0:0:0:0:
272,136,60837,1,2,0:0:0:0:
272,136,60942,1,0,0:0:0:0:
272,136,61153,1,0,0:0:0:0:
272,136,61364,1,0,0:0:0:0:
272,136,61574,1,2,0:0:0:0:
272,136,61785,1,0,0:0:0:0:
272,136,61995,1,2,0:0:0:0:
272,136,62101,1,2,0:0:0:0:
272,136,62206,1,2,0:0:0:0:
272,136,62417,1,0,0:0:0:0:
272,136,62627,1,2,0:0:0:0:
272,136,62838,1,0,0:0:0:0:
272,136,62943,1,0,0:0:0:0:
272,136,63049,1,2,0:0:0:0:
272,136,63154,1,0,0:0:0:0:
272,136,63259,1,2,0:0:0:0:
272,136,63470,1,2,0:0:0:0:
272,136,63680,1,0,0:0:0:0:
272,136,63891,1,0,0:0:0:0:
272,136,63996,1,0,0:0:0:0:
272,136,64102,1,2,0:0:0:0:
272,136,64523,1,0,0:0:0:0:
272,136,64628,1,0,0:0:0:0:
272,136,64734,1,2,0:0:0:0:
272,136,64839,1,0,0:0:0:0:
272,136,64944,1,2,0:0:0:0:
272,136,65155,1,0,0:0:0:0:
272,136,65365,1,0,0:0:0:0:
272,136,65471,1,2,0:0:0:0:
272,136,65576,1,2,0:0:0:0:
272,136,65787,1,2,0:0:0:0:
272,136,65997,1,0,0:0:0:0:
272,136,66208,1,0,0:0:0:0:
272,136,66313,1,0,0:0:0:0:
272,136,66419,1,2,0:0:0:0:
272,136,66524,1,2,0:0:0:0:
272,136,66629,1,0,0:0:0:0:
272,136,66840,1,2,0:0:0:0:
272,136,67051,1,0,0:0:0:0:
272,136,67156,1,0,0:0:0:0:
272,136,67261,1,2,0:0:0:0:
272,136,67366,1,2,0:0:0:0:
272,136,67472,1,0,0:0:0:0:
272,136,67682,1,2,0:0:0:0:
272,136,67893,1,0,0:0:0:0:
272,136,67998,1,2,0:0:0:0:
272,136,68104,1,0,0:0:0:0:
272,136,68314,1,2,0:0:0:0:
272,136,68420,1,2,0:0:0:0:
272,136,68525,1,0,0:0:0:0:
272,136,68736,1,0,0:0:0:0:
272,136,68841,1,2,0:0:0:0:
272,136,68946,1,0,0:0:0:0:
272,136,69157,1,2,0:0:0:0:
272,136,69262,1,2,0:0:0:0:
272,136,69367,1,0,0:0:0:0:
272,136,69578,1,0,0:0:0:0:
272,136,69683,1,0,0:0:0:0:
272,136,69789,1,2,0:0:0:0:
272,136,69894,1,2,0:0:0:0:
272,136,69999,1,0,0:0:0:0:
272,136,70210,1,2,0:0:0:0:
272,136,70421,1,2,0:0:0:0:
272,136,70526,1,2,0:0:0:0:
272,136,70631,1,0,0:0:0:0:
272,136,70842,1,0,0:0:0:0:
272,136,70947,1,0,0:0:0:0:
272,136,71052,1,2,0:0:0:0:
272,136,71263,1,0,0:0:0:0:
272,136,71368,1,0,0:0:0:0:
272,136,71474,1,2,0:0:0:0:
272,136,71579,1,2,0:0:0:0:
272,136,71684,1,0,0:0:0:0:
272,136,71790,1,0,0:0:0:0:
272,136,71895,1,2,0:0:0:0:
272,136,72000,1,2,0:0:0:0:
272,136,72106,1,0,0:0:0:0:
272,136,72211,1,0,0:0:0:0:
272,136,72316,1,2,0:0:0:0:
272,136,72422,1,2,0:0:0:0:
272,136,72527,1,2,0:0:0:0:
272,136,72632,1,0,0:0:0:0:
256,112,72738,1,2,0:0:0:0:
272,136,72948,1,0,0:0:0:0:
272,136,73159,1,0,0:0:0:0:
272,136,73369,1,2,0:0:0:0:
272,136,73580,1,2,0:0:0:0:
272,136,73791,1,0,0:0:0:0:
272,136,73896,1,0,0:0:0:0:
272,136,74001,1,2,0:0:0:0:
272,136,74107,1,2,0:0:0:0:
272,136,74212,1,0,0:0:0:0:
272,136,74317,1,0,0:0:0:0:
272,136,74423,1,2,0:0:0:0:
272,136,74633,1,0,0:0:0:0:
272,136,74739,1,0,0:0:0:0:
272,136,74844,1,2,0:0:0:0:
272,136,74949,1,2,0:0:0:0:
272,136,75054,1,0,0:0:0:0:
272,136,75160,1,0,0:0:0:0:
272,136,75265,1,2,0:0:0:0:
272,136,75370,1,2,0:0:0:0:
272,136,75476,1,0,0:0:0:0:
272,136,75581,1,0,0:0:0:0:
272,136,75686,1,2,0:0:0:0:
272,136,75792,1,0,0:0:0:0:
272,136,75897,1,0,0:0:0:0:
272,136,76002,1,0,0:0:0:0:
272,136,76108,1,2,0:0:0:0:
272,136,76318,1,0,0:0:0:0:
272,136,76529,1,0,0:0:0:0:
272,136,76634,1,2,0:0:0:0:
272,136,76739,1,0,0:0:0:0:
272,136,76845,1,2,0:0:0:0:
272,136,76950,1,0,0:0:0:0:
272,136,77055,1,0,0:0:0:0:
272,136,77161,1,2,0:0:0:0:
272,136,77371,1,0,0:0:0:0:
272,136,77582,1,2,0:0:0:0:
272,136,77793,1,2,0:0:0:0:
272,136,78003,1,0,0:0:0:0:
272,136,78109,1,0,0:0:0:0:
272,136,78214,1,0,0:0:0:0:
272,136,78425,1,2,0:0:0:0:
272,136,78530,1,2,0:0:0:0:
272,136,78635,1,2,0:0:0:0:
272,136,78846,1,2,0:0:0:0:
272,136,79056,1,0,0:0:0:0:
272,136,79267,1,2,0:0:0:0:
272,136,79478,1,0,0:0:0:0:
272,136,79688,1,0,0:0:0:0:
272,136,79794,1,0,0:0:0:0:
272,136,79899,1,2,0:0:0:0:
272,136,80004,1,2,0:0:0:0:
272,136,80110,1,0,0:0:0:0:
272,136,80215,1,0,0:0:0:0:
272,136,80320,1,2,0:0:0:0:
272,136,80531,1,0,0:0:0:0:
272,136,80636,1,0,0:0:0:0:
272,136,80742,1,2,0:0:0:0:
272,136,80847,1,2,0:0:0:0:
272,136,80952,1,0,0:0:0:0:
272,136,81057,1,0,0:0:0:0:
272,136,81163,1,2,0:0:0:0:
272,136,81373,1,0,0:0:0:0:
272,136,81479,1,2,0:0:0:0:
272,136,81584,1,2,0:0:0:0:
272,136,81795,1,0,0:0:0:0:
272,136,82005,1,2,0:0:0:0:
272,136,82216,1,0,0:0:0:0:
272,136,82321,1,0,0:0:0:0:
272,136,82426,1,2,0:0:0:0:
272,136,82532,1,2,0:0:0:0:
272,136,82637,1,0,0:0:0:0:
272,136,82742,1,0,0:0:0:0:
272,136,82848,1,2,0:0:0:0:
272,136,83058,1,0,0:0:0:0:
272,136,83164,1,2,0:0:0:0:
272,136,83269,1,2,0:0:0:0:
272,136,83480,1,0,0:0:0:0:
272,136,83690,1,2,0:0:0:0:
272,136,83901,1,2,0:0:0:0:
272,136,84006,1,2,0:0:0:0:
272,136,84112,1,0,0:0:0:0:
272,136,84217,1,0,0:0:0:0:
272,136,84322,1,2,0:0:0:0:
272,136,84427,1,2,0:0:0:0:
272,136,84533,1,0,0:0:0:0:
272,136,84743,1,0,0:0:0:0:
272,136,84849,1,0,0:0:0:0:
272,136,84954,1,0,0:0:0:0:
272,136,85165,1,6,0:0:0:0:
272,136,85375,1,0,0:0:0:0:
272,136,85586,1,2,0:0:0:0:
272,136,85691,1,2,0:0:0:0:
272,136,85797,1,2,0:0:0:0:
272,136,86007,1,6,0:0:0:0:
272,136,86218,1,0,0:0:0:0:
272,136,86428,1,0,0:0:0:0:
272,136,86534,1,0,0:0:0:0:
272,136,86639,1,2,0:0:0:0:
272,136,86745,1,0,0:0:0:0:
272,136,86850,1,2,0:0:0:0:
272,136,86955,1,0,0:0:0:0:
272,136,87061,1,2,0:0:0:0:
272,136,87166,1,2,0:0:0:0:
272,136,87271,1,0,0:0:0:0:
