osu file format v14

[General]
AudioFilename: Shandy Kubota - Lonely light (fang Remix).mp3
AudioLeadIn: 0
PreviewTime: 0
Countdown: 0
SampleSet: Soft
StackLeniency: 0.7
Mode: 0
LetterboxInBreaks: 0
WidescreenStoryboard: 0

[Editor]
Bookmarks: 22068,66206,198620,308965
DistanceSpacing: 1.4
BeatDivisor: 4
GridSize: 8
TimelineZoom: 1.6

[Metadata]
Title:Lonely light (fang Remix)
TitleUnicode:Lonely light (fang Remix)
Artist:Shandy kubota
ArtistUnicode:Shandy kubota
Creator:Naitoshi
Version:Tsuki
Source:
Tags:dnb USAO electric shandybass c86 shandybass2
BeatmapID:606661
BeatmapSetID:266199

[Difficulty]
HPDrainRate:6
CircleSize:4
OverallDifficulty:8
ApproachRate:9.2
SliderMultiplier:1.4
SliderTickRate:1

[Events]
//Background and Video events
0,0,"FRIGGIN BG.jpg",0,0
//Break Periods
2,44337,53912
2,176751,186326
//Storyboard Layer 0 (Background)
//Storyboard Layer 1 (Fail)
//Storyboard Layer 2 (Pass)
//Storyboard Layer 3 (Foreground)
//Storyboard Sound Samples

[TimingPoints]
0,344.827586206897,4,2,2,60,1,0
11034,-133.333333333333,4,2,2,30,0,0
14655,-133.333333333333,4,2,2,20,0,0
14827,-133.333333333333,4,2,2,30,0,0
22068,-100,4,2,2,30,0,0
26379,-133.333333333333,4,2,2,60,0,0
26896,-200,4,2,2,60,0,0
27241,-83.3333333333333,4,2,2,60,0,0
27586,-100,4,2,2,60,0,0
32413,-100,4,2,2,40,0,0
33103,-100,4,2,2,60,0,0
37068,-100,4,2,2,40,0,0
37241,-100,4,2,2,60,0,0
38620,-86.9565217391304,4,2,2,60,0,0
38793,-100,4,2,2,60,0,0
44137,-100,4,2,2,80,0,0
55172,-133.333333333333,4,2,2,60,0,0
60689,-133.333333333333,4,2,2,70,0,0
63793,-100,4,2,2,70,0,0
64137,-83.3333333333333,4,2,2,80,0,0
64310,-71.4285714285714,4,2,2,70,0,0
64482,-66.6666666666667,4,2,2,70,0,0
64827,-133.333333333333,4,2,1,80,0,1
64913,-133.333333333333,4,2,1,80,0,0
65344,-133.333333333333,4,2,2,25,0,0
66206,-83.3333333333333,4,2,1,80,0,1
66982,-83.3333333333333,4,2,1,80,0,0
67068,-58.8235294117647,4,2,1,80,0,0
67413,-71.4285714285714,4,2,1,80,0,0
67931,-83.3333333333333,4,2,1,80,0,0
68965,-117.647058823529,4,2,1,80,0,0
69827,-58.8235294117647,4,2,1,80,0,0
70172,-71.4285714285714,4,2,1,80,0,0
70689,-83.3333333333333,4,2,1,80,0,0
71034,-66.6666666666667,4,2,1,80,0,0
71379,-117.647058823529,4,2,1,80,0,0
71724,-83.3333333333333,4,2,1,80,0,0
72586,-58.8235294117647,4,2,1,80,0,0
72931,-71.4285714285714,4,2,1,80,0,0
73448,-83.3333333333333,4,2,1,80,0,0
74482,-117.647058823529,4,2,1,80,0,0
75172,-83.3333333333333,4,2,1,80,0,0
76896,-58.8235294117647,4,2,1,80,0,0
77241,-83.3333333333333,4,2,1,80,0,0
78103,-58.8235294117647,4,2,1,80,0,0
78448,-71.4285714285714,4,2,1,80,0,0
78965,-83.3333333333333,4,2,1,80,0,0
80000,-117.647058823529,4,2,1,80,0,0
80344,-83.3333333333333,4,2,1,80,0,0
80862,-58.8235294117647,4,2,1,80,0,0
81206,-71.4285714285714,4,2,1,80,0,0
81724,-83.3333333333333,4,2,1,80,0,0
82068,-66.6666666666667,4,2,1,80,0,0
82413,-117.647058823529,4,2,1,80,0,0
82758,-83.3333333333333,4,2,1,80,0,0
83620,-58.8235294117647,4,2,1,80,0,0
83965,-71.4285714285714,4,2,1,80,0,0
84482,-83.3333333333333,4,2,1,80,0,0
88275,-83.3333333333333,4,2,1,80,0,1
89051,-83.3333333333333,4,2,1,80,0,0
89137,-58.8235294117647,4,2,1,80,0,0
89482,-71.4285714285714,4,2,1,80,0,0
90000,-83.3333333333333,4,2,1,80,0,0
91034,-117.647058823529,4,2,1,80,0,0
91896,-58.8235294117647,4,2,1,80,0,0
92241,-71.4285714285714,4,2,1,80,0,0
93103,-66.6666666666667,4,2,1,80,0,0
93448,-117.647058823529,4,2,1,80,0,0
93793,-83.3333333333333,4,2,1,80,0,0
94655,-58.8235294117647,4,2,1,80,0,0
95000,-71.4285714285714,4,2,1,80,0,0
96551,-117.647058823529,4,2,1,80,0,0
97758,-83.3333333333333,4,2,1,80,0,0
98965,-58.8235294117647,4,2,1,80,0,0
99310,-83.3333333333333,4,2,1,80,0,0
100172,-58.8235294117647,4,2,1,80,0,0
100517,-71.4285714285714,4,2,1,80,0,0
101379,-83.3333333333333,4,2,1,80,0,0
101724,-66.6666666666667,4,2,1,80,0,0
102068,-117.647058823529,4,2,1,80,0,0
102931,-58.8235294117647,4,2,1,80,0,0
103275,-71.4285714285714,4,2,1,80,0,0
103793,-83.3333333333333,4,2,1,80,0,0
104137,-66.6666666666667,4,2,1,80,0,0
104482,-117.647058823529,4,2,1,80,0,0
104827,-83.3333333333333,4,2,1,80,0,0
105689,-58.8235294117647,4,2,1,80,0,0
106034,-71.4285714285714,4,2,1,80,0,0
106551,-83.3333333333333,4,2,1,80,0,0
109310,-133.333333333333,4,2,1,45,0,0
109482,-133.333333333333,4,2,1,80,0,0
109655,-200,4,2,1,80,0,0
110000,-90.9090909090909,4,2,1,80,0,0
110344,-76.9230769230769,4,2,1,100,0,1
112413,-50,4,2,1,80,0,1
112758,-76.9230769230769,4,2,1,100,0,1
117931,-50,4,2,1,100,0,1
118275,-76.9230769230769,4,2,1,100,0,1
120603,-76.9230769230769,4,2,1,100,0,0
120689,-66.6666666666667,4,2,1,100,0,1
121293,-66.6666666666667,4,2,1,100,0,0
121379,-76.9230769230769,4,2,1,100,0,1
123448,-50,4,2,1,100,0,1
123793,-76.9230769230769,4,2,1,100,0,1
128965,-50,4,2,1,100,0,1
129310,-76.9230769230769,4,2,1,100,0,1
131637,-76.9230769230769,4,2,1,100,0,0
131724,-66.6666666666667,4,2,1,100,0,1
132327,-66.6666666666667,4,2,1,100,0,0
132413,-83.3333333333333,4,2,1,85,0,1
132500,-83.3333333333333,4,2,1,85,0,0
134482,-55.5555555555556,4,2,1,85,0,0
134827,-83.3333333333333,4,2,1,85,0,0
137586,-133.333333333333,4,2,1,85,0,0
137931,-83.3333333333333,4,2,1,85,0,0
140000,-55.5555555555556,4,2,1,85,0,0
140344,-83.3333333333333,4,2,1,85,0,0
143103,-133.333333333333,4,2,1,85,0,0
143448,-83.3333333333333,4,2,1,85,0,0
145517,-55.5555555555556,4,2,1,85,0,0
145862,-83.3333333333333,4,2,1,85,0,0
148620,-133.333333333333,4,2,1,85,0,0
148965,-83.3333333333333,4,2,1,85,0,0
151034,-55.5555555555556,4,2,1,85,0,0
151379,-83.3333333333333,4,2,1,85,0,0
153103,-58.8235294117647,4,2,1,85,0,0
153448,-55.5555555555556,4,2,1,85,0,0
153793,-100,4,2,1,85,0,0
154137,-83.3333333333333,4,2,1,85,0,0
154827,-133.333333333333,4,2,2,50,0,0
165258,-133.333333333333,4,2,2,35,0,0
165344,-133.333333333333,4,2,2,50,0,0
165431,-133.333333333333,4,2,2,35,0,0
165517,-133.333333333333,4,2,2,50,0,0
169137,-133.333333333333,4,2,2,30,0,0
169310,-133.333333333333,4,2,2,50,0,0
169655,-133.333333333333,4,2,2,40,0,0
172758,-133.333333333333,4,2,2,55,0,0
173793,-133.333333333333,4,2,2,60,0,0
174482,-133.333333333333,4,2,2,65,0,0
176551,-133.333333333333,4,2,2,80,0,0
186896,-133.333333333333,4,2,2,70,0,0
196551,-83.3333333333333,4,2,2,80,0,0
196724,-71.4285714285714,4,2,2,80,0,0
196896,-66.6666666666667,4,2,1,80,0,0
197241,-133.333333333333,4,2,1,80,0,1
197327,-133.333333333333,4,2,1,80,0,0
197758,-133.333333333333,4,2,1,25,0,0
198620,-83.3333333333333,4,2,1,80,0,1
199396,-83.3333333333333,4,2,1,80,0,0
199482,-58.8235294117647,4,2,1,80,0,0
199827,-71.4285714285714,4,2,1,80,0,0
200344,-83.3333333333333,4,2,1,80,0,0
201379,-117.647058823529,4,2,1,80,0,0
202241,-58.8235294117647,4,2,1,80,0,0
202586,-71.4285714285714,4,2,1,80,0,0
203103,-83.3333333333333,4,2,1,80,0,0
203448,-66.6666666666667,4,2,1,80,0,0
203793,-117.647058823529,4,2,1,80,0,0
204137,-83.3333333333333,4,2,1,80,0,0
205000,-58.8235294117647,4,2,1,80,0,0
205344,-71.4285714285714,4,2,1,80,0,0
205862,-83.3333333333333,4,2,1,80,0,0
206896,-117.647058823529,4,2,1,80,0,0
207586,-83.3333333333333,4,2,1,80,0,0
209310,-58.8235294117647,4,2,1,80,0,0
209655,-83.3333333333333,4,2,1,80,0,0
210517,-58.8235294117647,4,2,1,80,0,0
210862,-71.4285714285714,4,2,1,80,0,0
211379,-83.3333333333333,4,2,1,80,0,0
212413,-117.647058823529,4,2,1,80,0,0
212758,-83.3333333333333,4,2,1,80,0,0
213275,-58.8235294117647,4,2,1,80,0,0
213620,-71.4285714285714,4,2,1,80,0,0
214137,-83.3333333333333,4,2,1,80,0,0
214482,-66.6666666666667,4,2,1,80,0,0
214827,-117.647058823529,4,2,1,80,0,0
215172,-83.3333333333333,4,2,1,80,0,0
216034,-58.8235294117647,4,2,1,80,0,0
216379,-71.4285714285714,4,2,1,80,0,0
216896,-83.3333333333333,4,2,1,80,0,0
220689,-83.3333333333333,4,2,1,80,0,1
221465,-83.3333333333333,4,2,1,80,0,0
221551,-58.8235294117647,4,2,1,80,0,0
221896,-71.4285714285714,4,2,1,80,0,0
222413,-83.3333333333333,4,2,1,80,0,0
223448,-117.647058823529,4,2,1,80,0,0
224310,-58.8235294117647,4,2,1,80,0,0
224655,-71.4285714285714,4,2,1,80,0,0
225517,-66.6666666666667,4,2,1,80,0,0
225862,-117.647058823529,4,2,1,80,0,0
226206,-83.3333333333333,4,2,1,80,0,0
227068,-58.8235294117647,4,2,1,80,0,0
227413,-71.4285714285714,4,2,1,80,0,0
228965,-117.647058823529,4,2,1,80,0,0
230172,-83.3333333333333,4,2,1,80,0,0
231379,-52.6315789473684,4,2,1,80,0,0
231724,-83.3333333333333,4,2,1,80,0,0
232586,-58.8235294117647,4,2,1,80,0,0
232931,-71.4285714285714,4,2,1,80,0,0
233793,-83.3333333333333,4,2,1,80,0,0
234137,-66.6666666666667,4,2,1,80,0,0
234482,-117.647058823529,4,2,1,80,0,0
235344,-58.8235294117647,4,2,1,80,0,0
235689,-71.4285714285714,4,2,1,80,0,0
236206,-83.3333333333333,4,2,1,80,0,0
236551,-66.6666666666667,4,2,1,80,0,0
236896,-117.647058823529,4,2,1,80,0,0
237241,-83.3333333333333,4,2,1,80,0,0
238103,-58.8235294117647,4,2,1,80,0,0
238448,-71.4285714285714,4,2,1,80,0,0
238965,-83.3333333333333,4,2,1,80,0,0
241724,-133.333333333333,4,2,1,45,0,0
241896,-133.333333333333,4,2,1,80,0,0
242069,-200,4,2,1,80,0,0
242413,-90.9090909090909,4,2,1,80,0,0
242758,-76.9230769230769,4,2,1,100,0,1
244827,-50,4,2,1,80,0,1
245172,-76.9230769230769,4,2,1,100,0,1
250344,-50,4,2,1,100,0,1
250689,-76.9230769230769,4,2,1,100,0,1
253017,-76.9230769230769,4,2,1,100,0,0
253103,-66.6666666666667,4,2,1,100,0,1
253706,-66.6666666666667,4,2,1,100,0,0
253793,-76.9230769230769,4,2,1,100,0,1
255862,-50,4,2,1,100,0,1
256206,-76.9230769230769,4,2,1,100,0,1
261379,-50,4,2,1,100,0,1
261724,-76.9230769230769,4,2,1,100,0,1
264051,-76.9230769230769,4,2,1,100,0,0
264137,-66.6666666666667,4,2,1,100,0,1
264741,-66.6666666666667,4,2,1,100,0,0
264827,-83.3333333333333,4,2,1,85,0,1
264913,-83.3333333333333,4,2,1,85,0,0
266896,-55.5555555555556,4,2,1,85,0,0
267241,-83.3333333333333,4,2,1,85,0,0
270000,-133.333333333333,4,2,1,85,0,0
270344,-83.3333333333333,4,2,1,85,0,0
272413,-55.5555555555556,4,2,1,85,0,0
272758,-83.3333333333333,4,2,1,85,0,0
275517,-133.333333333333,4,2,1,85,0,0
275862,-83.3333333333333,4,2,1,85,0,0
277931,-55.5555555555556,4,2,1,85,0,0
278275,-83.3333333333333,4,2,1,85,0,0
281034,-133.333333333333,4,2,1,85,0,0
281379,-83.3333333333333,4,2,1,85,0,0
283448,-55.5555555555556,4,2,1,85,0,0
283793,-83.3333333333333,4,2,1,85,0,0
285517,-58.8235294117647,4,2,1,85,0,0
285862,-55.5555555555556,4,2,1,85,0,0
286034,-55.5555555555556,4,2,1,95,0,0
286206,-100,4,2,1,85,0,0
286551,-83.3333333333333,4,2,1,85,0,0
286896,-100,4,2,1,75,0,0
291637,-50,4,2,1,75,0,0
291724,-50,4,2,1,55,0,0
291810,-50,4,2,1,75,0,0
292068,-147.058823529412,4,2,1,75,0,0
292413,-100,4,2,1,75,0,0
297155,-50,4,2,1,75,0,0
297241,-50,4,2,1,55,0,0
297327,-50,4,2,1,75,0,0
297586,-147.058823529412,4,2,1,75,0,0
297931,-100,4,2,1,60,0,0
303103,-147.058823529412,4,2,1,60,0,0
303448,-100,4,2,1,60,0,0
307931,-76.9230769230769,4,2,1,60,0,0
308275,-90.9090909090909,4,2,1,60,0,0
308620,-83.3333333333333,4,2,1,40,0,0
308965,-100,4,2,1,60,0,0
313706,-50,4,2,1,60,0,0
314137,-147.058823529412,4,2,1,60,0,0
314482,-100,4,2,1,60,0,0
319310,-100,4,2,2,60,0,0
319913,-100,4,2,2,75,0,0
320000,-100,4,2,1,60,0,0
325172,-147.058823529412,4,2,1,60,0,0
325517,-100,4,2,1,60,0,0
329310,-147.058823529412,4,2,1,60,0,0
329655,-100,4,2,2,60,0,0
330000,-100,4,2,1,60,0,0
330086,-100,4,2,2,40,0,0
330344,-100,4,2,1,40,0,0
330517,-133.333333333333,4,2,2,40,0,0

[Colours]
Combo1 : 255,94,55
Combo2 : 173,255,95
Combo3 : 17,254,176
Combo4 : 255,88,100

[HitObjects]
352,237,11034,5,2,1:2:0:0:
352,237,11379,2,0,P|344:194|344:165,1,52.5000020027161,0|0,0:0|0:0,0:0:0:0:
462,140,11723,2,0,P|429:168|404:182,1,52.5000020027161,0|0,0:0|0:0,0:0:0:0:
323,93,12068,2,0,P|365:107|390:122,1,52.5000020027161,0|0,0:0|0:0,0:0:0:0:
229,121,12413,5,2,0:0:0:0:
229,121,12758,2,0,L|225:191,1,52.5000020027161
140,137,13103,2,0,L|92:188,1,52.5000020027161
66,90,13448,2,0,L|-3:98,1,52.5000020027161
209,30,13792,5,2,0:0:0:0:
209,30,14137,2,0,P|243:32|280:42,1,52.5000020027161
343,89,14482,2,0,P|351:131|351:164,1,52.5000020027161,0|0,0:0|1:0,0:0:0:0:
284,235,14827,2,0,P|241:236|208:231,1,52.5000020027161
87,153,15172,6,0,P|99:197|105:261,1,105.000004005432,2|0,1:2|0:0,0:0:0:0:
104,256,15861,1,2,0:0:0:0:
188,357,16034,2,0,P|226:358|253:352,1,52.5000020027161,0|0,1:0|0:0,0:0:0:0:
406,243,16551,6,0,L|409:117,1,105.000004005432,2|0,1:2|0:0,0:0:0:0:
409,138,17241,2,0,L|353:139,1,52.5000020027161,8|0,0:0|1:0,0:0:0:0:
241,230,17585,2,0,L|297:229,1,52.5000020027161,8|0,0:0|0:0,0:0:0:0:
301,233,17844,1,0,0:0:0:0:
307,239,17930,6,0,P|304:290|293:359,1,105.000004005432,2|8,1:2|0:0,0:0:0:0:
297,343,18620,1,8,0:0:0:0:
238,234,18792,2,0,P|241:183|252:114,1,105.000004005432,0|8,1:0|0:0,0:0:0:0:
327,36,19310,6,0,P|327:68|321:107,1,52.5000020027161,2|0,1:2|0:0,0:0:0:0:
392,198,19654,2,0,P|392:166|398:127,1,52.5000020027161,8|2,0:0|0:0,0:0:0:0:
469,249,19999,1,0,0:0:0:0:
457,265,20085,1,0,0:0:0:0:
441,278,20172,1,0,1:0:0:0:
422,287,20257,1,0,0:0:0:0:
401,292,20344,1,8,0:0:0:0:
257,296,20517,1,2,0:3:0:0:
141,187,20689,1,2,1:2:0:0:
256,192,20775,12,0,21896,0:0:0:0:
116,222,22068,21,4,1:0:0:0:
131,329,22241,2,0,L|205:320,1,70,0|8,0:0|0:0,0:0:0:0:
325,239,22586,2,0,L|250:247,1,70
411,171,22931,2,0,P|413:211|426:266,1,70,0|8,1:0|0:0,0:0:0:0:
471,313,23275,1,0,0:0:0:0:
318,308,23448,6,0,P|323:273|325:238,1,70,0|0,1:0|0:0,0:0:0:0:
284,151,23793,1,8,0:0:0:0:
116,223,23965,2,0,L|184:208,1,70,0|8,0:0|0:0,0:0:0:0:
70,29,24310,2,0,P|59:71|54:182,1,140,0|8,1:0|0:0,0:0:0:0:
170,66,24827,5,0,1:0:0:0:
284,151,25000,2,0,P|320:153|373:151,1,70,0|8,0:0|0:0,0:0:0:0:
313,255,25344,2,0,P|282:271|250:284,1,70
458,340,25689,2,0,P|436:309|417:262,1,70,0|8,1:0|0:0,0:0:0:0:
442,184,26034,1,0,0:0:0:0:
218,205,26206,1,0,1:0:0:0:
424,81,26379,6,0,P|438:132|442:184,1,105.000004005432,2|0,0:0|0:0,0:0:0:0:
179,240,26896,6,0,P|201:217|225:201,1,52.5,12|0,0:0|0:0,3:0:0:0:
218,205,27241,6,0,L|176:184,1,41.9999987182618
294,194,27413,2,0,L|336:215,1,41.9999987182618,8|0,0:0|0:0,0:0:0:0:
276,346,27586,6,0,P|217:340|129:310,1,140,0|8,1:0|0:0,0:0:0:0:
343,308,28103,2,0,P|392:291|413:277,1,70
179,240,28448,2,0,P|137:208|122:188,1,70,0|8,1:0|0:0,0:0:0:0:
112,97,28793,1,2,0:0:0:0:
55,221,28965,6,0,L|20:289,1,70,0|0,1:0|0:0,0:0:0:0:
25,118,29310,1,8,0:0:0:0:
179,157,29482,2,0,L|263:179,1,70,0|8,0:0|0:0,0:0:0:0:
398,213,29827,1,0,1:0:0:0:
435,91,30000,1,2,0:0:0:0:
438,84,30086,1,0,0:0:0:0:
441,77,30172,1,8,0:0:0:0:
301,229,30344,6,0,P|282:294|272:374,1,140,0|8,1:0|0:0,0:0:0:0:
272,365,30862,1,0,0:0:0:0:
431,318,31034,1,2,0:0:0:0:
418,308,31120,1,0,0:0:0:0:
406,315,31206,1,0,1:0:0:0:
409,330,31293,1,0,0:0:0:0:
424,331,31379,1,8,0:0:0:0:
474,173,31551,1,0,0:0:0:0:
290,158,31724,6,0,L|189:148,1,70,4|8,1:2|0:0,0:0:0:0:
220,151,32413,1,8,0:0:0:0:
216,164,32500,1,8,0:0:0:0:
214,177,32586,1,8,0:0:0:0:
213,190,32672,1,8,0:0:0:0:
213,203,32758,1,8,0:0:0:0:
214,216,32844,1,8,0:0:0:0:
215,229,32931,1,8,0:0:0:0:
217,242,33017,1,8,0:0:0:0:
221,255,33103,6,0,P|292:256|370:246,1,140,4|8,1:0|0:0,0:0:0:0:
512,320,33620,2,0,P|441:319|363:329,1,140,0|0,1:0|1:0,0:0:0:0:
266,377,34137,1,8,0:0:0:0:
296,159,34310,1,2,0:0:0:0:
86,224,34482,6,0,P|146:246|227:255,1,140,0|8,1:0|0:0,0:0:0:0:
296,159,35000,2,0,P|247:151|198:151,2,70,0|8|0,0:0|0:0|1:0,0:0:0:0:
142,154,35517,1,2,0:0:0:0:
381,178,35689,1,8,0:0:0:0:
206,65,35862,6,0,P|280:71|372:93,1,140,0|8,1:0|0:0,0:0:0:0:
168,218,36379,2,0,P|152:184|138:139,1,70,0|0,0:0|0:0,0:0:0:0:
282,272,36724,1,0,1:0:0:0:
98,326,36896,2,0,P|69:302|38:266,1,70,10|4,0:0|0:0,0:0:0:0:
282,272,37241,6,0,P|277:318|259:358,1,70,0|0,1:0|0:0,0:0:0:0:
166,161,37586,1,8,0:0:0:0:
282,272,37758,1,0,0:0:0:0:
280,133,37931,1,8,0:0:0:0:
168,300,38103,1,0,0:0:0:0:
168,300,38189,2,0,L|112:240,1,70,2|0,0:0|0:0,0:0:0:0:
89,216,38448,2,0,L|66:190,1,35,12|0,0:0|0:0,0:0:0:0:
10,238,38620,6,0,P|8:268|17:313,1,40.2500007677078,0|0,1:0|0:0,0:0:0:0:
111,134,38793,2,0,P|110:92|99:44,1,70,0|8,1:0|0:0,0:0:0:0:
198,226,39137,2,0,L|281:226,1,70
432,166,39482,2,0,L|349:166,1,70,0|8,1:0|0:0,0:0:0:0:
424,343,39827,1,2,0:0:0:0:
290,238,40000,6,0,P|272:288|272:388,1,140,0|8,1:0|0:0,0:0:0:0:
184,157,40517,2,0,L|197:225,1,70,0|8,0:0|0:0,0:0:0:0:
287,66,40862,2,0,L|279:146,1,70,0|2,1:0|0:0,0:0:0:0:
172,42,41206,1,8,0:0:0:0:
197,225,41379,6,0,P|148:218|105:200,1,70,0|0,1:0|0:0,0:0:0:0:
66,134,41724,1,8,0:0:0:0:
41,283,41896,2,0,L|25:365,1,70
189,305,42241,2,0,L|107:293,1,70,0|8,1:0|0:0,0:0:0:0:
279,360,42586,1,2,0:0:0:0:
384,205,42758,5,0,1:0:0:0:
392,178,42844,1,0,0:0:0:0:
389,149,42931,1,2,0:0:0:0:
373,126,43017,1,0,0:0:0:0:
344,113,43103,1,8,0:0:0:0:
309,119,43189,5,8,0:0:0:0:
272,139,43275,1,8,0:0:0:0:
226,143,43362,5,8,0:0:0:0:
178,121,43448,1,4,0:0:0:0:
244,13,43620,5,0,3:0:0:0:
304,212,43793,2,0,L|286:225,6,17.5,0|0|0|0|2|0|0,0:0|0:0|0:0|0:0|0:0|0:0|0:0,0:0:0:0:
178,121,44137,1,4,1:0:0:0:
61,306,54482,5,12,0:0:0:0:
67,311,54568,1,0,0:0:0:0:
73,316,54655,1,0,0:0:0:0:
79,321,54741,1,0,0:0:0:0:
103,321,54827,1,0,0:0:0:0:
127,321,54913,1,10,0:0:0:0:
151,321,55000,1,0,0:0:0:0:
175,321,55086,1,10,0:0:0:0:
199,321,55172,6,0,P|207:278|207:249,1,52.5000020027161,4|0,1:0|0:0,0:0:0:0:
154,186,55517,2,0,P|137:226|132:255,1,52.5000020027161,0|0,0:0|0:0,0:0:0:0:
282,261,55862,2,0,P|264:204|223:153,1,105.000004005432
238,167,56379,1,0,0:0:0:0:
358,187,56551,2,0,L|428:177,1,52.5000020027161,2|0,0:0|0:0,0:0:0:0:
223,164,56896,2,0,L|171:156,1,52.5000020027161
30,225,57241,1,2,0:0:0:0:
81,306,57413,1,0,0:0:0:0:
60,128,57586,1,0,0:0:0:0:
111,209,57758,1,2,0:0:0:0:
90,31,57931,6,0,P|61:26|27:31,1,52.5000020027161,4|0,1:0|0:0,0:0:0:0:
141,112,58275,2,0,P|159:89|172:57,1,52.5000020027161
247,221,58620,2,0,P|241:181|242:109,1,105.000004005432,2|0,0:0|0:0,0:0:0:0:
241,116,59137,1,0,0:0:0:0:
259,230,59310,2,0,L|170:233,1,78.7500030040742,0|0,1:0|0:0,0:0:0:0:
156,248,59655,2,0,L|154:322,1,52.5000020027161,0|2,0:0|0:0,0:0:0:0:
258,366,60000,2,0,L|263:305,1,52.5000020027161,2|0,0:0|0:0,0:0:0:0:
360,248,60344,2,0,L|364:317,1,52.5000020027161,0|2,0:0|0:0,0:0:0:0:
241,116,60689,5,4,1:0:0:0:
241,116,61379,1,4,1:0:0:0:
241,116,62068,1,4,1:0:0:0:
241,116,62758,1,4,1:0:0:0:
241,116,63448,6,0,L|152:129,1,78.7500030040742,4|0,1:0|0:0,0:0:0:0:
151,147,63793,6,0,L|137:268,1,105,4|0,1:0|0:0,0:0:0:0:
112,275,64137,6,0,L|54:275,1,41.9999987182618,6|0,1:0|0:0,0:0:0:0:
272,251,64310,6,0,L|214:251,1,48.9999985046387,6|0,0:0|0:0,0:0:0:0:
386,191,64482,6,0,L|390:234,1,35.0000013351441,4|0,1:0|0:0,0:0:0:0:
353,146,64597,2,0,L|356:180,1,35.0000013351441,6|0,0:0|0:0,0:0:0:0:
320,101,64712,2,0,L|323:135,1,35.0000013351441,6|0,0:0|0:0,0:0:0:0:
309,340,64827,6,2,B|298:349|284:354|284:354|278:341|260:358|260:358|213:341|184:335|152:349,1,157.500006008148,6|0,1:0|0:0,0:0:0:0:
163,344,66206,6,0,P|180:271|157:165,1,167.999994873047,6|8,1:0|0:0,0:0:0:0:
141,355,66724,1,0,0:0:0:0:
424,283,66896,1,0,0:0:0:0:
424,283,66982,1,0,0:0:0:0:
424,283,67068,6,2,B|384:294|384:294|367:285|289:303|366:263|295:275|279:270|279:270|230:291,1,178.500003404617,4|0,1:0|0:0,1:0:0:0:
373,217,67413,2,0,P|371:161|261:97,1,195.999994018555,12|0,0:0|1:0,0:0:0:0:
443,129,67931,2,0,P|448:86|472:34,1,83.9999974365235,8|0,0:0|0:0,0:0:0:0:
281,192,68275,1,2,0:0:0:0:
242,186,68362,1,0,0:0:0:0:
204,195,68448,1,0,1:0:0:0:
166,189,68534,1,0,0:0:0:0:
98,213,68620,2,0,L|81:257,1,41.9999987182618,8|0,0:0|0:0,0:0:0:0:
48,145,68793,2,0,L|31:189,1,41.9999987182618,0|2,0:0|0:0,0:0:0:0:
11,349,68965,6,0,B|56:364|92:331|140:354,1,119.000002269745,0|8,1:0|0:0,0:0:0:0:
128,349,69482,1,0,0:0:0:0:
281,192,69655,1,2,0:0:0:0:
281,192,69741,1,0,0:0:0:0:
281,192,69827,6,2,B|235:187|235:187|208:213|176:176|152:204|152:204|94:197,1,178.500003404617,4|0,1:0|0:0,1:0:0:0:
167,367,70172,2,0,P|207:281|167:194,1,195.999994018555,12|2,0:0|1:2,0:0:0:0:
404,369,70689,2,0,P|453:362|490:340,1,83.9999974365235,8|0,0:0|0:0,0:0:0:0:
281,279,71034,6,0,L|334:316,1,52.5000020027161,0|0,1:0|0:0,0:0:0:0:
324,161,71206,2,0,L|281:192,1,52.5000020027161,0|0,1:0|0:0,0:0:0:0:
470,236,71379,6,2,L|355:236,1,89.2500017023087,12|0,0:2|0:0,1:0:0:0:
343,236,71724,6,0,B|402:236|402:236|451:249|451:249|496:233|508:242,1,167.999994873047,4|8,1:0|0:0,0:0:0:0:
349,376,72241,1,2,0:0:0:0:
204,230,72413,2,0,P|179:226|139:225,1,41.9999987182618
81,152,72586,6,2,B|118:145|118:145|124:158|124:158|187:146|232:158|267:171,1,178.500003404617,4|0,1:0|0:0,1:0:0:0:
334,115,72931,2,0,P|240:88|143:80,1,195.999994018555,12|0,0:0|1:0,0:0:0:0:
171,337,73448,6,0,P|231:339|258:335,1,83.9999974365235,8|0,0:0|0:0,0:0:0:0:
431,353,73793,2,0,P|387:311|372:289,1,83.9999974365235,4|0,0:0|1:0,0:0:0:0:
336,132,74137,1,8,0:0:0:0:
334,115,74224,1,2,0:0:0:0:
332,98,74310,1,0,1:2:0:0:
184,220,74482,6,0,B|163:273|194:289|170:338,1,119.000002269745,4|8,1:0|0:0,0:0:0:0:
154,339,75172,1,2,0:0:0:0:
137,341,75258,1,0,0:0:0:0:
120,343,75343,1,0,1:0:0:0:
278,360,75517,1,0,1:0:0:0:
348,232,75689,6,0,P|345:184|326:128,1,83.9999974365235,8|0,0:0|0:0,0:0:0:0:
200,77,76034,1,0,1:0:0:0:
270,205,76206,2,0,P|267:253|248:309,1,83.9999974365235,8|0,0:0|0:0,0:0:0:0:
120,343,76551,1,2,0:0:0:0:
103,345,76638,1,0,0:0:0:0:
86,347,76723,1,0,1:0:0:0:
194,223,76896,6,0,B|186:160|124:69|74:129|101:123|114:138,1,178.500003404617,12|0,0:0|0:0,0:0:0:0:
138,148,77241,6,0,B|194:166|249:128|304:147,1,167.999994873047,4|8,1:0|0:0,0:0:0:0:
118,134,77758,1,0,0:0:0:0:
120,343,77931,1,0,0:0:0:0:
120,343,78017,1,0,0:0:0:0:
120,343,78103,6,2,B|75:294|90:209|90:209|72:251,1,178.500003404617,4|0,1:0|0:0,1:0:0:0:
294,321,78448,2,0,P|197:308|171:224,1,195.999994018555,12|0,0:0|1:0,0:0:0:0:
274,247,78965,2,0,P|244:251|267:226,1,83.9999974365235,8|0,0:0|0:0,0:0:0:0:
408,324,79310,1,2,0:0:0:0:
403,286,79396,1,0,0:0:0:0:
413,248,79482,1,0,1:0:0:0:
408,210,79568,1,0,0:0:0:0:
347,167,79655,2,0,L|299:153,1,41.9999987182618,8|0,0:0|0:0,0:0:0:0:
431,100,79827,2,0,L|479:67,1,41.9999987182618,0|2,0:0|0:0,0:0:0:0:
283,149,80000,6,0,B|232:167|213:141|163:157,1,119.000002269745,0|8,1:0|0:0,0:0:0:0:
165,156,80517,1,0,0:0:0:0:
120,343,80689,1,2,0:0:0:0:
120,343,80775,1,0,0:0:0:0:
120,343,80862,6,2,B|196:318|192:295|246:311|246:311|296:343,1,178.500003404617,4|0,1:0|0:0,1:0:0:0:
400,326,81206,2,0,B|272:244|272:244|272:225|260:200,1,195.999994018555,12|0,0:0|0:0,0:0:0:0:
130,230,81724,2,0,P|157:188|165:132,1,83.9999974365235,8|0,0:0|0:0,0:0:0:0:
4,82,82068,6,0,L|62:83,1,52.5000020027161,0|0,1:0|0:0,0:0:0:0:
185,134,82241,2,0,L|243:135,1,52.5000020027161,0|0,1:0|0:0,0:0:0:0:
366,186,82413,6,2,L|458:187,1,89.2500017023087,12|0,0:2|0:0,1:0:0:0:
493,189,82758,6,0,B|445:181|445:181|403:198|403:198|370:186|370:186|319:184|319:184,1,167.999994873047,4|8,1:0|0:0,0:0:0:0:
130,230,83275,1,2,0:0:0:0:
273,60,83448,1,0,0:0:0:0:
273,60,83534,1,0,0:0:0:0:
273,60,83620,6,2,B|211:93|218:161|218:161|264:234|213:245,1,178.500003404617,4|0,1:0|0:0,1:0:0:0:
347,328,83965,2,0,P|336:257|292:135,1,195.999994018555,12|0,0:0|0:0,0:0:0:0:
27,161,84482,1,8,0:0:0:0:
73,317,84655,1,2,0:0:0:0:
230,289,84827,1,0,0:0:0:0:
185,134,85000,1,0,1:0:0:0:
73,317,85172,1,2,0:0:0:0:
63,331,85258,1,0,0:0:0:0:
54,345,85344,1,8,1:2:0:0:
371,331,85517,6,0,P|318:306|201:282,1,167.999994873047,4|8,1:0|0:0,0:0:0:0:
45,359,86034,1,0,0:0:0:0:
212,283,86206,1,2,1:3:0:0:
45,222,86379,2,0,L|49:158,1,41.9999987182618,2|0,0:0|0:0,0:0:0:0:
278,156,86551,2,0,P|218:156|145:133,1,125.999996154785,12|0,0:0|0:0,0:0:0:0:
135,106,86896,6,0,L|128:211,1,83.9999974365235,8|0,1:2|0:0,0:0:0:0:
119,354,87241,1,2,1:2:0:0:
348,287,87413,2,0,L|284:283,1,41.9999987182618,12|0,1:2|0:0,0:0:0:0:
136,277,87586,1,0,0:0:0:0:
111,275,87672,1,0,0:0:0:0:
87,273,87758,1,2,1:2:0:0:
306,285,87931,2,0,L|411:291,1,83.9999974365235,12|0,1:2|0:0,0:0:0:0:
161,132,88275,6,0,P|185:211|233:280,1,167.999994873047,4|8,1:0|0:0,0:0:0:0:
167,108,88793,1,0,0:0:0:0:
87,273,88965,1,0,0:0:0:0:
87,273,89051,1,0,0:0:0:0:
87,273,89137,6,6,B|104:228|85:197|85:197|94:171|94:171|73:138|93:94,1,178.500003404617,4|0,1:0|0:0,1:0:0:0:
158,344,89482,2,4,P|112:260|21:235,1,195.999994018555,12|4,0:0|1:0,0:0:0:0:
242,307,90000,2,0,L|235:213,1,83.9999974365235,8|0,0:0|0:0,0:0:0:0:
199,34,90344,2,0,L|217:80,1,41.9999987182618,2|0,0:0|0:0,0:0:0:0:
171,175,90517,2,0,L|153:129,1,41.9999987182618,0|0,1:0|0:0,0:0:0:0:
294,91,90689,1,8,0:0:0:0:
304,129,90775,1,0,0:0:0:0:
326,155,90862,1,0,0:0:0:0:
336,194,90948,1,2,0:0:0:0:
354,224,91034,6,0,B|305:218|270:244|223:217,1,119.000002269745,0|8,1:0|0:0,0:0:0:0:
236,223,91551,1,0,0:0:0:0:
398,342,91724,1,2,0:0:0:0:
398,342,91810,1,0,0:0:0:0:
398,342,91896,6,2,B|341:342|341:342|274:353|274:353|186:353,1,178.500003404617,4|0,1:0|0:0,1:0:0:0:
41,234,92241,2,0,B|109:234|109:234|165:223|165:223|253:223,1,195.999994018555,12|2,0:0|1:2,0:0:0:0:
42,332,92758,2,0,L|41:233,1,97.9999970092774,8|0,0:0|0:0,0:0:0:0:
236,223,93103,6,0,L|174:224,1,52.5000020027161,0|0,1:0|0:0,0:0:0:0:
273,353,93275,2,0,L|210:353,1,52.5000020027161,0|0,1:0|0:0,0:0:0:0:
358,235,93448,6,2,L|356:136,1,89.2500017023087,12|0,0:2|0:0,1:0:0:0:
356,108,93793,6,0,B|356:176|356:176|372:214|372:214|360:241|370:297,1,167.999994873047,4|8,1:0|0:0,0:0:0:0:
455,69,94310,1,2,0:0:0:0:
471,319,94482,1,0,0:0:0:0:
471,319,94568,1,0,0:0:0:0:
471,319,94655,6,2,B|468:246|468:246|480:211|480:211|454:158|468:135,1,178.500003404617,4|0,1:0|0:0,1:0:0:0:
284,202,95000,2,0,P|367:214|483:210,1,195.999994018555,12|0,0:0|1:0,0:0:0:0:
172,220,95517,2,0,P|122:178|99:137,1,97.9999970092774,8|0,0:0|0:0,0:0:0:0:
312,109,95862,2,0,P|300:173|276:213,1,97.9999970092774,4|0,0:0|1:0,0:0:0:0:
123,275,96206,1,8,0:0:0:0:
104,281,96293,1,2,0:0:0:0:
85,287,96379,1,0,1:0:0:0:
286,293,96551,6,0,B|334:310|364:277|422:299,1,119.000002269745,4|8,1:0|0:0,0:0:0:0:
415,297,97241,1,2,0:0:0:0:
434,303,97328,1,0,0:0:0:0:
453,309,97414,1,0,1:0:0:0:
245,366,97586,1,0,1:0:0:0:
172,220,97758,6,0,P|171:166|180:126,1,83.9999974365235,8|0,0:0|0:0,0:0:0:0:
301,54,98103,1,0,1:0:0:0:
263,213,98275,2,0,P|274:265|291:302,1,83.9999974365235,8|0,0:0|0:0,0:0:0:0:
410,124,98620,1,2,0:0:0:0:
416,105,98707,1,0,0:0:0:0:
422,86,98793,1,0,1:0:0:0:
263,213,98965,6,0,B|216:222|216:222|165:221|165:221|143:200|56:189|97:254,1,178.500003404617,12|0,0:0|0:0,0:0:0:0:
194,145,99310,6,0,B|254:118|263:49|319:36,1,167.999994873047,4|8,1:0|0:0,0:0:0:0:
170,143,99827,1,0,0:0:0:0:
429,222,100000,1,0,0:0:0:0:
434,226,100086,1,0,0:0:0:0:
439,230,100172,6,2,B|386:231|287:189|246:222,1,178.500003404617,4|0,1:0|0:0,1:0:0:0:
355,292,100517,2,0,P|339:199|403:131,1,195.999994018555,12|0,0:0|1:0,0:0:0:0:
262,213,101034,2,0,P|269:287|299:342,1,97.9999970092774,8|0,0:0|0:0,0:0:0:0:
404,130,101379,2,0,L|342:129,1,41.9999987182618,2|0,0:0|0:0,0:0:0:0:
170,143,101551,2,0,L|232:144,1,41.9999987182618,0|0,1:0|0:0,0:0:0:0:
255,265,101724,6,0,P|262:226|260:201,1,52.5000020027161,8|0,0:0|0:0,0:0:0:0:
67,195,101896,2,0,P|60:234|62:259,1,52.5000020027161,0|2,0:0|0:0,0:0:0:0:
111,360,102068,6,0,B|156:385|194:345|254:378,1,119.000002269745,0|8,1:0|0:0,0:0:0:0:
228,367,102586,1,0,0:0:0:0:
406,268,102758,1,2,0:0:0:0:
410,270,102844,1,0,0:0:0:0:
415,274,102931,6,2,B|371:258|359:288|334:273|334:273|289:287|289:287|241:300|225:267,1,178.500003404617,4|0,1:0|0:0,1:0:0:0:
81,228,103275,2,0,B|174:226|244:175|268:218,1,195.999994018555,12|0,0:0|0:0,0:0:0:0:
92,328,103793,2,0,P|75:290|67:249,1,83.9999974365235,8|0,0:0|0:0,0:0:0:0:
269,219,104137,6,0,P|239:226|200:229,1,52.5000020027161,0|0,1:0|0:0,0:0:0:0:
269,41,104310,2,0,P|239:33|200:30,1,52.5000020027161,0|0,1:0|0:0,0:0:0:0:
95,129,104482,6,2,L|195:129,1,89.2500017023087,12|0,0:2|0:0,1:0:0:0:
221,129,104827,6,0,B|156:122|156:122|114:131|114:131|53:125,1,167.999994873047,4|8,1:0|0:0,0:0:0:0:
269,219,105344,1,2,0:0:0:0:
92,328,105517,1,0,0:0:0:0:
86,326,105603,1,0,0:0:0:0:
80,324,105689,6,2,B|98:304|98:304|164:338|206:306|251:324,1,178.500003404617,4|0,1:0|0:0,1:0:0:0:
143,114,106034,2,0,P|96:191|164:251,1,195.999994018555,12|0,0:0|1:0,0:0:0:0:
407,158,106551,1,8,0:0:0:0:
274,62,106724,1,2,0:0:0:0:
167,181,106896,1,0,0:0:0:0:
298,275,107068,1,0,1:0:0:0:
274,62,107241,1,2,0:0:0:0:
273,45,107327,1,0,0:0:0:0:
272,29,107413,1,8,0:0:0:0:
167,181,107586,6,0,P|241:177|348:151,1,167.999994873047,4|8,1:0|0:0,0:0:0:0:
298,275,108103,1,0,0:0:0:0:
342,152,108275,1,2,0:3:0:0:
86,233,108448,2,0,P|81:252|80:288,1,41.9999987182618,2|0,0:0|0:0,0:0:0:0:
167,181,108620,2,0,P|165:130|139:38,1,125.999996154785,12|0,0:0|0:0,0:0:0:0:
112,38,108965,2,0,L|208:46,1,83.9999974365235,12|0,1:2|0:0,0:0:0:0:
394,156,109310,6,0,L|326:150,1,52.5000020027161,4|0,0:2|0:0,0:0:0:0:
457,224,109655,2,0,L|475:226,1,17.5,2|0,0:0|0:0,0:0:0:0:
343,248,109827,2,0,L|361:250,1,17.5,2|0,0:0|0:0,0:0:0:0:
229,272,110000,6,0,L|259:276,1,25.6666674499512
196,280,110114,2,0,L|226:284,1,25.6666674499512
164,288,110229,2,0,L|194:292,1,25.6666674499512,2|0,0:0|0:0,0:0:0:0:
346,323,110344,6,0,L|448:336,1,90.9999958343508,6|0,1:0|0:0,0:0:0:0:
394,156,110689,2,0,L|291:169,1,90.9999958343508,8|0,0:0|0:0,0:0:0:0:
280,189,110948,2,0,P|228:198|157:186,1,90.9999958343508,2|0,1:0|0:0,0:0:0:0:
163,180,111206,1,0,1:0:0:0:
257,16,111379,2,0,P|290:56|315:124,1,90.9999958343508,8|0,0:0|0:0,0:0:0:0:
163,180,111724,5,0,1:0:0:0:
346,323,111896,1,2,0:0:0:0:
346,323,111982,1,0,0:0:0:0:
346,323,112068,2,0,P|330:271|328:211,1,90.9999958343508,8|2,0:0|0:0,0:0:0:0:
122,100,112413,6,0,P|212:106|242:218,1,210,4|0,1:0|0:0,0:0:0:0:
193,370,112758,6,0,L|198:314,1,45.4999979171754,12|0,0:0|0:0,0:0:0:0:
163,180,112931,2,0,L|168:124,1,45.4999979171754
99,361,113103,6,0,L|109:238,1,90.9999958343508,4|0,1:0|0:0,0:0:0:0:
133,252,113362,2,0,L|215:259,1,45.4999979171754,2|8,1:0|0:0,0:0:0:0:
346,323,113620,1,0,1:0:0:0:
328,90,113793,2,0,P|308:138|303:211,1,90.9999958343508,0|0,1:0|0:0,0:0:0:0:
325,197,114051,2,0,L|370:192,1,45.4999979171754,2|8,1:0|0:0,0:0:0:0:
163,180,114310,1,0,1:0:0:0:
346,323,114482,5,0,1:0:0:0:
184,341,114655,1,0,1:0:0:0:
141,165,114827,2,0,L|126:121,1,45.4999979171754,8|0,0:0|0:0,0:0:0:0:
163,180,115000,1,0,0:0:0:0:
186,192,115086,1,10,0:0:0:0:
211,200,115172,1,0,0:0:0:0:
237,206,115258,1,10,0:0:0:0:
263,210,115344,1,0,1:0:0:0:
328,90,115517,2,0,L|344:139,1,45.4999979171754,12|0,0:0|0:0,0:0:0:0:
346,323,115689,2,0,L|332:280,1,45.4999979171754,0|2,0:0|0:0,0:0:0:0:
502,211,115862,6,0,P|448:215|383:205,1,90.9999958343508,4|0,1:0|0:0,0:0:0:0:
212,71,116206,2,0,P|266:67|331:77,1,90.9999958343508,8|0,0:0|0:0,0:0:0:0:
328,90,116465,2,0,P|332:144|322:209,1,90.9999958343508,2|0,1:0|0:0,0:0:0:0:
308,206,116724,1,0,1:0:0:0:
117,266,116896,2,0,L|233:262,1,90.9999958343508,8|0,0:0|0:0,0:0:0:0:
43,212,117241,5,0,1:0:0:0:
308,206,117413,1,2,0:0:0:0:
308,206,117500,1,0,0:0:0:0:
308,206,117586,2,0,L|192:210,1,90.9999958343508,8|2,0:0|0:0,0:0:0:0:
444,269,117931,6,0,P|397:180|299:220,1,210,4|0,1:0|0:0,0:0:0:0:
274,367,118275,6,0,L|275:308,1,45.4999979171754,12|0,0:0|0:0,0:0:0:0:
369,252,118448,2,0,L|370:193,1,45.4999979171754
214,119,118620,6,0,P|211:172|224:231,1,90.9999958343508,4|0,1:0|0:0,0:0:0:0:
185,230,118879,2,0,L|126:229,1,45.4999979171754,2|8,1:0|0:0,0:0:0:0:
369,252,119137,1,0,1:0:0:0:
183,365,119310,2,0,L|273:366,1,90.9999958343508,0|0,1:0|0:0,0:0:0:0:
301,340,119568,2,0,L|302:281,1,45.4999979171754,4|8,0:0|0:0,0:0:0:0:
301,123,119827,1,0,1:0:0:0:
185,230,120000,2,0,P|203:183|206:109,1,90.9999958343508,0|0,1:0|0:0,0:0:0:0:
29,198,120344,2,0,P|60:237|123:276,1,90.9999958343508,8|2,0:0|3:3,0:0:0:0:
235,31,120689,38,0,L|163:54,1,52.5000020027161,0|0,1:0|0:0,0:0:0:0:
23,87,120862,38,0,L|95:110,1,52.5000020027161,2|0,0:0|1:0,0:0:0:0:
208,142,121034,38,0,L|198:199,1,52.5000020027161,12|0,0:0|0:0,0:0:0:0:
93,262,121206,38,0,L|103:318,1,52.5000020027161,0|2,1:0|0:0,0:0:0:0:
215,365,121379,6,0,P|271:354|333:318,1,90.9999958343508,6|0,1:0|0:0,0:0:0:0:
488,263,121724,2,0,P|450:305|388:341,1,90.9999958343508,8|0,0:0|0:0,0:0:0:0:
391,327,121982,2,0,L|337:235,1,90.9999958343508,4|0,0:0|0:0,0:0:0:0:
354,209,122241,1,0,1:0:0:0:
140,208,122413,2,0,L|254:192,1,90.9999958343508,8|0,0:0|0:0,0:0:0:0:
79,139,122758,5,0,1:0:0:0:
273,117,122931,1,2,0:0:0:0:
273,117,123017,1,0,0:0:0:0:
273,117,123103,2,0,P|261:70|235:25,1,90.9999958343508,8|2,0:0|0:0,0:0:0:0:
140,208,123448,6,0,P|223:263|281:187,1,210,4|0,1:0|0:0,0:0:0:0:
79,139,123793,6,0,L|24:147,1,45.4999979171754,12|0,0:0|0:0,0:0:0:0:
210,191,123965,2,0,L|155:199,1,45.4999979171754
352,241,124137,6,0,L|479:222,1,90.9999958343508,4|0,1:0|0:0,0:0:0:0:
467,195,124396,2,0,L|459:140,1,45.4999979171754,2|10,1:0|0:0,0:0:0:0:
273,117,124655,1,0,1:0:0:0:
142,298,124827,2,0,P|137:242|147:172,1,90.9999958343508,0|0,1:0|0:0,0:0:0:0:
168,177,125086,2,0,L|213:170,1,45.4999979171754,2|8,1:0|0:0,0:0:0:0:
352,241,125344,1,0,1:0:0:0:
142,298,125517,5,0,1:0:0:0:
74,149,125689,1,0,1:0:0:0:
228,54,125862,2,0,L|265:26,1,45.4999979171754,8|0,0:0|0:0,0:0:0:0:
221,79,126035,1,0,0:0:0:0:
217,105,126121,1,10,0:0:0:0:
217,131,126207,1,0,0:0:0:0:
219,158,126293,1,10,0:0:0:0:
223,184,126379,1,0,1:0:0:0:
389,214,126552,2,0,L|347:244,1,45.4999979171754,12|0,0:0|0:0,0:0:0:0:
223,184,126724,2,0,L|187:211,1,45.4999979171754,0|2,0:0|0:0,0:0:0:0:
336,147,126896,6,0,P|341:101|334:41,1,90.9999958343508,4|0,1:0|0:0,0:0:0:0:
229,357,127241,2,0,P|224:311|231:251,1,90.9999958343508,8|0,0:0|0:0,0:0:0:0:
261,241,127500,2,0,L|361:241,1,90.9999958343508,4|0,0:0|0:0,0:0:0:0:
385,264,127758,1,0,1:0:0:0:
137,266,127931,2,0,L|237:266,1,90.9999958343508,8|0,0:0|0:0,0:0:0:0:
393,256,128275,5,0,1:0:0:0:
139,357,128448,1,2,0:0:0:0:
139,357,128534,1,0,0:0:0:0:
139,357,128620,2,0,L|239:357,1,90.9999958343508,8|2,0:0|0:0,0:0:0:0:
401,248,128965,6,0,P|337:180|260:252,1,210,4|0,1:0|0:0,0:0:0:0:
397,106,129310,6,0,L|399:43,1,45.4999979171754,12|0,0:0|0:0,0:0:0:0:
331,251,129482,2,0,L|329:314,1,45.4999979171754,0|0,0:0|0:0,0:0:0:0:
319,101,129655,6,0,P|239:82|193:79,1,90.9999958343508,0|0,1:0|0:0,0:0:0:0:
197,104,129913,2,0,L|195:167,1,45.4999979171754,2|8,1:0|0:0,0:0:0:0:
331,251,130172,1,0,1:0:0:0:
136,191,130344,2,0,L|133:285,1,90.9999958343508,0|0,1:0|0:0,0:0:0:0:
163,311,130603,2,0,P|192:315|226:309,1,45.4999979171754,2|8,1:0|0:0,0:0:0:0:
319,101,130862,1,0,1:0:0:0:
298,319,131034,2,0,P|237:320|189:305,1,90.9999958343508,4|0,1:0|0:0,0:0:0:0:
292,170,131379,2,0,P|323:222|334:270,1,90.9999958343508,8|2,0:0|3:3,0:0:0:0:
84,199,131724,38,0,L|141:190,1,52.5000020027161,0|0,1:0|0:0,0:0:0:0:
208,313,131896,38,0,L|272:321,1,52.5000020027161,2|0,0:0|1:0,0:0:0:0:
292,170,132068,38,0,L|303:98,1,52.5000020027161,12|0,0:0|0:0,0:0:0:0:
387,301,132241,38,0,L|401:368,1,52.5000020027161,0|2,1:0|3:2,0:0:0:0:
456,198,132413,6,0,P|456:164|438:86,1,83.9999974365235,6|0,1:0|0:0,0:0:0:0:
292,170,132758,2,0,P|292:203|309:281,1,83.9999974365235,8|0,0:0|0:0,0:0:0:0:
319,275,133017,2,0,L|230:277,1,83.9999974365235,2|0,1:2|0:0,0:0:0:0:
211,294,133275,1,0,1:0:0:0:
387,217,133448,1,8,0:0:0:0:
203,259,133620,1,0,0:0:0:0:
321,165,133793,5,0,1:0:0:0:
387,301,133965,1,2,0:0:0:0:
240,183,134137,2,0,P|236:132|243:89,1,83.9999974365235,8|2,0:0|0:0,0:0:0:0:
507,163,134482,6,0,B|424:192|405:141|320:165,1,188.999994232178,4|0,0:0|0:0,0:0:0:0:
203,259,134827,6,0,L|148:261,1,41.9999987182618,8|0,0:0|0:0,0:0:0:0:
40,201,135000,2,0,L|95:199,1,41.9999987182618,2|0,0:0|0:0,0:0:0:0:
246,93,135172,2,0,L|108:97,1,125.999996154785,0|2,1:0|1:2,0:0:0:0:
96,114,135517,1,8,0:0:0:0:
240,183,135689,1,0,0:0:0:0:
40,201,135862,2,0,P|43:262|55:317,1,83.9999974365235,0|0,1:0|0:0,0:0:0:0:
67,306,136120,2,0,P|99:304|129:297,1,41.9999987182618,2|8,1:2|0:0,0:0:0:0:
240,183,136379,1,0,0:0:0:0:
357,348,136551,6,0,P|314:328|276:294,1,83.9999974365235,0|0,1:0|1:0,0:0:0:0:
240,100,136896,1,8,0:0:0:0:
394,162,137068,1,2,0:0:0:0:
400,186,137155,1,10,0:0:0:0:
404,210,137241,1,4,0:0:0:0:
405,235,137327,1,10,0:0:0:0:
404,260,137413,1,0,1:0:0:0:
202,332,137586,6,0,L|119:331,1,78.7500030040742,12|0,0:0|0:0,0:0:0:0:
63,351,137931,6,0,P|114:327|145:294,1,83.9999974365235,0|0,1:0|0:0,0:0:0:0:
28,123,138275,2,0,P|23:179|36:222,1,83.9999974365235,8|0,0:0|0:0,0:0:0:0:
52,225,138534,2,0,P|108:229|151:216,1,83.9999974365235,2|0,1:2|0:0,0:0:0:0:
150,198,138793,1,0,1:0:0:0:
251,91,138965,1,8,0:0:0:0:
105,58,139137,1,0,0:0:0:0:
150,198,139310,5,0,1:0:0:0:
302,206,139482,1,2,0:0:0:0:
150,198,139655,2,8,P|155:250|170:303,1,83.9999974365235,8|2,0:0|0:0,0:0:0:0:
402,351,140000,6,0,B|331:326|273:377|208:350,1,188.999994232178,4|0,0:0|0:2,0:0:0:0:
35,304,140344,6,0,P|20:284|13:261,1,41.9999987182618,8|0,0:0|0:0,0:0:0:0:
162,281,140517,2,0,P|152:303|135:321,1,41.9999987182618,2|0,0:0|0:0,0:0:0:0:
78,170,140689,2,0,P|84:121|114:38,1,125.999996154785,0|2,1:0|1:2,0:0:0:0:
136,34,141034,1,8,0:0:0:0:
5,168,141206,1,0,0:0:0:0:
211,176,141379,2,0,L|321:177,1,83.9999974365235,0|0,1:0|0:0,0:0:0:0:
318,194,141637,2,0,P|323:221|317:249,1,41.9999987182618,2|8,1:2|0:0,0:0:0:0:
174,348,141896,1,0,0:0:0:0:
335,335,142068,6,0,P|389:335|432:346,1,83.9999974365235,0|0,1:0|1:0,0:0:0:0:
150,356,142413,1,8,0:0:0:0:
77,222,142586,1,2,0:0:0:0:
76,197,142672,1,10,0:0:0:0:
77,172,142758,1,4,0:0:0:0:
81,148,142844,1,10,0:0:0:0:
87,124,142931,1,0,1:0:0:0:
318,194,143103,6,0,P|274:225|233:242,1,78.7500030040742,12|0,0:0|1:0,0:0:0:0:
190,221,143448,6,0,P|239:242|274:270,1,83.9999974365235,4|0,1:0|1:0,0:0:0:0:
87,124,143793,2,0,P|96:70|114:30,1,83.9999974365235,8|0,0:0|0:0,0:0:0:0:
135,31,144051,2,0,L|221:50,1,83.9999974365235,2|0,1:2|0:0,0:0:0:0:
233,75,144310,1,0,1:0:0:0:
357,126,144482,1,8,0:0:0:0:
325,244,144655,1,0,0:0:0:0:
203,216,144827,5,0,1:0:0:0:
236,96,145000,1,2,0:0:0:0:
251,286,145172,2,0,P|222:333|191:357,1,83.9999974365235,8|2,0:0|0:0,0:0:0:0:
18,220,145517,6,0,B|71:184|149:251|221:207,1,188.999994232178,4|0,0:0|0:0,0:0:0:0:
357,126,145862,6,0,L|379:77,1,41.9999987182618,8|0,0:0|0:0,0:0:0:0:
236,96,146034,2,0,L|241:39,1,41.9999987182618,2|0,0:0|0:0,0:0:0:0:
121,218,146206,2,0,L|114:92,1,125.999996154785,0|2,1:0|1:2,0:0:0:0:
112,63,146551,1,8,0:0:0:0:
97,241,146724,1,0,0:0:0:0:
266,177,146896,2,0,L|261:260,1,83.9999974365235,0|0,1:0|0:0,0:0:0:0:
239,280,147155,2,0,P|208:278|185:272,1,41.9999987182618,2|8,1:2|0:0,0:0:0:0:
287,152,147413,1,0,0:0:0:0:
420,293,147586,6,0,L|311:293,1,83.9999974365235,0|0,1:0|1:0,0:0:0:0:
486,340,147931,1,8,0:0:0:0:
386,204,148103,1,2,0:0:0:0:
378,171,148189,1,10,0:0:0:0:
370,138,148275,1,4,0:0:0:0:
378,105,148362,1,10,0:0:0:0:
386,72,148448,1,0,1:0:0:0:
209,153,148620,6,0,B|249:147|249:147|295:153,1,78.7500030040742,12|0,0:0|0:0,0:0:0:0:
194,144,148965,6,0,L|183:53,1,83.9999974365235,0|0,1:0|0:0,0:0:0:0:
370,138,149310,2,0,L|359:221,1,83.9999974365235,8|0,0:0|0:0,0:0:0:0:
334,234,149568,2,0,B|293:233|293:233|249:220,1,83.9999974365235,2|0,1:2|0:0,0:0:0:0:
223,228,149827,1,0,1:0:0:0:
314,75,150000,1,8,0:0:0:0:
334,234,150172,1,0,0:0:0:0:
203,69,150344,5,0,1:0:0:0:
223,228,150516,1,2,0:0:0:0:
314,75,150689,2,0,L|358:-7,1,83.9999974365235,8|2,0:0|0:0,0:0:0:0:
473,129,151034,6,0,B|501:210|454:233|483:335,1,188.999994232178,4|0,0:0|0:0,0:0:0:0:
358,355,151379,6,0,L|428:363,1,41.9999987182618,8|0,0:0|0:0,0:0:0:0:
223,364,151551,2,0,L|293:372,1,41.9999987182618,2|0,0:0|0:0,0:0:0:0:
130,331,151724,2,0,P|118:267|121:174,1,125.999996154785,0|2,1:0|1:2,0:0:0:0:
125,177,152068,1,8,0:0:0:0:
289,260,152241,1,0,0:0:0:0:
341,152,152413,2,0,L|238:149,1,83.9999974365235,0|0,1:0|0:0,0:0:0:0:
236,170,152672,2,0,P|233:197|238:230,1,41.9999987182618,2|8,1:2|0:0,0:0:0:0:
358,355,152931,1,0,0:0:0:0:
462,213,153103,6,0,B|496:166|369:96|309:137|355:178,1,178.500003404617,4|0,1:0|0:0,0:0:0:0:
355,143,153448,6,0,B|386:88|386:88|401:21,1,125.999996154785,8|0,0:0|1:0,0:0:0:0:
236,170,153793,6,0,L|296:272,1,105,8|0,0:0|0:0,0:0:0:0:
217,309,154137,6,0,L|201:335,1,20.9999993591309,4|0,0:0|0:0,0:0:0:0:
179,288,154224,6,0,L|155:307,1,20.9999993591309
150,256,154310,6,0,L|121:266,1,20.9999993591309,2|0,0:0|0:0,0:0:0:0:
135,216,154396,6,0,L|104:215,1,20.9999993591309
137,142,154482,5,4,1:0:0:0:
119,129,154827,2,0,L|105:76,1,52.5000020027161
207,145,155172,2,0,L|216:91,1,52.5000020027161
273,201,155517,2,0,L|304:156,1,52.5000020027161
365,54,155862,5,2,0:0:0:0:
365,54,156206,2,0,L|322:88,1,52.5000020027161
413,126,156551,2,0,L|388:175,1,52.5000020027161
493,165,156896,2,0,L|491:219,1,52.5000020027161
494,334,157241,5,2,0:0:0:0:
494,334,157586,2,0,L|439:345,1,52.5000020027161
386,241,157931,2,0,L|321:216,1,52.5000020027161
288,324,158275,2,0,L|265:373,1,52.5000020027161
199,232,158620,6,0,P|190:194|183:112,1,105.000004005432,2|0,0:0|0:0,0:0:0:0:
84,35,159310,2,0,P|93:73|100:155,1,105.000004005432,2|0,0:0|0:0,0:0:0:0:
22,234,160000,5,2,0:0:0:0:
22,234,160344,2,0,P|27:206|27:168,1,52.5000020027161
96,287,160689,2,0,P|112:263|128:229,1,52.5000020027161
138,367,161034,2,0,P|162:352|191:328,1,52.5000020027161
254,173,161379,5,2,0:0:0:0:
254,173,161724,2,0,P|244:199|237:237,1,52.5000020027161
337,207,162069,2,0,P|339:235|349:272,1,52.5000020027161
428,200,162414,2,0,P|442:224|466:253,1,52.5000020027161
423,57,162758,5,2,0:0:0:0:
423,57,163103,2,0,L|347:65,1,52.5000020027161
287,132,163448,2,0,P|268:159|240:184,1,52.5000020027161
161,229,163793,2,0,L|85:237,1,52.5000020027161
13,244,164137,1,2,0:0:0:0:
13,244,164827,5,12,0:0:0:0:
19,249,164913,1,0,0:0:0:0:
25,254,165000,1,0,0:0:0:0:
31,259,165086,1,0,0:0:0:0:
55,259,165172,1,0,0:0:0:0:
79,259,165258,1,2,0:0:0:0:
103,259,165345,1,0,0:0:0:0:
127,259,165431,1,2,0:0:0:0:
151,259,165517,5,4,1:0:0:0:
171,249,165862,2,0,P|179:206|179:177,1,52.5000020027161,0|0,0:0|0:0,0:0:0:0:
61,152,166206,2,0,P|94:180|119:194,1,52.5000020027161,0|0,0:0|0:0,0:0:0:0:
200,105,166551,2,0,P|158:119|133:134,1,52.5000020027161,0|0,0:0|0:0,0:0:0:0:
294,133,166896,5,2,0:0:0:0:
294,133,167241,2,0,L|298:203,1,52.5000020027161
373,116,167586,2,0,L|421:167,1,52.5000020027161
422,52,167931,2,0,L|491:60,1,52.5000020027161
314,42,168275,5,2,0:0:0:0:
314,42,168620,2,0,L|243:54,1,52.5000020027161
165,114,168965,2,0,P|157:156|157:189,1,52.5000020027161,0|0,0:0|1:0,0:0:0:0:
239,247,169310,2,0,P|282:248|315:243,1,52.5000020027161
436,165,169655,6,0,P|424:209|418:273,1,105.000004005432,2|0,1:2|0:0,0:0:0:0:
418,268,170344,1,0,0:0:0:0:
335,369,170517,2,0,P|297:370|270:364,1,52.5000020027161,0|0,1:0|0:0,0:0:0:0:
117,255,171034,6,0,L|114:129,1,105.000004005432,2|0,1:2|0:0,0:0:0:0:
114,150,171724,2,0,L|170:151,1,52.5000020027161,8|0,0:0|1:0,0:0:0:0:
282,242,172068,2,0,L|226:241,1,52.5000020027161,8|0,0:0|0:0,0:0:0:0:
222,245,172327,1,0,0:0:0:0:
216,251,172413,6,0,P|219:302|230:371,1,105.000004005432,2|8,1:2|0:0,0:0:0:0:
227,355,173103,1,8,0:0:0:0:
285,246,173275,2,0,P|282:195|271:126,1,105.000004005432,0|8,1:0|0:0,0:0:0:0:
196,48,173793,6,0,P|196:80|202:119,1,52.5000020027161,2|0,1:2|0:0,0:0:0:0:
131,210,174137,2,0,P|131:178|125:139,1,52.5000020027161,8|2,0:0|0:0,0:0:0:0:
54,261,174482,1,0,0:0:0:0:
66,277,174568,1,0,0:0:0:0:
82,290,174655,1,0,1:0:0:0:
101,299,174740,1,0,0:0:0:0:
122,304,174827,1,8,0:0:0:0:
224,197,175000,1,2,0:3:0:0:
438,135,175172,5,0,1:0:0:0:
443,163,175258,1,0,0:0:0:0:
437,191,175345,1,2,0:0:0:0:
419,213,175431,1,0,0:0:0:0:
388,222,175517,1,8,0:0:0:0:
354,213,175603,5,8,0:0:0:0:
319,189,175689,1,8,0:0:0:0:
274,180,175776,5,8,0:0:0:0:
224,197,175862,1,4,0:0:0:0:
278,311,176034,5,0,3:0:0:0:
359,120,176206,2,0,L|341:92,2,26.2500010013581,2|0|8,0:0|0:0|0:0,0:0:0:0:
224,197,176551,1,4,1:0:0:0:
65,322,186896,5,12,0:0:0:0:
71,327,186982,1,0,0:0:0:0:
77,332,187069,1,0,0:0:0:0:
83,337,187155,1,0,0:0:0:0:
107,337,187241,1,0,0:0:0:0:
131,337,187327,1,10,0:0:0:0:
155,337,187414,1,0,0:0:0:0:
179,337,187500,1,10,0:0:0:0:
203,337,187586,6,0,P|211:294|211:265,1,52.5000020027161,4|0,1:0|0:0,0:0:0:0:
283,156,187931,2,0,P|275:199|275:228,1,52.5000020027161,0|0,0:0|0:0,0:0:0:0:
350,335,188275,2,0,P|363:262|363:213,1,105.000004005432,0|0,0:0|0:0,0:0:0:0:
283,156,188793,1,0,1:0:0:0:
418,176,188965,2,0,L|485:190,1,52.5000020027161,2|0,1:2|0:0,0:0:0:0:
448,346,189310,2,0,L|435:280,1,52.5000020027161
418,176,189655,1,2,0:0:0:0:
283,156,189827,1,0,0:0:0:0:
162,237,190000,1,0,0:0:0:0:
297,257,190172,1,2,0:0:0:0:
183,153,190344,6,0,P|147:151|109:164,1,52.5000020027161,4|0,1:0|0:0,0:0:0:0:
60,261,190689,2,0,P|79:230|87:191,1,52.5000020027161,0|0,0:0|0:0,0:0:0:0:
162,237,191034,2,0,L|240:311,1,105.000004005432,2|0,0:0|0:0,0:0:0:0:
238,309,191551,1,0,0:0:0:0:
393,338,191724,2,0,L|334:282,1,78.7500030040742,0|0,1:0|0:0,0:0:0:0:
332,256,192068,2,0,P|349:223|369:206,1,52.5000020027161,0|2,0:0|0:0,0:0:0:0:
421,99,192413,2,0,P|395:104|373:118,1,52.5000020027161,2|0,1:2|0:0,0:0:0:0:
238,236,192758,2,0,P|247:200|263:179,1,52.5000020027161,0|2,0:0|0:0,0:0:0:0:
113,206,193103,6,0,P|106:252|109:324,1,105.000004005432,4|0,1:0|1:0,0:0:0:0:
107,310,193793,2,0,P|153:317|225:314,1,105.000004005432,4|0,1:0|1:0,0:0:0:0:
211,315,194310,1,0,0:0:0:0:
392,360,194482,2,0,P|341:353|288:355,1,105.000004005432,4|0,1:0|1:0,0:0:0:0:
288,355,195172,2,0,P|286:319|292:282,1,52.5000020027161,4|0,1:0|1:0,0:0:0:0:
426,232,195517,2,0,L|456:235,1,26.2500010013581
380,155,195689,2,0,L|407:113,1,26.2500010013581
332,233,195862,5,4,1:0:0:0:
238,231,196034,1,0,1:0:0:0:
124,135,196206,5,4,1:0:0:0:
218,137,196379,1,0,1:0:0:0:
346,291,196551,6,0,L|346:231,1,41.9999987182618,6|0,1:0|0:0,0:0:0:0:
226,273,196724,6,0,L|226:212,1,48.9999985046387,6|0,0:0|0:0,0:0:0:0:
113,217,196896,6,0,L|147:217,1,35.0000013351441,4|0,1:0|0:0,0:0:0:0:
65,182,197011,2,0,L|99:182,1,35.0000013351441,6|0,0:0|0:0,0:0:0:0:
16,147,197126,2,0,L|50:147,1,35.0000013351441,2|0,0:0|0:0,0:0:0:0:
218,137,197241,6,0,B|242:113|268:149|276:129|276:129|330:151|367:114|377:139,1,157.500006008148,6|0,1:0|0:0,0:0:0:0:
367,130,198620,6,0,P|350:203|373:309,1,167.999994873047,6|8,1:0|0:0,0:0:0:0:
389,119,199138,1,0,0:0:0:0:
256,233,199310,1,0,0:0:0:0:
256,233,199396,1,0,0:0:0:0:
256,233,199482,6,2,B|224:264|189:217|178:243|178:243|97:214|57:263|44:230,1,178.500003404617,4|0,1:0|0:0,1:0:0:0:
36,384,199827,2,0,P|91:309|183:325,1,195.999994018555,12|0,0:0|1:0,0:0:0:0:
322,285,200344,2,0,P|279:256|238:209,1,83.9999974365235,8|0,0:0|0:0,0:0:0:0:
450,150,200689,1,2,0:0:0:0:
448,188,200775,1,0,0:0:0:0:
428,222,200862,1,0,1:0:0:0:
424,259,200948,1,0,0:0:0:0:
495,290,201034,2,0,L|499:236,1,41.9999987182618,8|0,0:0|0:0,0:0:0:0:
379,123,201206,2,0,L|375:177,1,41.9999987182618,0|2,0:0|0:0,0:0:0:0:
255,350,201379,6,0,B|270:305|237:269|256:233,1,119.000002269745,0|8,1:0|0:0,0:0:0:0:
256,233,201896,1,0,0:0:0:0:
90,196,202068,1,2,0:0:0:0:
90,196,202155,1,0,0:0:0:0:
90,196,202241,6,2,B|152:206|179:165|179:165|214:178|250:141|297:185,1,178.500003404617,4|0,1:0|0:0,1:0:0:0:
117,125,202586,2,0,P|94:60|205:56,1,195.999994018555,12|2,0:0|1:2,0:0:0:0:
185,266,203103,2,0,P|181:311|169:353,1,83.9999974365235,8|0,0:0|0:0,0:0:0:0:
90,196,203448,6,0,P|127:192|160:199,1,52.5000020027161,0|0,1:0|0:0,0:0:0:0:
307,232,203620,2,0,P|270:236|237:229,1,52.5000020027161,0|0,1:0|0:0,0:0:0:0:
217,129,203793,6,2,L|229:40,1,89.2500017023087,12|0,0:2|0:0,1:0:0:0:
231,15,204137,6,0,B|224:76|224:76|227:109|227:109|216:182,1,167.999994873047,4|8,1:0|0:0,0:0:0:0:
90,196,204655,1,2,0:0:0:0:
307,232,204827,2,0,P|345:251|367:270,1,41.9999987182618
261,377,205000,6,2,B|228:346|228:346|229:335|229:335|204:312|173:293|159:215,1,178.500003404617,4|0,1:0|0:0,1:0:0:0:
217,129,205344,2,0,B|255:145|255:145|302:126|361:181|419:150,1,195.999994018555,12|0,0:0|1:0,0:0:0:0:
368,338,205862,2,0,P|353:272|354:233,1,83.9999974365235,8|0,0:0|0:0,0:0:0:0:
484,136,206206,2,0,P|498:201|498:240,1,83.9999974365235,4|0,0:0|1:0,0:0:0:0:
410,35,206551,1,8,0:0:0:0:
416,19,206637,1,2,0:0:0:0:
422,3,206724,1,0,1:0:0:0:
276,51,206896,6,0,B|231:32|190:82|139:45,1,119.000002269745,4|8,1:0|0:0,0:0:0:0:
143,49,207586,1,2,0:0:0:0:
128,42,207672,1,0,0:0:0:0:
113,35,207758,1,0,1:0:0:0:
161,191,207931,1,0,1:0:0:0:
265,97,208103,6,0,P|276:46|277:-11,1,83.9999974365235,8|0,0:0|0:0,0:0:0:0:
186,267,208448,1,0,1:0:0:0:
82,173,208620,2,0,P|71:122|70:65,1,83.9999974365235,8|0,0:0|0:0,0:0:0:0:
211,343,208965,1,2,0:0:0:0:
216,359,209051,1,0,0:0:0:0:
220,375,209137,1,0,1:0:0:0:
293,202,209310,6,0,B|319:128|293:27|219:71|277:106,1,178.500003404617,12|0,0:0|0:0,0:0:0:0:
286,113,209655,6,0,B|342:135|389:88|451:114,1,167.999994873047,4|8,1:0|0:0,0:0:0:0:
266,99,210172,1,0,0:0:0:0:
363,268,210344,1,0,0:0:0:0:
363,268,210431,1,0,0:0:0:0:
363,268,210517,6,2,B|312:272|290:265|290:265|255:275|255:275|219:262|154:284,1,178.500003404617,4|0,1:0|0:0,1:0:0:0:
161,381,210862,2,0,P|252:355|285:267,1,195.999994018555,12|0,0:0|1:0,0:0:0:0:
45,222,211379,2,0,L|137:221,1,83.9999974365235,8|0,0:0|0:0,0:0:0:0:
368,161,211724,1,2,0:0:0:0:
330,155,211810,1,0,0:0:0:0:
292,164,211896,1,0,1:0:0:0:
254,158,211982,1,0,0:0:0:0:
211,98,212068,2,0,L|139:72,1,41.9999987182618,8|0,0:0|0:0,0:0:0:0:
85,208,212241,2,0,L|13:234,1,41.9999987182618,0|2,0:0|0:0,0:0:0:0:
40,133,212413,6,0,B|26:89|58:58|42:8,1,119.000002269745,0|8,1:0|0:0,0:0:0:0:
44,15,212931,1,0,0:0:0:0:
85,208,213103,1,2,0:0:0:0:
85,208,213189,1,0,0:0:0:0:
85,208,213275,6,2,B|65:228|65:228|52:326|94:257|70:353|70:353|51:386,1,178.500003404617,4|0,1:0|0:0,1:0:0:0:
244,256,213620,2,0,P|155:248|70:333,1,195.999994018555,12|0,0:0|1:0,0:0:0:0:
154,178,214137,2,0,P|176:220|225:255,1,83.9999974365235,8|0,0:0|0:0,0:0:0:0:
459,133,214482,6,0,L|399:107,1,52.5000020027161,0|0,1:0|0:0,0:0:0:0:
365,247,214655,2,0,L|311:268,1,52.5000020027161,0|0,1:0|0:0,0:0:0:0:
268,126,214827,2,2,L|243:31,1,89.2500017023087,12|0,0:2|0:0,1:0:0:0:
238,13,215172,6,0,B|243:61|243:61|271:97|271:97|269:132|269:132|281:181|281:181,1,167.999994873047,4|8,1:0|0:0,0:0:0:0:
303,354,215689,1,2,0:0:0:0:
108,284,215862,1,0,0:0:0:0:
108,284,215948,1,0,0:0:0:0:
108,284,216034,6,2,B|140:255|177:252|209:274|209:274|235:265|235:265|289:277,1,178.500003404617,4|0,1:0|0:0,1:0:0:0:
165,333,216379,2,0,B|138:252|225:221|173:120,1,195.999994018555,12|0,0:0|1:0,0:0:0:0:
61,184,216896,1,8,0:0:0:0:
285,131,217068,1,2,0:0:0:0:
76,216,217241,1,0,0:0:0:0:
270,99,217413,1,0,1:0:0:0:
97,55,217586,1,2,0:0:0:0:
96,71,217672,1,0,0:0:0:0:
99,87,217758,1,8,1:2:0:0:
270,283,217931,6,0,P|235:207|182:143,1,167.999994873047,4|8,1:0|0:0,0:0:0:0:
72,342,218448,1,0,0:0:0:0:
270,283,218620,1,2,1:3:0:0:
76,216,218793,2,0,L|71:266,1,41.9999987182618,2|0,0:0|0:0,0:0:0:0:
270,283,218965,2,0,P|216:278|140:292,1,125.999996154785,12|0,0:0|0:0,0:0:0:0:
141,364,219310,6,0,L|137:258,1,83.9999974365235,8|0,1:2|0:0,0:0:0:0:
141,95,219655,1,2,1:2:0:0:
270,283,219827,2,0,L|227:224,1,41.9999987182618,12|0,1:2|0:0,0:0:0:0:
169,135,220000,1,0,0:0:0:0:
155,115,220086,1,0,0:0:0:0:
141,95,220172,1,2,1:2:0:0:
425,198,220344,2,0,P|383:206|342:206,1,83.9999974365235,12|0,1:2|0:0,0:0:0:0:
169,135,220689,6,0,B|219:95|331:110,1,167.999994873047,4|8,1:0|0:0,0:0:0:0:
160,158,221206,1,0,0:0:0:0:
270,283,221379,1,0,0:0:0:0:
270,283,221465,1,0,0:0:0:0:
270,283,221551,6,2,B|218:269|192:290|192:290|171:283|171:283|130:308|66:272,1,178.500003404617,4|0,1:0|0:0,1:0:0:0:
8,192,221896,2,0,B|60:206|115:191|115:191|151:164|215:191,1,195.999994018555,12|0,0:0|1:0,0:0:0:0:
118,368,222413,2,0,P|99:303|100:273,1,83.9999974365235,8|0,0:0|0:0,0:0:0:0:
270,283,222758,2,0,L|279:349,1,41.9999987182618,2|0,0:0|0:0,0:0:0:0:
208,200,222931,2,0,L|199:134,1,41.9999987182618,0|0,1:0|0:0,0:0:0:0:
356,187,223103,1,8,0:0:0:0:
373,223,223189,1,0,0:0:0:0:
375,259,223275,1,0,0:0:0:0:
377,295,223362,1,2,0:0:0:0:
393,329,223448,6,0,B|344:315|309:344|262:319,1,119.000002269745,0|8,1:0|0:0,0:0:0:0:
275,324,223965,1,0,0:0:0:0:
78,196,224137,1,2,0:0:0:0:
78,196,224224,1,0,0:0:0:0:
78,196,224310,6,2,B|126:210|159:197|159:197|171:200|171:200|210:203|276:169,1,178.500003404617,4|0,1:0|0:0,1:0:0:0:
381,98,224655,2,0,B|333:84|300:97|300:97|288:94|288:94|249:91|183:125,1,195.999994018555,14|2,0:0|1:2,0:0:0:0:
140,270,225172,2,0,P|100:212|67:190,1,97.9999970092774,8|0,0:0|0:0,0:0:0:0:
77,368,225517,6,0,L|65:300,1,52.5000020027161,0|0,1:0|0:0,0:0:0:0:
225,273,225689,2,0,L|213:205,1,52.5000020027161,0|0,1:0|0:0,0:0:0:0:
373,178,225862,6,2,L|355:81,1,89.2500017023087,12|0,0:2|0:0,1:0:0:0:
351,64,226206,6,0,B|359:111|359:111|354:144|354:144|372:177|372:177|385:237,1,167.999994873047,4|8,1:0|0:0,0:0:0:0:
249,14,226724,1,2,0:0:0:0:
301,255,226896,1,0,0:0:0:0:
301,255,226982,1,0,0:0:0:0:
301,255,227068,6,2,B|287:194|287:194|265:153|265:153|271:112|271:112|261:53,1,178.500003404617,4|0,1:0|0:0,1:0:0:0:
460,118,227413,2,0,P|365:145|268:153,1,195.999994018555,12|0,0:0|1:0,0:0:0:0:
33,86,227931,2,0,P|96:86|142:99,1,97.9999970092774,8|0,0:0|0:0,0:0:0:0:
74,369,228275,2,0,P|42:314|30:268,1,97.9999970092774,4|0,0:0|1:0,0:0:0:0:
33,86,228620,1,8,0:0:0:0:
34,68,228707,1,2,0:0:0:0:
36,51,228793,1,0,1:0:0:0:
212,169,228965,6,0,B|227:215|175:252|208:306,1,119.000002269745,4|8,1:0|0:0,0:0:0:0:
204,301,229655,1,2,0:0:0:0:
210,317,229741,1,0,0:0:0:0:
216,332,229827,1,0,1:0:0:0:
358,232,230000,1,0,1:0:0:0:
278,119,230172,6,0,P|230:148|200:188,1,83.9999974365235,8|0,0:0|0:0,0:0:0:0:
204,301,230517,1,0,1:0:0:0:
54,198,230689,2,0,P|43:253|53:302,1,83.9999974365235,8|0,0:0|0:0,0:0:0:0:
139,374,231034,1,2,0:0:0:0:
154,379,231120,1,0,0:0:0:0:
169,384,231206,1,0,1:0:0:0:
312,189,231379,6,0,P|310:112|208:150,1,199.499994672775,12|0,0:0|0:0,0:0:0:0:
269,255,231724,6,0,B|320:287|395:233|432:265,1,167.999994873047,4|8,1:0|0:0,0:0:0:0:
247,244,232241,1,0,0:0:0:0:
382,324,232413,1,0,0:0:0:0:
387,329,232500,1,0,0:0:0:0:
392,334,232586,6,2,B|356:326|328:340|328:340|274:333|274:333|245:348|209:337,1,178.500003404617,4|0,1:0|0:0,1:0:0:0:
106,193,232931,2,4,P|214:200|235:287,1,195.999994018555,12|0,0:0|1:0,0:0:0:0:
46,350,233448,2,0,P|47:284|56:240,1,97.9999970092774,8|0,0:0|0:0,0:0:0:0:
97,68,233793,2,0,L|114:140,1,41.9999987182618,2|0,0:0|0:0,0:0:0:0:
155,262,233965,2,0,L|172:334,1,41.9999987182618,0|0,1:0|0:0,0:0:0:0:
334,144,234137,6,0,L|346:92,1,52.5000020027161,8|0,0:0|0:0,0:0:0:0:
291,334,234310,2,0,L|303:282,1,52.5000020027161,0|2,0:0|0:0,0:0:0:0:
155,144,234482,6,0,B|142:183|173:230|151:273,1,119.000002269745,0|8,1:0|0:0,0:0:0:0:
155,261,235000,1,0,0:0:0:0:
438,270,235172,1,2,0:0:0:0:
444,273,235258,1,0,0:0:0:0:
449,275,235344,6,2,B|456:255|456:255|398:290|295:274,1,178.500003404617,4|0,1:0|0:0,1:0:0:0:
394,59,235689,2,0,P|454:127|403:203,1,195.999994018555,12|0,0:0|0:0,0:0:0:0:
100,138,236206,2,0,P|131:79|178:55,1,83.9999974365235,8|0,0:0|0:0,0:0:0:0:
277,160,236551,6,0,P|280:190|278:229,1,52.5000020027161,0|0,1:0|0:0,0:0:0:0:
100,138,236724,2,0,P|88:166|80:205,1,52.5000020027161,0|0,1:0|0:0,0:0:0:0:
167,322,236896,6,2,L|179:222,1,89.2500017023087,12|0,0:2|0:0,1:0:0:0:
182,196,237241,6,0,B|167:259|167:259|170:302|170:302|157:362,1,167.999994873047,4|8,1:0|0:0,0:0:0:0:
277,160,237758,1,2,0:0:0:0:
259,325,237931,1,0,0:0:0:0:
263,329,238017,1,0,0:0:0:0:
267,333,238103,6,2,B|281:268|275:238|275:238|289:206|289:206|271:138,1,178.500003404617,4|0,1:0|0:0,1:0:0:0:
84,131,238448,2,0,P|157:151|285:160,1,195.999994018555,12|0,0:0|1:0,0:0:0:0:
447,62,238965,1,8,0:0:0:0:
374,230,239137,1,2,0:0:0:0:
372,27,239310,1,0,0:0:0:0:
449,265,239482,1,0,1:0:0:0:
297,63,239655,1,2,0:0:0:0:
280,65,239741,1,0,0:0:0:0:
265,72,239827,1,8,0:0:0:0:
81,256,240000,6,0,P|155:252|262:226,1,167.999994873047,4|8,1:0|0:0,0:0:0:0:
212,350,240517,1,0,0:0:0:0:
256,227,240689,1,2,0:3:0:0:
50,142,240862,2,0,P|46:167|46:194,1,41.9999987182618,2|0,0:0|0:0,0:0:0:0:
265,222,241034,2,0,P|258:180|224:96,1,125.999996154785,12|0,0:0|0:0,0:0:0:0:
188,99,241379,2,0,L|277:101,1,83.9999974365235,12|0,1:2|0:0,0:0:0:0:
416,166,241724,6,0,L|347:165,1,52.5000020027161,4|0,0:2|0:0,0:0:0:0:
484,228,242069,2,0,L|502:228,1,17.5,2|0,0:0|0:0,0:0:0:0:
373,262,242241,2,0,L|391:262,1,17.5,2|0,0:0|0:0,0:0:0:0:
268,327,242413,6,0,P|263:339|263:352,1,25.6666674499512
217,321,242528,2,0,P|218:334|224:346,1,25.6666674499512
170,338,242643,2,0,P|176:349|186:358,1,25.6666674499512,2|0,0:0|0:0,0:0:0:0:
161,227,242758,6,0,P|141:174|107:117,1,90.9999958343508,6|0,1:0|0:0,0:0:0:0:
368,152,243103,2,0,P|330:177|289:198,1,90.9999958343508,8|0,0:0|0:0,0:0:0:0:
258,195,243362,2,0,P|232:157|211:116,1,90.9999958343508,2|0,1:0|0:0,0:0:0:0:
211,86,243620,1,0,1:0:0:0:
24,232,243793,2,0,P|62:257|103:278,1,90.9999958343508,8|0,0:0|0:0,0:0:0:0:
23,84,244137,5,0,1:0:0:0:
211,86,244310,1,2,0:0:0:0:
211,86,244396,1,0,0:0:0:0:
211,86,244482,2,0,L|116:84,1,90.9999958343508,8|2,0:0|0:0,0:0:0:0:
258,195,244827,6,0,P|287:94|199:96,1,210,4|0,1:0|0:0,0:0:0:0:
326,26,245172,6,0,L|376:0,1,45.4999979171754,12|0,0:0|0:0,0:0:0:0:
383,127,245344,2,0,L|463:127,1,45.4999979171754
461,263,245517,6,0,L|350:232,1,90.9999958343508,4|0,1:0|0:0,0:0:0:0:
341,240,245775,2,0,L|323:304,1,45.4999979171754,2|8,1:0|0:0,0:0:0:0:
460,378,246034,1,0,1:0:0:0:
261,345,246206,2,0,L|372:376,1,90.9999958343508,0|0,1:0|0:0,0:0:0:0:
381,368,246464,2,0,L|399:304,1,45.4999979171754,2|8,1:0|0:0,0:0:0:0:
211,255,246724,1,0,1:0:0:0:
432,180,246896,5,0,1:0:0:0:
157,123,247068,1,0,1:0:0:0:
327,71,247241,2,0,L|325:25,1,45.4999979171754,8|0,0:0|0:0,0:0:0:0:
313,94,247413,1,0,0:0:0:0:
296,116,247500,1,10,0:0:0:0:
277,136,247586,1,0,0:0:0:0:
255,152,247672,1,10,0:0:0:0:
231,166,247758,1,0,1:0:0:0:
81,108,247931,2,0,L|79:40,1,45.4999979171754,12|0,0:0|0:0,0:0:0:0:
138,248,248103,2,0,L|140:316,1,45.4999979171754,0|2,0:0|0:0,0:0:0:0:
23,209,248275,6,0,P|85:184|135:175,1,90.9999958343508,4|0,1:0|0:0,0:0:0:0:
357,300,248620,2,0,P|295:325|245:334,1,90.9999958343508,8|0,0:0|0:0,0:0:0:0:
241,323,248879,2,0,P|216:261|207:211,1,90.9999958343508,2|0,1:0|0:0,0:0:0:0:
225,209,249137,1,0,1:0:0:0:
403,187,249310,2,0,L|296:186,1,90.9999958343508,8|0,0:0|0:0,0:0:0:0:
417,171,249655,5,0,1:0:0:0:
126,115,249827,1,2,0:0:0:0:
126,115,249913,1,0,0:0:0:0:
126,115,250000,2,0,L|233:116,1,90.9999958343508,8|2,0:0|0:0,0:0:0:0:
131,332,250344,6,0,P|77:273|150:187,1,210,4|0,1:0|0:0,0:0:0:0:
126,115,250689,6,0,P|92:124|67:139,1,45.4999979171754,12|0,0:0|0:0,0:0:0:0:
151,261,250862,2,0,P|185:270|214:270,1,45.4999979171754
365,158,251034,6,0,P|314:153|257:168,1,90.9999958343508,4|0,1:0|0:0,0:0:0:0:
253,184,251293,2,0,L|264:248,1,45.4999979171754,4|8,0:0|0:0,0:0:0:0:
339,336,251551,1,0,1:0:0:0:
158,375,251724,2,0,L|264:379,1,90.9999958343508,0|0,1:0|0:0,0:0:0:0:
263,349,251982,2,0,P|262:318|251:279,1,45.4999979171754,4|8,0:0|0:0,0:0:0:0:
176,194,252241,1,0,1:0:0:0:
339,336,252413,2,0,P|381:356|432:361,1,90.9999958343508,0|0,1:0|0:0,0:0:0:0:
445,166,252758,2,0,P|402:186|367:222,1,90.9999958343508,8|2,0:0|3:0,0:0:0:0:
339,336,253103,38,0,L|329:284,1,52.5000020027161,0|0,1:0|0:0,0:0:0:0:
436,218,253275,38,0,L|445:166,1,52.5000020027161,2|0,0:0|0:0,0:0:0:0:
310,127,253447,38,0,L|259:111,1,52.5000020027161,12|0,0:0|0:0,0:0:0:0:
422,71,253620,38,0,L|472:55,1,52.5000020027161,0|2,1:0|0:0,0:0:0:0:
259,111,253793,6,0,L|152:115,1,90.9999958343508,4|0,1:0|0:0,0:0:0:0:
45,225,254137,2,0,L|151:229,1,90.9999958343508,8|0,0:0|0:0,0:0:0:0:
161,248,254396,2,0,P|214:250|272:234,1,90.9999958343508,2|0,1:0|0:0,0:0:0:0:
317,177,254655,1,0,1:0:0:0:
69,312,254827,2,0,P|116:336|175:346,1,90.9999958343508,8|0,0:0|0:0,0:0:0:0:
268,308,255172,5,0,1:0:0:0:
348,147,255344,1,2,0:0:0:0:
348,147,255431,1,0,0:0:0:0:
348,147,255517,2,0,P|345:191|356:251,1,90.9999958343508,8|2,0:0|0:0,0:0:0:0:
457,61,255862,6,0,P|362:53|347:147,1,210,4|0,1:0|0:0,0:0:0:0:
422,241,256206,6,0,L|463:291,1,45.4999979171754,12|0,0:0|0:0,0:0:0:0:
406,109,256379,2,0,L|370:64,1,45.4999979171754
201,122,256551,6,0,P|194:182|199:229,1,90.9999958343508,4|0,1:0|0:0,0:0:0:0:
219,233,256809,2,0,L|277:235,1,45.4999979171754,2|8,1:0|0:0,0:0:0:0:
422,241,257068,1,0,1:0:0:0:
226,344,257241,2,0,L|329:347,1,90.9999958343508,0|0,1:0|0:0,0:0:0:0:
342,325,257500,2,0,P|343:298|333:252,1,45.4999979171754,2|8,1:0|0:0,0:0:0:0:
101,211,257758,1,0,1:0:0:0:
312,213,257931,5,0,1:0:0:0:
201,122,258103,1,0,1:0:0:0:
412,124,258275,2,0,L|461:123,1,45.4999979171754,8|0,0:0|0:0,0:0:0:0:
388,135,258448,1,0,0:0:0:0:
365,151,258535,1,10,0:0:0:0:
344,169,258620,1,0,0:0:0:0:
327,190,258706,1,10,0:0:0:0:
312,213,258792,1,0,1:0:0:0:
383,357,258965,2,0,L|385:283,1,45.4999979171754,12|0,0:0|0:0,0:0:0:0:
312,213,259137,2,0,L|314:139,1,45.4999979171754,0|2,0:0|0:0,0:0:0:0:
203,31,259310,6,0,L|199:159,1,90.9999958343508,4|0,1:0|0:0,0:0:0:0:
94,340,259655,2,0,L|97:211,1,90.9999958343508,8|0,0:0|0:0,0:0:0:0:
110,222,259913,2,0,P|159:210|215:219,1,90.9999958343508,2|0,1:0|0:0,0:0:0:0:
285,248,260172,1,0,1:0:0:0:
220,384,260344,2,0,P|185:347|164:294,1,90.9999958343508,8|0,0:0|0:0,0:0:0:0:
198,122,260689,5,0,1:0:0:0:
376,119,260862,1,2,0:0:0:0:
376,119,260948,1,0,0:0:0:0:
376,119,261034,2,0,L|274:121,1,90.9999958343508,8|2,0:0|0:0,0:0:0:0:
356,295,261379,6,0,P|446:298|441:184,1,210,4|0,1:0|0:0,0:0:0:0:
217,240,261724,6,0,L|272:242,1,45.4999979171754,12|0,0:0|0:0,0:0:0:0:
403,243,261896,2,0,L|458:245,1,45.4999979171754
262,316,262068,6,0,L|148:311,1,90.9999958343508,4|0,1:0|0:0,0:0:0:0:
143,293,262327,2,0,P|137:266|143:237,1,45.4999979171754,2|8,1:0|0:0,0:0:0:0:
186,119,262586,1,0,1:0:0:0:
32,156,262758,2,0,P|10:209|5:253,1,90.9999958343508,0|0,1:0|0:0,0:0:0:0:
19,272,263017,2,0,L|71:274,1,45.4999979171754,2|8,1:0|0:0,0:0:0:0:
217,240,263275,1,0,1:0:0:0:
32,156,263448,2,0,L|129:157,1,90.9999958343508,4|0,1:0|0:0,0:0:0:0:
308,241,263793,2,0,L|211:240,1,90.9999958343508,8|2,0:0|3:0,0:0:0:0:
424,350,264137,38,0,L|413:298,1,52.5000020027161,0|0,1:0|0:2,0:0:0:0:
326,115,264310,38,0,L|318:166,1,52.5000020027161,2|0,0:0|1:0,0:0:0:0:
286,317,264482,38,0,L|233:310,1,52.5000020027161,12|0,0:0|0:0,0:0:0:0:
162,188,264654,38,0,L|110:196,1,52.5000020027161,0|2,1:0|3:2,0:0:0:0:
45,288,264827,6,0,P|45:322|63:400,1,83.9999974365235,6|0,1:0|0:0,0:0:0:0:
162,188,265172,2,0,P|162:155|145:77,1,83.9999974365235,8|0,0:0|0:0,0:0:0:0:
135,83,265431,2,0,L|224:81,1,83.9999974365235,2|0,1:2|0:0,0:0:0:0:
243,64,265689,1,0,1:0:0:0:
347,207,265862,1,8,0:0:0:0:
347,31,266034,1,0,0:0:0:0:
243,173,266206,5,0,1:0:0:0:
410,119,266379,1,2,0:0:0:0:
243,173,266551,2,0,P|241:237|248:281,1,83.9999974365235,8|2,0:0|0:0,0:0:0:0:
396,337,266896,6,0,B|330:300|246:374|177:321,1,188.999994232178,4|0,0:0|0:0,0:0:0:0:
122,270,267241,6,0,P|106:249|97:218,1,41.9999987182618,8|0,0:0|0:0,0:0:0:0:
73,128,267413,2,0,P|70:101|78:70,1,41.9999987182618,2|0,0:0|0:0,0:0:0:0:
248,48,267586,2,0,P|251:105|241:181,1,125.999996154785,0|2,1:0|1:2,0:0:0:0:
217,201,267931,1,8,0:0:0:0:
73,128,268103,1,0,0:0:0:0:
250,120,268275,2,0,P|311:127|364:138,1,83.9999974365235,0|0,1:0|0:0,0:0:0:0:
358,148,268534,2,0,L|350:202,1,41.9999987182618,2|8,1:2|0:0,0:0:0:0:
287,328,268793,1,0,0:0:0:0:
118,269,268965,6,0,P|149:233|192:206,1,83.9999974365235,0|0,1:0|1:0,0:0:0:0:
358,148,269310,1,8,0:0:0:0:
287,328,269482,1,2,0:0:0:0:
263,334,269569,1,10,0:0:0:0:
239,338,269655,1,4,0:0:0:0:
214,339,269741,1,10,0:0:0:0:
189,338,269827,1,0,1:0:0:0:
73,128,270000,6,0,P|118:131|157:151,1,78.7500030040742,12|0,0:0|0:0,0:0:0:0:
137,207,270344,6,0,L|160:103,1,83.9999974365235,0|0,1:0|0:0,0:0:0:0:
358,148,270689,2,0,L|256:180,1,83.9999974365235,8|0,0:0|0:0,0:0:0:0:
252,160,270948,2,0,P|245:102|257:57,1,83.9999974365235,2|0,1:2|0:0,0:0:0:0:
269,53,271206,1,0,1:0:0:0:
137,207,271379,1,8,0:0:0:0:
302,221,271551,1,0,0:0:0:0:
157,50,271724,5,0,1:0:0:0:
210,277,271896,1,2,0:0:0:0:
269,53,272068,1,8,0:0:0:0:
137,207,272241,1,2,0:0:0:0:
358,148,272413,6,0,B|302:107|212:195|145:120,1,188.999994232178,4|0,0:0|0:0,0:0:0:0:
71,81,272758,6,0,L|72:153,1,41.9999987182618,8|0,0:0|0:0,0:0:0:0:
137,248,272931,2,0,L|137:207,1,41.9999987182618,2|0,0:0|0:0,0:0:0:0:
72,341,273103,2,0,P|126:338|197:320,1,125.999996154785,0|2,1:0|1:2,0:0:0:0:
217,301,273448,1,8,0:0:0:0:
45,191,273620,1,0,0:0:0:0:
247,195,273793,2,0,L|163:194,1,83.9999974365235,0|0,1:0|0:0,0:0:0:0:
136,206,274051,2,0,P|135:238|139:255,1,41.9999987182618,2|8,1:2|0:0,0:0:0:0:
318,338,274310,1,0,0:0:0:0:
397,214,274482,6,0,P|381:148|370:122,1,83.9999974365235,0|0,1:0|1:0,0:0:0:0:
264,33,274827,1,8,0:0:0:0:
149,185,275000,1,2,0:0:0:0:
173,191,275087,1,10,0:0:0:0:
197,195,275173,1,4,0:0:0:0:
222,196,275259,1,10,0:0:0:0:
247,195,275345,1,0,1:0:0:0:
126,37,275517,6,0,P|87:74|63:112,1,78.7500030040742,12|0,0:0|1:0,0:0:0:0:
77,158,275862,6,0,P|64:106|43:66,1,83.9999974365235,4|0,1:0|1:0,0:0:0:0:
38,328,276206,2,0,P|78:362|119:380,1,83.9999974365235,8|0,0:0|0:0,0:0:0:0:
136,379,276465,2,0,P|170:338|188:297,1,83.9999974365235,2|0,1:2|0:0,0:0:0:0:
186,280,276724,1,0,1:0:0:0:
126,156,276896,1,8,0:0:0:0:
38,328,277068,1,0,0:0:0:0:
211,297,277241,5,0,1:0:0:0:
250,127,277413,1,2,0:0:0:0:
236,313,277586,2,0,P|280:324|322:323,1,83.9999974365235,8|2,0:0|0:0,0:0:0:0:
496,244,277931,6,0,B|430:202|373:279|290:230,1,188.999994232178,4|0,0:0|0:0,0:0:0:0:
447,305,278275,6,0,P|453:335|450:373,1,41.9999987182618,8|0,0:0|0:0,0:0:0:0:
348,174,278448,2,0,P|342:144|345:106,1,41.9999987182618,2|0,0:0|0:0,0:0:0:0:
491,17,278620,2,0,P|483:71|456:146,1,125.999996154785,0|2,1:0|1:2,0:0:0:0:
442,161,278965,1,8,0:0:0:0:
284,25,279137,1,0,0:0:0:0:
201,205,279310,2,0,L|204:103,1,83.9999974365235,0|0,1:0|0:0,0:0:0:0:
226,100,279568,2,0,P|254:97|271:102,1,41.9999987182618,2|8,1:2|0:0,0:0:0:0:
442,161,279827,1,0,0:0:0:0:
327,292,280000,6,0,P|279:295|221:284,1,83.9999974365235,0|0,1:0|1:0,0:0:0:0:
59,177,280344,1,8,0:0:0:0:
95,363,280517,1,2,0:0:0:0:
128,371,280603,1,10,0:0:0:0:
161,379,280689,1,4,0:0:0:0:
194,371,280776,1,10,0:0:0:0:
227,363,280862,1,0,1:0:0:0:
130,145,281034,6,0,B|91:156|91:156|52:181,1,78.7500030040742,12|0,0:0|0:0,0:0:0:0:
139,130,281379,6,0,L|110:42,1,83.9999974365235,0|0,1:0|0:0,0:0:0:0:
50,191,281724,2,0,L|78:278,1,83.9999974365235,8|0,0:0|0:0,0:0:0:0:
103,282,281982,2,0,P|155:266|192:231,1,83.9999974365235,2|0,1:2|0:0,0:0:0:0:
181,218,282241,1,0,1:0:0:0:
331,141,282413,1,8,0:0:0:0:
186,133,282586,1,0,0:0:0:0:
328,226,282758,5,0,1:0:0:0:
261,95,282931,1,2,0:0:0:0:
253,263,283103,2,0,P|259:315|279:362,1,83.9999974365235,8|2,0:0|0:0,0:0:0:0:
423,350,283448,2,0,B|450:281|380:225|414:149,1,188.999994232178,4|0,0:0|0:0,0:0:0:0:
481,71,283793,6,0,L|509:32,1,41.9999987182618,8|0,0:0|0:0,0:0:0:0:
363,56,283965,2,0,L|412:31,1,41.9999987182618,2|0,0:0|0:0,0:0:0:0:
261,95,284137,2,0,P|252:149|250:235,1,125.999996154785,0|2,1:0|1:2,0:0:0:0:
255,250,284482,1,8,0:0:0:0:
105,92,284655,1,0,0:0:0:0:
149,298,284827,2,0,P|155:256|157:189,1,83.9999974365235,0|0,1:0|0:2,0:0:0:0:
150,186,285086,2,0,L|107:184,1,41.9999987182618,2|8,1:2|0:0,0:0:0:0:
45,343,285344,1,0,0:0:0:0:
236,349,285517,6,0,B|285:345|295:331|295:331|355:330|355:330|377:308|415:314,1,178.500003404617,0|0,1:0|0:0,0:0:0:0:
341,331,285862,6,0,P|294:291|272:213,1,125.999996154785,8|0,0:0|1:0,0:0:0:0:
369,131,286206,6,0,P|379:184|352:250,1,105,8|0,0:0|0:0,0:0:0:0:
272,232,286551,6,0,L|241:237,1,20.9999993591309,4|0,0:0|0:0,0:0:0:0:
262,189,286638,6,0,L|231:183,1,20.9999993591309
266,146,286724,6,0,L|239:131,1,20.9999993591309,2|0,0:0|0:0,0:0:0:0:
286,108,286810,6,0,L|266:84,1,20.9999993591309
342,60,286896,5,4,1:0:0:0:
176,72,287241,2,0,L|76:70,1,70,8|0,0:0|0:0,0:0:0:0:
45,152,287586,2,0,P|39:198|44:238,1,70,0|0,0:0|1:0,0:0:0:0:
57,318,287931,1,8,0:0:0:0:
134,378,288103,1,2,0:0:0:0:
213,206,288275,6,0,P|201:137|176:71,1,140,0|8,1:0|0:0,0:0:0:0:
326,47,288793,2,0,P|306:102|304:138,1,70
380,236,289137,2,0,P|400:181|402:145,1,70,0|8,1:0|0:0,0:0:0:0:
213,206,289482,1,2,0:0:0:0:
280,324,289655,6,0,P|343:332|419:326,1,140,0|8,1:0|0:0,0:0:0:0:
419,325,290172,1,0,0:0:0:0:
185,322,290344,1,0,0:0:0:0:
198,353,290430,1,0,0:0:0:0:
220,379,290516,1,2,1:0:0:0:
287,180,290689,2,0,L|306:97,1,70,8|0,0:0|0:0,0:0:0:0:
128,89,291034,5,0,1:0:0:0:
128,89,291206,1,0,1:0:0:0:
30,212,291379,2,0,L|103:211,1,70,8|0,0:0|1:0,0:0:0:0:
114,236,291637,6,0,L|187:235,1,70,0|4,0:0|0:0,0:0:0:0:
215,260,291810,2,0,L|288:259,1,70,2|0,0:0|1:0,0:0:0:0:
404,304,292068,6,0,L|477:303,1,71.400000435791,12|0,0:0|0:0,0:0:0:0:
499,273,292413,6,0,P|496:234|486:198,1,70,0|0,1:0|0:0,0:0:0:0:
341,125,292758,2,0,P|344:164|354:200,1,70,8|0,0:0|0:0,0:0:0:0:
191,147,293103,2,0,P|188:108|178:72,1,70,0|0,0:0|1:0,0:0:0:0:
93,48,293448,1,8,0:0:0:0:
33,116,293620,1,2,0:0:0:0:
125,233,293793,6,0,P|171:241|267:228,1,140,0|8,1:0|0:0,0:0:0:0:
396,266,294310,2,0,P|350:268|306:286,1,70
409,358,294655,2,0,P|455:356|499:338,1,70,0|8,1:0|0:0,0:0:0:0:
255,346,295000,1,2,0:0:0:0:
309,192,295172,6,0,L|347:52,1,140,0|8,1:0|0:0,0:0:0:0:
345,56,295689,1,0,0:0:0:0:
250,234,295862,1,0,0:0:0:0:
277,255,295948,1,0,0:0:0:0:
311,263,296034,1,2,1:0:0:0:
121,162,296206,2,0,P|119:218|132:261,1,70,8|0,0:0|0:0,0:0:0:0:
177,50,296551,5,0,1:0:0:0:
177,50,296724,1,0,1:0:0:0:
121,231,296896,2,0,P|175:231|196:228,1,70,8|0,0:0|1:0,0:0:0:0:
215,201,297155,6,0,P|249:197|284:198,1,70,0|4,0:0|0:0,0:0:0:0:
320,229,297327,2,0,P|354:229|389:226,1,70,2|0,0:0|1:0,0:0:0:0:
202,299,297586,6,0,P|202:352|205:373,1,71.400000435791,12|0,0:0|0:0,0:0:0:0:
240,384,297931,6,0,P|287:380|317:371,1,70,0|0,1:0|0:0,0:0:0:0:
383,269,298275,1,8,0:0:0:0:
215,201,298448,2,0,L|132:162,1,70
331,139,298793,2,0,L|397:97,1,70,0|8,1:0|0:0,0:0:0:0:
390,101,299137,1,2,0:0:0:0:
227,104,299310,2,0,P|178:93|92:42,1,140,0|8,1:0|0:0,0:0:0:0:
37,137,299827,2,0,P|41:191|54:232,1,70
130,339,300172,2,0,P|126:285|113:244,1,70,0|8,1:0|0:0,0:0:0:0:
44,206,300517,1,2,0:0:0:0:
200,227,300689,6,0,P|238:222|342:191,1,140,0|8,1:0|0:0,0:0:0:0:
486,243,301206,1,0,0:0:0:0:
452,247,301292,1,2,0:0:0:0:
418,255,301378,1,0,0:0:0:0:
384,264,301464,1,2,0:0:0:0:
351,276,301550,1,0,1:0:0:0:
414,158,301724,2,0,P|418:120|410:58,1,70,8|2,0:0|0:0,0:0:0:0:
197,103,302068,2,0,P|227:125|285:149,1,70,0|0,1:0|1:0,0:0:0:0:
84,70,302413,2,0,P|87:108|108:166,1,70,8|0,0:0|0:0,0:0:0:0:
99,144,302672,1,0,0:0:0:0:
102,149,302758,1,0,0:0:0:0:
105,154,302844,1,2,0:0:0:0:
109,159,302931,1,0,1:0:0:0:
238,314,303103,6,0,P|234:282|217:233,1,71.400000435791,12|0,0:0|0:0,0:0:0:0:
194,227,303448,5,0,1:0:0:0:
352,201,303620,2,0,L|427:189,1,70,0|8,0:0|0:0,0:0:0:0:
254,145,303965,2,0,L|185:133,1,70
81,237,304310,2,0,P|79:290|90:331,1,70,0|8,1:0|0:0,0:0:0:0:
183,365,304655,1,2,0:0:0:0:
280,302,304827,1,0,1:0:0:0:
315,190,305000,2,0,L|341:102,1,70,0|8,0:0|0:0,0:0:0:0:
400,286,305344,2,0,L|430:384,1,70
457,148,305689,2,0,L|465:67,2,70,0|8|2,1:0|0:0|0:0,0:0:0:0:
315,190,306206,5,0,1:0:0:0:
204,99,306379,2,0,P|235:62|271:36,1,70,0|8,0:0|0:0,0:0:0:0:
121,134,306724,2,0,P|73:125|33:106,1,70
192,188,307068,2,0,P|208:233|211:277,2,70,0|8|2,1:0|0:0|0:0,0:0:0:0:
106,349,307586,1,0,1:0:0:0:
106,349,307758,1,0,1:0:0:0:
257,345,307931,6,0,L|394:336,1,136.499993751526,8|0,0:0|0:0,0:0:0:0:
440,312,308275,6,0,L|303:321,1,115.50000352478,8|0,0:0|0:0,0:0:0:0:
253,272,308620,6,0,L|222:262,1,20.9999993591309,4|0,0:0|0:0,0:0:0:0:
262,228,308707,6,0,L|236:209,1,20.9999993591309
285,192,308793,6,0,L|267:166,1,20.9999993591309,2|0,0:0|0:0,0:0:0:0:
319,166,308879,6,0,L|311:135,1,20.9999993591309
391,148,308965,5,4,1:0:0:0:
500,354,309310,2,0,P|508:318|497:255,1,70,8|0,0:0|0:0,0:0:0:0:
410,249,309655,1,2,0:0:0:0:
410,249,309741,1,0,0:0:0:0:
410,249,309827,1,0,1:0:0:0:
391,148,310000,2,0,L|388:49,1,70,8|0,0:0|0:0,0:0:0:0:
183,121,310344,2,0,P|235:133|275:131,1,70,0|0,1:0|0:0,0:0:0:0:
66,104,310689,2,0,P|57:162|65:202,1,70,8|0,0:0|0:0,0:0:0:0:
92,200,310948,2,0,P|92:234|83:268,1,70,0|0,1:0|0:0,0:0:0:0:
55,302,311206,1,0,1:0:0:0:
230,308,311379,2,0,L|330:313,1,70,8|4,0:0|0:0,0:0:0:0:
459,318,311724,5,0,1:0:0:0:
459,318,312068,2,0,P|453:271|454:225,1,70,8|0,0:0|0:0,0:0:0:0:
471,110,312413,1,2,0:0:0:0:
471,110,312500,1,0,0:0:0:0:
471,110,312586,1,0,1:0:0:0:
289,165,312758,2,0,P|248:166|209:161,1,70,8|0,0:0|0:0,0:0:0:0:
36,110,313103,1,0,1:0:0:0:
36,110,313275,1,0,1:0:0:0:
18,263,313448,2,0,L|91:262,1,70,8|0,0:0|1:0,0:0:0:0:
102,287,313706,6,0,L|175:286,1,70,0|4,0:0|0:0,0:0:0:0:
203,311,313879,2,0,L|276:310,1,70,2|0,0:0|1:0,0:0:0:0:
394,355,314137,6,0,L|467:354,1,71.400000435791,12|0,0:0|0:0,0:0:0:0:
499,354,314482,5,0,1:0:0:0:
499,354,314827,2,0,L|489:279,1,70,8|0,0:0|0:0,0:0:0:0:
466,145,315172,1,2,0:0:0:0:
466,145,315258,1,0,0:0:0:0:
466,145,315344,1,0,1:0:0:0:
292,210,315517,2,0,P|290:255|301:309,1,70,8|0,0:0|0:0,0:0:0:0:
345,132,315862,2,0,P|347:87|336:33,1,70,0|0,1:0|0:0,0:0:0:0:
109,115,316206,2,0,P|146:139|199:156,1,70,8|0,0:0|0:0,0:0:0:0:
212,140,316465,2,0,L|223:67,1,70,0|0,1:0|0:0,0:0:0:0:
227,27,316724,1,0,1:0:0:0:
95,198,316896,2,0,L|84:271,1,70,8|4,0:0|0:0,0:0:0:0:
289,289,317241,5,0,1:0:0:0:
289,289,317586,2,0,P|336:293|383:289,1,70,8|0,0:0|0:0,0:0:0:0:
474,213,317931,1,2,0:0:0:0:
474,213,318017,1,0,0:0:0:0:
474,213,318103,1,0,1:0:0:0:
323,223,318275,2,0,P|289:213|256:200,1,70,8|0,0:0|0:0,0:0:0:0:
159,85,318620,1,0,1:0:0:0:
159,85,318793,1,0,1:0:0:0:
118,205,318965,2,0,L|92:284,1,70,8|0,0:0|0:0,0:0:0:0:
199,355,319310,5,12,0:0:0:0:
205,360,319396,1,0,0:0:0:0:
211,365,319483,1,0,0:0:0:0:
217,370,319569,1,0,0:0:0:0:
241,370,319655,1,0,0:0:0:0:
265,370,319741,1,10,0:0:0:0:
289,370,319828,1,0,0:0:0:0:
313,370,319914,1,10,0:0:0:0:
337,370,320000,6,0,P|345:327|347:277,1,70,4|0,1:0|0:0,0:0:0:0:
255,152,320344,2,0,P|247:195|245:245,1,70,8|0,0:0|0:0,0:0:0:0:
343,85,320689,1,2,0:0:0:0:
343,85,320775,1,0,0:0:0:0:
343,85,320862,1,0,1:0:0:0:
192,95,321034,2,0,L|113:101,1,70,8|0,0:0|0:0,0:0:0:0:
43,231,321379,2,0,L|122:225,1,70,0|0,1:0|0:0,0:0:0:0:
319,292,321724,2,0,L|240:298,1,70,8|0,0:0|0:0,0:0:0:0:
211,279,321982,2,0,P|204:236|217:191,1,70,0|0,1:0|0:0,0:0:0:0:
241,182,322241,1,0,1:0:0:0:
390,214,322413,2,0,L|311:220,1,70,8|4,0:0|0:0,0:0:0:0:
113,226,322758,5,0,1:0:0:0:
113,226,323103,2,0,P|107:170|115:126,1,70,8|0,0:0|0:0,0:0:0:0:
196,62,323448,1,2,0:0:0:0:
196,62,323534,1,0,0:0:0:0:
196,62,323620,1,0,1:0:0:0:
359,71,323793,2,0,L|289:67,1,70,8|0,0:0|0:0,0:0:0:0:
104,56,324137,1,0,1:0:0:0:
104,56,324310,1,0,1:0:0:0:
102,255,324482,2,0,P|152:259|179:253,1,70,8|0,0:0|1:0,0:0:0:0:
255,216,324741,5,2,0:0:0:0:
260,199,324827,1,4,0:0:0:0:
243,193,324913,1,2,0:0:0:0:
238,211,325000,1,0,1:0:0:0:
360,70,325172,6,0,P|311:84|288:99,1,71.400000435791,12|0,0:0|0:0,0:0:0:0:
286,130,325517,5,0,1:0:0:0:
286,130,325862,2,0,L|376:137,1,70,8|0,0:0|0:0,0:0:0:0:
479,150,326206,1,2,0:0:0:0:
479,150,326293,1,0,0:0:0:0:
479,150,326379,1,0,1:0:0:0:
386,282,326551,2,0,P|385:221|396:188,1,70,8|0,0:0|0:0,0:0:0:0:
430,80,326896,5,0,1:0:0:0:
430,80,327241,2,0,L|341:75,1,70,8|0,0:0|0:0,0:0:0:0:
335,97,327500,2,0,L|246:92,1,70,0|0,1:0|0:0,0:0:0:0:
238,111,327758,1,0,1:0:0:0:
130,165,327931,2,0,L|41:160,1,70,8|4,0:0|0:0,0:0:0:0:
252,225,328275,5,0,1:0:0:0:
252,225,328620,2,0,P|303:231|341:231,1,70,8|0,0:0|0:0,0:0:0:0:
433,187,328965,1,2,0:0:0:0:
433,187,329051,1,0,0:0:0:0:
433,187,329137,1,0,1:0:0:0:
252,224,329310,6,0,P|246:276|250:311,1,71.400000435791,12|0,0:0|0:0,0:0:0:0:
267,323,329655,5,0,1:0:0:0:
293,334,329741,1,0,0:0:0:0:
322,335,329828,1,2,0:0:0:0:
347,322,329914,1,0,0:0:0:0:
363,294,330000,1,8,0:0:0:0:
362,259,330086,5,8,0:0:0:0:
346,219,330172,1,8,0:0:0:0:
347,173,330259,5,8,0:0:0:0:
375,128,330344,1,4,0:0:0:0:
474,207,330517,5,0,3:0:0:0:
270,243,330689,2,0,L|246:219,2,26.2500010013581,2|0|0,0:0|0:0|0:0,0:0:0:0:
375,128,331034,1,4,1:0:0:0:
