osu file format v9

[General]
AudioFilename: Sera, Sera.mp3
AudioLeadIn: 0
PreviewTime: 28810
Countdown: 0
SampleSet: Normal
StackLeniency: 0.7
Mode: 1
LetterboxInBreaks: 1

[Editor]
Bookmarks: 38410,48010,96010,98410,115210,124810,160810,165610
DistanceSpacing: 0.85
BeatDivisor: 4
GridSize: 8

[Metadata]
Title:Sera, Sera
Artist:Shakira ft. Wyclef Jean
Creator:Krisom
Version:lepidon! - Taiko Oni
Source:
Tags:Las Caderas no mienten Hips don't lie lepidopodus

[Difficulty]
HPDrainRate:5
CircleSize:5
OverallDifficulty:5
ApproachRate:5
SliderMultiplier:1.4
SliderTickRate:1

[Events]
//Background and Video events
0,0,"BGtaiko.jpg"
//Break Periods
//Storyboard Layer 0 (Background)
//Storyboard Layer 1 (Fail)
//Storyboard Layer 2 (Pass)
//Storyboard Layer 3 (Foreground)
//Storyboard Sound Samples
//Background Colour Transformations
3,100,163,162,255

[TimingPoints]
9630,300,4,1,0,85,1,0
28830,-100,4,1,0,85,0,1
38430,-100,4,1,0,85,0,0
76830,-100,4,1,0,85,0,1
96030,-100,4,1,0,85,0,0
184830,-100,4,1,0,85,0,1
204030,-100,4,1,0,85,0,0

[Colours]
Combo1 : 238,253,253
Combo2 : 57,240,4
Combo3 : 244,0,0
Combo4 : 22,122,222
Combo5 : 250,194,5
SliderBorder : 0,0,0

[HitObjects]
159,154,9630,1,0
212,180,9780,1,0
271,180,9930,1,8
327,197,10080,1,8
379,169,10230,1,0
438,174,10380,1,0
470,223,10530,1,8
428,265,10680,1,0
376,295,10830,1,0
257,293,11130,1,0
288,178,11430,1,8
386,111,11730,1,8
438,174,11880,1,8
389,208,12030,1,0
334,232,12180,1,0
376,189,12330,1,8
409,139,12480,1,8
455,176,12630,1,0
444,234,12780,1,0
402,191,12930,1,8
367,239,13080,1,0
309,252,13230,1,0
190,252,13530,1,8
278,172,13830,1,8
389,131,14130,1,0
441,159,14280,1,8
407,207,14430,5,0
373,256,14580,1,0
320,284,14730,1,8
263,302,14880,1,8
273,243,15030,1,0
360,162,15330,1,8
423,61,15630,1,4
483,229,16080,1,8
442,185,16230,1,0
370,90,16530,1,8
286,174,16830,1,4
459,131,17280,1,8
442,185,17430,1,0
465,301,17730,1,8
430,252,17880,1,0
400,255,17955,1,0
372,265,18030,1,0
392,147,18330,1,8
338,173,18480,1,0
402,173,18555,1,0
288,206,18630,1,0
402,173,18930,1,8
293,125,19230,5,0
377,208,19530,1,8
423,245,19680,1,8
373,278,19830,1,0
314,287,19980,1,0
349,239,20130,1,8
402,173,20280,1,0
349,201,20430,1,0
442,126,20730,1,8
461,243,21030,1,8
224,192,21630,1,0
344,176,21930,1,8
400,168,22080,1,8
384,224,22230,1,0
352,272,22380,1,0
384,224,22530,1,8
456,128,22830,1,8
424,176,22980,1,0
416,232,23130,1,0
448,184,23280,1,8
448,184,23430,1,0
344,128,23730,1,12
272,224,24030,5,0
448,184,24180,1,0
488,224,24330,1,8
432,152,24480,1,8
424,208,24630,1,0
360,104,24930,1,8
272,176,25230,1,4
448,160,25680,1,8
512,192,25830,1,0
392,192,26130,1,8
352,80,26430,1,4
448,160,26880,1,8
416,208,27030,1,0
448,160,27330,1,8
392,176,27480,1,0
336,208,27630,1,0
272,304,27930,1,0
184,224,28230,1,0
240,240,28380,1,0
280,152,28530,1,0
336,168,28680,1,8
360,224,28830,5,4
448,264,29430,1,12
344,48,30030,1,4
400,152,30330,1,12
448,264,30480,1,4
344,208,30780,1,8
296,240,30930,1,8
240,216,31080,1,8
296,200,31230,1,0
400,256,31530,1,8
416,136,31830,1,0
408,168,31905,1,0
408,168,31980,1,0
456,208,32130,1,8
432,264,32280,1,8
376,248,32430,1,0
320,248,32580,1,0
352,200,32730,1,8
368,144,32880,1,0
480,176,33180,1,8
376,248,33330,1,0
264,216,33630,5,4
392,288,34080,1,0
440,168,34230,1,8
464,224,34530,1,0
352,256,34830,1,4
192,336,35280,1,0
240,296,35430,1,8
328,224,35730,1,0
424,296,36030,1,4
304,280,36330,1,0
360,256,36480,1,0
392,208,36630,1,8
480,136,36930,1,0
456,192,37080,1,0
456,248,37230,1,8
408,216,37380,1,0
288,240,37680,1,0
232,256,37830,1,0
336,320,38130,1,0
360,200,38430,5,0
256,144,38730,1,0
312,152,39030,1,8
504,288,39630,1,0
384,280,39930,1,0
392,224,40080,1,8
416,168,40230,1,0
312,216,40530,1,0
360,184,40680,1,8
416,216,40830,1,0
488,120,41130,1,8
456,168,41280,1,0
424,216,41430,1,0
464,224,41730,1,8
424,216,41880,1,0
376,256,42030,1,0
320,264,42180,1,0
320,208,42330,1,8
352,160,42480,1,0
296,184,42630,1,0
272,200,42780,1,0
312,152,42930,1,8
192,136,43230,5,0
312,136,43530,1,8
352,176,43830,1,0
488,376,44430,1,0
448,296,44730,1,8
424,208,44880,1,0
448,152,45030,1,0
344,96,45330,1,8
352,152,45480,1,0
336,208,45630,1,0
448,176,45930,1,8
432,232,46080,1,0
360,248,46530,1,8
400,208,46680,1,0
456,216,46830,1,0
424,168,46980,1,8
384,120,47130,1,8
400,176,47280,1,0
400,176,47430,1,8
416,224,47730,1,0
296,240,48030,5,0
328,288,48180,1,0
312,232,48330,1,8
328,176,48480,1,8
384,160,48630,1,0
472,72,48930,1,8
448,128,49080,1,0
424,184,49230,1,0
472,200,49530,1,8
480,256,49680,1,8
312,232,49830,1,0
328,288,49980,1,0
424,184,50130,1,8
424,240,50280,1,0
408,296,50430,1,0
400,176,50730,1,8
440,184,50880,1,0
320,200,51180,1,0
376,224,51330,1,8
424,184,51480,1,0
432,240,51630,1,0
400,288,51780,1,0
440,184,51930,1,8
440,128,52080,1,8
384,120,52230,1,0
392,240,52530,1,8
272,216,52830,5,0
248,160,52980,1,0
304,160,53130,1,8
360,168,53280,1,8
416,200,53430,1,0
432,256,53580,1,0
472,208,53730,1,8
440,160,53880,1,0
392,120,54030,1,0
392,216,54330,1,8
400,272,54480,1,8
392,216,54630,1,0
424,168,54780,1,0
480,160,54930,1,8
456,216,55080,1,0
408,248,55230,1,0
360,280,55380,1,0
360,168,55530,1,8
312,208,55680,1,0
248,200,56130,1,8
456,216,56280,1,0
400,208,56430,1,0
344,216,56580,1,0
376,168,56730,1,8
432,152,56880,1,8
440,208,57030,1,0
376,168,57330,1,8
256,176,57630,5,0
200,192,57780,1,0
256,208,57930,1,8
312,224,58080,1,8
352,264,58230,1,0
408,240,58380,1,0
392,184,58530,1,8
384,128,58680,1,0
336,160,58830,1,0
256,248,59130,1,0
392,184,59430,1,8
392,304,59730,1,8
336,336,59880,1,8
328,280,60030,1,0
352,224,60180,1,0
408,200,60330,1,8
424,144,60480,1,8
456,192,60630,1,0
440,248,60780,1,0
448,192,60930,1,8
424,248,61080,1,0
368,256,61230,1,0
248,256,61530,1,8
328,168,61830,1,8
208,168,62130,1,0
264,168,62280,1,8
320,192,62430,5,0
424,248,62580,1,0
448,192,62730,1,8
432,136,62880,1,8
400,192,63030,1,0
336,296,63330,1,8
288,192,63630,1,4
432,88,64080,1,8
440,144,64230,1,0
464,264,64530,1,8
352,224,64830,1,4
480,104,65280,1,8
448,152,65430,1,0
424,272,65730,1,8
368,248,65880,1,0
336,248,65955,1,0
304,248,66030,1,0
392,168,66330,1,8
448,192,66480,1,0
432,216,66555,1,0
424,248,66630,1,0
400,128,66930,1,8
293,125,67230,5,0
377,208,67530,1,8
423,245,67680,1,8
373,278,67830,1,0
314,287,67980,1,0
349,239,68130,1,8
402,173,68280,1,0
349,201,68430,1,0
442,126,68730,1,8
461,243,69030,1,8
384,224,69330,1,12
224,192,69630,1,0
344,176,69930,1,8
400,168,70080,1,8
384,224,70230,1,0
352,272,70380,1,0
384,224,70530,1,8
456,128,70830,1,8
424,176,70980,1,0
416,232,71130,1,0
448,184,71280,1,8
448,184,71430,1,0
344,128,71730,1,12
272,224,72030,5,0
448,184,72180,1,0
488,224,72330,1,8
432,152,72480,1,8
424,208,72630,1,0
360,104,72930,1,8
272,176,73230,1,4
448,160,73680,1,8
512,192,73830,1,0
392,192,74130,1,8
352,80,74430,1,4
448,160,74880,1,8
416,208,75030,1,0
448,160,75330,1,8
392,176,75480,1,0
336,208,75630,1,0
272,304,75930,1,0
184,224,76230,1,0
240,240,76380,1,0
280,152,76530,1,0
336,144,76680,1,8
392,128,76830,5,4
480,192,77430,1,12
288,336,78030,1,4
392,272,78330,1,12
376,216,78480,1,4
320,112,78780,1,8
368,144,78930,1,8
408,192,79080,1,8
440,144,79230,1,0
448,264,79530,1,8
336,224,79830,1,0
304,232,79905,1,0
280,240,79980,1,0
408,128,80130,1,8
360,168,80280,1,8
408,192,80430,1,0
400,248,80580,1,0
432,192,80730,1,8
392,144,80880,1,0
496,208,81180,1,8
440,224,81330,1,0
344,296,81630,5,4
168,304,82080,1,0
224,280,82230,1,8
328,224,82530,1,0
384,328,82830,1,4
216,272,83280,1,0
272,248,83430,1,8
376,184,83730,1,0
424,296,84030,1,4
304,280,84330,1,0
360,256,84480,1,0
392,208,84630,1,8
336,216,84780,1,0
480,136,84930,1,0
456,192,85080,1,0
456,248,85230,1,8
408,216,85380,1,0
288,240,85680,1,0
232,256,85830,1,0
336,320,86130,1,0
312,200,86430,5,4
384,320,87030,1,4
400,264,87180,1,12
416,208,87330,1,12
416,152,87480,1,12
360,176,87630,1,4
352,296,87930,1,12
384,240,88080,1,4
312,144,88380,1,8
280,200,88530,1,8
280,256,88680,1,8
336,240,88830,1,0
440,176,89130,1,8
320,152,89430,1,0
336,176,89505,1,0
336,176,89580,1,0
392,168,89730,1,8
448,160,89880,1,8
456,216,90030,1,0
432,272,90180,1,0
384,240,90330,1,8
392,168,90480,1,0
392,168,90780,1,8
424,224,90930,1,0
312,256,91230,5,4
224,336,91680,1,0
272,304,91830,1,8
384,272,92130,1,0
288,200,92430,1,4
440,104,92880,1,0
448,160,93030,1,8
368,248,93330,1,0
424,296,93630,1,4
304,280,93930,1,0
360,256,94080,1,0
392,208,94230,1,8
480,136,94530,1,0
456,192,94680,1,0
456,248,94830,1,8
408,216,94980,1,0
288,240,95280,1,0
232,256,95430,1,0
336,320,95730,1,0
408,176,96330,5,0
504,248,96630,1,8
304,120,97230,1,0
224,136,97430,1,0
160,184,97630,1,0
232,208,97830,1,0
312,224,98030,1,0
392,248,98230,1,0
328,296,98430,1,0
360,184,98730,1,0
408,152,98880,1,0
464,176,99030,1,8
344,168,99330,1,0
288,176,99480,1,0
320,224,99630,1,0
368,264,99780,1,0
424,240,99930,1,8
464,176,100080,1,0
456,120,100380,1,8
408,232,100530,1,0
312,160,100830,5,0
424,240,101130,1,8
304,240,101430,1,0
88,136,102030,1,0
176,144,102330,1,8
256,184,102480,1,0
328,232,102630,1,0
392,168,102930,1,8
440,240,103080,1,0
383,259,103230,1,0
461,169,103530,1,8
438,224,103680,1,0
336,286,103980,1,0
461,169,104130,1,8
417,209,104280,1,0
363,235,104430,1,0
308,258,104580,1,0
350,216,104730,1,8
404,239,104880,1,0
422,295,105030,1,0
461,169,105180,1,8
400,168,105330,1,0
280,160,105630,5,0
336,152,105780,1,8
461,169,105930,1,8
440,224,106080,1,8
392,264,106230,1,0
456,168,106530,1,8
456,224,106680,1,0
432,280,106830,1,0
456,168,107130,1,8
336,176,107430,1,0
208,376,108030,1,0
256,336,108180,1,8
352,272,108480,1,0
296,256,108630,1,0
400,200,108930,1,8
336,96,109230,1,0
360,152,109380,1,0
416,168,109530,1,8
432,224,109680,1,8
376,248,109830,1,0
320,224,109980,1,0
360,176,110130,1,8
240,192,110430,5,0
200,232,110580,1,0
256,232,110730,1,8
304,272,110880,1,8
360,272,111030,1,8
400,232,111180,1,0
424,176,111330,1,0
456,120,111480,1,8
240,192,111630,1,0
184,216,111780,1,0
232,256,111930,1,0
288,256,112080,1,8
376,240,112230,1,0
344,192,112380,1,0
400,184,112530,1,8
432,232,112680,1,0
456,120,112830,1,4
400,224,113430,1,4
304,320,114030,1,4
472,152,114630,1,12
400,248,114930,1,12
352,144,115230,5,4
368,320,115680,1,8
312,296,115830,1,8
256,280,115980,1,8
200,264,116130,1,8
304,216,116430,1,0
408,160,116730,1,8
424,280,117030,1,0
376,320,117180,1,0
320,320,117330,1,0
344,264,117480,1,8
376,216,117630,1,0
456,128,117930,1,8
432,184,118080,1,8
448,240,118230,1,0
424,280,118380,1,0
432,224,118530,1,8
320,184,118830,5,0
440,176,119130,1,8
320,160,119430,1,0
376,184,119580,1,0
440,176,119730,1,8
416,232,119880,1,0
384,280,120030,1,0
488,136,120480,1,8
472,160,120555,1,8
416,232,120630,1,8
368,200,120780,1,8
344,256,120930,1,8
224,240,121230,1,0
472,160,121530,1,8
344,256,121830,1,0
416,232,121980,1,8
472,240,122280,1,8
416,232,122430,1,0
360,232,122580,1,0
416,128,122880,1,8
408,184,123030,1,0
368,224,123180,1,0
376,168,123330,1,8
256,192,123630,1,0
232,136,123780,1,0
264,88,123930,1,0
320,80,124080,1,0
296,136,124230,1,0
280,192,124380,1,0
232,224,124530,1,0
208,240,124605,1,0
184,256,124680,1,0
159,154,124830,5,0
212,180,124980,1,0
271,180,125130,1,8
327,197,125280,1,8
379,169,125430,1,0
438,174,125580,1,0
470,223,125730,1,8
428,265,125880,1,0
376,295,126030,1,0
257,293,126330,1,0
288,178,126630,1,8
386,111,126930,1,8
438,174,127080,1,8
389,208,127230,1,0
334,232,127380,1,0
376,189,127530,1,8
409,139,127680,1,8
455,176,127830,1,0
444,234,127980,1,0
402,191,128130,1,8
367,239,128280,1,0
309,252,128430,1,0
190,252,128730,1,8
278,172,129030,1,8
389,131,129330,1,0
441,159,129480,1,8
407,207,129630,5,0
373,256,129780,1,0
320,284,129930,1,8
263,302,130080,1,8
273,243,130230,1,0
360,162,130530,1,8
423,61,130830,1,4
483,229,131280,1,8
442,185,131430,1,0
370,90,131730,1,8
286,174,132030,1,4
459,131,132480,1,8
442,185,132630,1,0
465,301,132930,1,8
430,252,133080,1,0
400,255,133155,1,0
372,265,133230,1,0
392,147,133530,1,8
338,173,133680,1,0
402,173,133755,1,0
288,206,133830,1,0
402,173,134130,1,8
293,125,134430,5,0
377,208,134730,1,8
423,245,134880,1,8
373,278,135030,1,0
314,287,135180,1,0
349,239,135330,1,8
402,173,135480,1,0
349,201,135630,1,0
442,126,135930,1,8
461,243,136230,1,8
373,278,136530,1,12
224,192,136830,1,0
344,176,137130,1,8
400,168,137280,1,8
384,224,137430,1,0
352,272,137580,1,0
384,224,137730,1,8
456,128,138030,1,8
424,176,138180,1,0
416,232,138330,1,0
448,184,138480,1,8
448,184,138630,1,0
344,128,138930,1,12
272,224,139230,5,0
448,184,139380,1,0
488,224,139530,1,8
432,152,139680,1,8
424,208,139830,1,0
360,104,140130,1,8
272,176,140430,1,4
448,160,140880,1,8
512,192,141030,1,0
392,192,141330,1,8
352,80,141630,1,4
448,160,142080,1,8
416,208,142230,1,0
448,160,142530,1,8
392,176,142680,1,0
336,208,142830,1,0
272,304,143130,1,0
184,224,143430,1,0
240,240,143580,1,0
280,152,143730,1,0
336,168,143880,1,0
256,168,143955,1,0
370,216,144030,5,0
352,224,144180,1,4
448,152,144480,1,12
464,208,144630,1,4
360,152,144930,1,12
352,224,145380,1,4
448,152,145680,1,12
464,208,145830,1,4
360,152,146130,1,12
243,178,146430,1,0
239,237,146580,1,0
290,266,146730,1,0
464,208,146880,1,8
442,263,147030,1,0
399,304,147180,1,0
419,248,147330,1,8
401,191,147480,1,0
356,230,147630,1,0
265,152,147930,1,0
324,151,148080,1,8
381,164,148230,1,0
479,230,148530,1,8
363,258,148830,5,0
247,287,148980,1,0
147,222,149280,1,0
318,292,149430,2,0,B|100:105|439:92|440:92|440:92|289:235,1,560
426,160,150930,1,8
363,258,151230,1,0
247,287,151380,1,0
352,342,151680,1,0
318,292,151830,2,0,B|100:105|439:92|440:92|440:92|289:235,1,560
413,188,153330,1,8
360,216,153480,1,0
321,261,153630,5,0
269,290,153780,1,0
213,184,154080,1,0
271,172,154230,1,8
314,282,154530,2,0,B|471:50|471:50|315:66,1,420
238,138,155730,1,8
244,256,156030,1,0
296,284,156180,1,0
354,293,156330,1,0
388,244,156480,1,8
422,195,156630,1,0
495,101,156930,1,8
466,153,157080,1,0
438,205,157230,1,0
354,293,157530,1,8
341,234,157680,1,0
299,191,157830,1,0
410,150,158130,1,4
253,235,158580,5,12
426,191,159030,1,8
366,294,159330,1,0
330,341,159480,1,0
374,301,159630,1,8
407,251,159780,1,0
379,240,159930,1,0
319,241,160080,1,8
262,223,160230,1,0
376,189,160530,1,8
274,127,160830,1,0
390,150,161130,1,8
431,192,161280,1,8
459,244,161430,1,0
343,273,161730,1,8
274,127,162030,1,0
390,150,162330,1,8
431,192,162480,1,8
459,244,162630,1,0
343,273,162930,1,8
274,127,163230,1,0
390,150,163530,1,8
431,192,163680,1,8
459,244,163830,1,0
343,273,164130,1,8
227,244,164430,1,0
194,129,164730,1,8
213,151,164805,1,8
233,172,164880,1,8
459,244,165030,1,0
490,129,165330,1,8
375,162,165630,5,0
353,217,165780,1,0
339,274,165930,1,0
398,273,166080,1,8
415,216,166230,1,0
415,216,166380,1,0
458,175,166530,1,8
462,234,166680,1,0
404,249,166830,1,0
345,257,166980,1,0
286,248,167130,1,0
338,219,167280,1,8
386,184,167430,1,0
445,190,167580,1,0
407,143,167730,1,8
404,249,168030,1,0
345,257,168180,1,0
286,248,168330,1,0
338,219,168480,1,8
386,184,168630,1,0
445,190,168780,1,0
407,143,168930,1,8
448,185,169080,1,0
309,304,169230,1,4
190,292,169530,1,4
306,269,169830,1,4
398,193,170130,1,4
280,172,170430,5,0
220,172,170580,1,0
159,274,170880,1,0
218,266,171030,1,8
336,264,171330,1,0
394,276,171480,1,0
446,303,171630,1,0
342,244,171930,1,0
303,198,172080,1,0
270,148,172230,1,8
181,227,172530,1,0
284,286,172830,1,0
395,245,173130,1,0
435,201,173280,1,8
414,145,173580,1,0
444,195,173730,1,8
423,250,173880,1,8
376,212,174030,1,4
257,224,174330,1,4
159,292,174630,1,4
277,288,174930,1,4
387,243,175230,5,0
382,183,175380,1,0
368,125,175530,1,8
337,73,175680,1,8
376,120,175830,1,8
352,240,176130,1,8
336,296,176280,1,8
320,352,176430,1,0
424,296,176730,1,8
424,240,176880,1,8
424,184,177030,1,0
384,136,177180,1,8
328,152,177330,1,8
280,184,177480,1,8
232,216,177630,1,0
312,304,177930,1,0
360,264,178080,1,8
400,224,178230,1,0
472,128,178530,1,8
448,184,178680,1,0
432,240,178830,1,0
384,272,178980,1,0
376,216,179130,1,8
352,160,179280,1,8
328,216,179430,1,8
232,152,179730,1,8
136,216,180030,5,0
176,264,180180,1,0
288,304,180480,1,0
328,264,180630,1,8
432,200,180930,1,0
408,256,181080,1,0
384,312,181230,1,0
328,344,181380,1,0
352,288,181530,1,8
344,232,181680,1,0
288,304,181830,1,0
344,200,182130,1,8
224,184,182430,1,0
344,168,182730,1,8
400,176,182880,1,0
432,224,183030,1,0
456,104,183330,1,8
432,224,183480,1,0
400,272,183630,1,0
344,296,183780,1,8
288,312,183930,1,0
368,224,184230,1,0
336,336,184530,1,0
392,128,184830,5,4
480,192,185430,1,12
288,336,186030,1,4
392,272,186330,1,12
376,216,186480,1,4
320,112,186780,1,8
368,144,186930,1,8
408,192,187080,1,8
440,144,187230,1,0
448,264,187530,1,8
336,224,187830,1,0
304,232,187905,1,0
280,240,187980,1,0
408,128,188130,1,8
360,168,188280,1,8
408,192,188430,1,0
400,248,188580,1,0
432,192,188730,1,8
392,144,188880,1,0
496,208,189180,1,8
440,224,189330,1,0
344,296,189630,5,4
168,304,190080,1,0
224,280,190230,1,8
328,224,190530,1,0
384,328,190830,1,4
216,272,191280,1,0
272,248,191430,1,8
376,184,191730,1,0
424,296,192030,1,4
304,280,192330,1,0
360,256,192480,1,0
392,208,192630,1,8
336,216,192780,1,0
480,136,192930,1,0
456,192,193080,1,0
456,248,193230,1,8
408,216,193380,1,0
288,240,193680,1,0
232,256,193830,1,0
336,320,194130,1,0
312,200,194430,5,4
384,320,195030,1,4
400,264,195180,1,12
416,208,195330,1,12
416,152,195480,1,12
360,176,195630,1,4
352,296,195930,1,12
384,240,196080,1,4
312,144,196380,1,8
280,200,196530,1,8
280,256,196680,1,8
336,240,196830,1,0
440,176,197130,1,8
320,152,197430,1,0
336,176,197505,1,0
336,176,197580,1,0
392,168,197730,1,8
448,160,197880,1,8
456,216,198030,1,0
432,272,198180,1,0
384,240,198330,1,8
392,168,198480,1,0
392,168,198780,1,8
424,224,198930,1,0
312,256,199230,5,4
224,336,199680,1,0
272,304,199830,1,8
384,272,200130,1,0
288,200,200430,1,4
440,104,200880,1,0
448,160,201030,1,8
368,248,201330,1,0
424,296,201630,1,4
304,280,201930,1,0
360,256,202080,1,0
392,208,202230,1,8
480,136,202530,1,0
456,192,202680,1,0
456,248,202830,1,8
408,216,202980,1,0
288,240,203280,1,0
232,256,203430,1,0
336,320,203730,1,0
240,248,204030,6,0,B|136:144,1,140
264,160,204630,1,8
352,240,204930,1,0
248,184,205230,2,0,B|88:152,1,140
216,208,205830,1,0
264,240,205980,1,0
320,232,206130,1,8
368,200,206280,1,0
384,144,206430,2,0,B|224:80,1,140
336,176,207030,1,8
408,272,207330,1,0
248,184,207630,2,0,B|88:152,1,140
216,208,208230,1,0
264,240,208380,1,0
320,232,208530,1,8
368,200,208680,1,0
312,168,208830,6,0,B|152:120,1,140
296,112,209430,1,8
384,192,209730,1,0
312,288,210030,2,0,B|152:288,1,140
264,216,210630,1,8
368,160,210930,1,0
352,280,211230,2,0,B|16:192|224:32|224:32|120:344|120:344|432:160,1,1085
