osu file format v9

[General]
AudioFilename: Sera, Sera.mp3
AudioLeadIn: 0
PreviewTime: 28810
Countdown: 0
SampleSet: Soft
StackLeniency: 0.7
Mode: 0
LetterboxInBreaks: 1

[Editor]
Bookmarks: 38410,48010,96010,98410,115210,124810,160810,165610
DistanceSpacing: 0.85
BeatDivisor: 4
GridSize: 4

[Metadata]
Title:Sera, Sera
Artist:Shakira ft. Wyclef Jean
Creator:Krisom
Version:Insane
Source:
Tags:Las Caderas no mienten Hips don't lie lepidopodus

[Difficulty]
HPDrainRate:5
CircleSize:5
OverallDifficulty:5
ApproachRate:8
SliderMultiplier:1.5
SliderTickRate:1

[Events]
//Background and Video events
0,0,"BG.jpg"
//Break Periods
2,38630,47280
2,96230,97680
2,115430,124080
2,160880,164880
//Storyboard Layer 0 (Background)
//Storyboard Layer 1 (Fail)
//Storyboard Layer 2 (Pass)
//Storyboard Layer 3 (Foreground)
//Storyboard Sound Samples
//Background Colour Transformations
3,100,163,162,255

[TimingPoints]
9630,300,4,2,0,100,1,0
9855,-100,4,1,1,70,0,0
10005,-100,4,2,1,100,0,0
10755,-100,4,1,1,71,0,0
11355,-100,4,2,1,100,0,0
11955,-100,4,1,1,70,0,0
12105,-100,4,2,1,100,0,0
12255,-100,4,1,1,70,0,0
12405,-100,4,2,1,100,0,0
13155,-100,4,1,1,70,0,0
13755,-100,4,2,1,100,0,0
14355,-100,4,1,1,70,0,0
14505,-100,4,2,1,100,0,0
14655,-100,4,1,1,70,0,0
14955,-100,4,2,1,100,0,0
15255,-100,4,1,1,70,0,0
15555,-100,4,2,1,100,0,0
16455,-100,4,1,1,70,0,0
16755,-100,4,2,1,100,0,0
17655,-100,4,1,1,70,0,0
17955,-100,4,2,1,100,0,0
18405,-100,4,1,1,70,0,0
18555,-100,4,2,1,100,0,0
18855,-100,4,1,1,70,0,0
19755,-100,4,2,1,100,0,0
20055,-100,4,1,1,71,0,0
20655,-100,4,2,1,100,0,0
20955,-100,4,1,1,70,0,0
21855,-100,4,2,1,100,0,0
22155,-100,4,1,1,70,0,0
22605,-100,4,2,1,100,0,0
22755,-100,4,1,1,70,0,0
23055,-100,4,2,1,100,0,0
23655,-100,4,1,1,70,0,0
24405,-100,4,2,1,100,0,0
24855,-100,4,1,1,70,0,0
25155,-100,4,2,1,100,0,0
26055,-100,4,1,1,70,0,0
26355,-100,4,2,1,100,0,0
26955,-100,4,1,1,40,0,0
27255,-100,4,1,1,50,0,0
27555,-100,4,1,1,60,0,0
27855,-100,4,1,1,70,0,0
28155,-100,4,1,1,80,0,0
28455,-100,4,1,1,90,0,0
28830,-83.3333333333333,4,2,1,100,0,1
29355,-83.3333333333333,4,1,1,70,0,1
30405,-83.3333333333333,4,2,1,100,0,1
30855,-83.3333333333333,4,1,1,70,0,1
31455,-83.3333333333333,4,2,1,100,0,1
32355,-83.3333333333333,4,1,1,70,0,1
32655,-83.3333333333333,4,2,1,100,0,1
33255,-83.3333333333333,4,1,1,70,0,1
33555,-83.3333333333333,4,1,1,50,0,1
34005,-83.3333333333333,4,2,1,100,0,1
34455,-83.3333333333333,4,1,1,70,0,1
34755,-83.3333333333333,4,1,1,50,0,1
35205,-83.3333333333333,4,2,1,100,0,1
35655,-83.3333333333333,4,1,1,70,0,1
35955,-83.3333333333333,4,1,1,50,0,1
38430,-100,4,1,1,70,0,0
48105,-100,4,2,1,100,0,0
48255,-100,4,1,1,70,0,0
48555,-100,4,2,1,100,0,0
48855,-100,4,1,1,70,0,0
49455,-100,4,2,1,100,0,0
49755,-100,4,1,1,70,0,0
50055,-100,4,2,1,100,0,0
50205,-100,4,1,1,70,0,0
51405,-100,4,2,1,100,0,0
51705,-100,4,1,1,70,0,0
52155,-100,4,2,1,100,0,0
52455,-100,4,1,1,70,0,0
52905,-100,4,2,1,100,0,0
53055,-100,4,1,1,70,0,0
53355,-100,4,2,1,100,0,0
53655,-100,4,1,1,70,0,0
54255,-100,4,2,1,100,0,0
54555,-100,4,1,1,70,0,0
54855,-100,4,2,1,100,0,0
55005,-100,4,1,1,70,0,0
56205,-100,4,2,1,100,0,0
56355,-100,4,1,1,70,0,0
56505,-100,4,2,1,100,0,0
56655,-100,4,1,1,70,0,0
56805,-100,4,2,1,100,0,0
56955,-100,4,1,1,70,0,0
57555,-100,4,2,1,100,0,0
57705,-100,4,2,1,100,0,0
57855,-100,4,1,1,70,0,0
58005,-100,4,2,1,100,0,0
58755,-100,4,1,1,70,0,0
59355,-100,4,2,1,100,0,0
59955,-100,4,1,1,71,0,0
60105,-100,4,2,1,100,0,0
60255,-100,4,1,1,70,0,0
60405,-100,4,2,1,100,0,0
61155,-100,4,1,1,70,0,0
61755,-100,4,2,1,100,0,0
62355,-100,4,1,1,71,0,0
62505,-100,4,2,1,100,0,0
62655,-100,4,1,1,70,0,0
62955,-100,4,2,1,100,0,0
63255,-100,4,1,1,70,0,0
63555,-100,4,2,1,100,0,0
64455,-100,4,1,1,70,0,0
64755,-100,4,2,1,100,0,0
65655,-100,4,1,1,70,0,0
65955,-100,4,2,1,100,0,0
66405,-100,4,1,1,70,0,0
66555,-100,4,2,1,100,0,0
66855,-100,4,1,1,70,0,0
67755,-100,4,2,1,100,0,0
68055,-100,4,1,1,70,0,0
68655,-100,4,2,1,100,0,0
68955,-100,4,1,1,70,0,0
69855,-100,4,2,1,100,0,0
70155,-100,4,1,1,70,0,0
70605,-100,4,2,1,100,0,0
70755,-100,4,1,1,70,0,0
71055,-100,4,2,1,100,0,0
71655,-100,4,1,1,70,0,0
72405,-100,4,2,1,100,0,0
72855,-100,4,1,1,70,0,0
73155,-100,4,2,1,100,0,0
74055,-100,4,1,1,70,0,0
74355,-100,4,2,1,100,0,0
74955,-100,4,1,1,40,0,0
75255,-100,4,1,1,50,0,0
75555,-100,4,1,1,60,0,0
75855,-100,4,1,1,70,0,0
76155,-100,4,1,1,80,0,0
76455,-100,4,1,1,90,0,0
76830,-83.3333333333333,4,2,1,100,0,1
77355,-83.3333333333333,4,1,1,71,0,1
78405,-83.3333333333333,4,2,1,100,0,1
78855,-83.3333333333333,4,1,1,71,0,1
79455,-83.3333333333333,4,2,1,100,0,1
80355,-83.3333333333333,4,1,1,71,0,1
80805,-83.3333333333333,4,2,1,100,0,1
81255,-83.3333333333333,4,1,1,71,0,1
81555,-83.3333333333333,4,1,1,50,0,1
82005,-83.3333333333333,4,2,1,100,0,1
82455,-83.3333333333333,4,1,1,71,0,1
82755,-83.3333333333333,4,1,1,50,0,1
83205,-83.3333333333333,4,2,1,100,0,1
83655,-83.3333333333333,4,1,1,71,0,1
83955,-83.3333333333333,4,1,1,50,0,1
84555,-83.3333333333333,4,2,1,100,0,1
84780,-83.3333333333333,4,1,1,71,0,1
85155,-83.3333333333333,4,2,1,100,0,1
85380,-83.3333333333333,4,1,1,71,0,1
85755,-83.3333333333333,4,2,1,100,0,1
86055,-83.3333333333333,4,1,1,71,0,1
86955,-83.3333333333333,4,2,1,100,0,1
87255,-83.3333333333333,4,1,1,71,0,1
87555,-83.3333333333333,4,2,1,100,0,1
87855,-83.3333333333333,4,1,1,71,0,1
88005,-83.3333333333333,4,2,1,100,0,1
88305,-83.3333333333333,4,1,1,71,0,1
89055,-83.3333333333333,4,2,1,100,0,1
89955,-83.3333333333333,4,1,1,71,0,1
90405,-83.3333333333333,4,2,1,100,0,1
90855,-83.3333333333333,4,1,1,71,0,1
91155,-83.3333333333333,4,1,1,50,0,1
91605,-83.3333333333333,4,2,1,100,0,1
92055,-83.3333333333333,4,1,1,71,0,1
92355,-83.3333333333333,4,1,1,50,0,1
92805,-83.3333333333333,4,2,1,100,0,1
93255,-83.3333333333333,4,1,1,71,0,1
93555,-83.3333333333333,4,1,1,50,0,1
93855,-83.3333333333333,4,2,1,100,0,1
94380,-83.3333333333333,4,1,1,71,0,1
94755,-83.3333333333333,4,2,1,100,0,1
94980,-83.3333333333333,4,1,1,71,0,1
96030,-100,4,1,1,70,0,0
98955,-100,4,2,1,100,0,0
99255,-100,4,1,1,70,0,0
99555,-100,4,2,1,100,0,0
100305,-100,4,1,1,70,0,0
101355,-100,4,2,1,100,0,0
101655,-100,4,1,1,70,0,0
101955,-100,4,2,1,100,0,0
102180,-100,4,1,1,70,0,0
102555,-100,4,2,1,100,0,0
102780,-100,4,1,1,70,0,0
103755,-100,4,2,1,100,0,0
104055,-100,4,1,1,70,0,0
104505,-100,4,2,1,100,0,0
105105,-100,4,1,1,70,0,0
105705,-100,4,2,1,100,0,0
105855,-100,4,1,1,70,0,0
106755,-100,4,2,1,100,0,0
107355,-100,4,1,1,70,0,0
108105,-100,4,2,1,100,0,0
108555,-100,4,1,1,70,0,0
108855,-100,4,2,1,100,0,0
109155,-100,4,1,1,70,0,0
109305,-100,4,2,1,100,0,0
109455,-100,4,1,1,70,0,0
109755,-100,4,2,1,100,0,0
110055,-100,4,1,1,70,0,0
110655,-100,4,2,1,100,0,0
111255,-100,4,1,1,70,0,0
111405,-100,4,2,1,100,0,0
111555,-100,4,1,1,70,0,0
112005,-100,4,2,1,100,0,0
112455,-100,4,1,1,70,0,0
112605,-100,4,2,1,100,0,0
112755,-100,4,1,1,70,0,0
113355,-100,4,2,1,100,0,0
113955,-100,4,1,1,70,0,0
114255,-100,4,2,1,100,0,0
115155,-100,4,1,1,70,0,0
124755,-100,4,2,1,100,0,0
125055,-100,4,1,1,70,0,0
125205,-100,4,2,1,100,0,0
125955,-100,4,1,1,70,0,0
126255,-100,4,2,1,100,0,0
127155,-100,4,1,1,70,0,0
127305,-100,4,2,1,100,0,0
127455,-100,4,1,1,70,0,0
127605,-100,4,2,1,100,0,0
128355,-100,4,1,1,70,0,0
128655,-100,4,2,1,100,0,0
129555,-100,4,1,1,70,0,0
129705,-100,4,2,1,100,0,0
129855,-100,4,1,1,70,0,0
130155,-100,4,2,1,100,0,0
130455,-100,4,1,1,70,0,0
130755,-100,4,2,1,100,0,0
131655,-100,4,1,1,70,0,0
131955,-100,4,2,1,100,0,0
132855,-100,4,1,1,70,0,0
133155,-100,4,2,1,100,0,0
133605,-100,4,1,1,70,0,0
133755,-100,4,2,1,100,0,0
134055,-100,4,1,1,70,0,0
134955,-100,4,2,1,100,0,0
135255,-100,4,1,1,70,0,0
135855,-100,4,2,1,100,0,0
136155,-100,4,1,1,70,0,0
137055,-100,4,2,1,100,0,0
137355,-100,4,1,1,70,0,0
137805,-100,4,2,1,100,0,0
137955,-100,4,1,1,70,0,0
138255,-100,4,2,1,100,0,0
138855,-100,4,1,1,70,0,0
139605,-100,4,2,1,100,0,0
140055,-100,4,1,1,70,0,0
140355,-100,4,2,1,100,0,0
141255,-100,4,1,1,70,0,0
141555,-100,4,2,1,100,0,0
142155,-100,4,1,1,40,0,0
142455,-100,4,1,1,50,0,0
142755,-100,4,1,1,60,0,0
143055,-100,4,1,1,71,0,0
143355,-100,4,1,1,81,0,0
143655,-100,4,1,1,90,0,0
143955,-100,4,1,1,70,0,0
144105,-100,4,2,1,100,0,0
144555,-100,4,1,1,70,0,0
144855,-100,4,2,1,100,0,0
145755,-100,4,1,1,70,0,0
146055,-100,4,2,1,100,0,0
146655,-100,4,1,1,70,0,0
146955,-100,4,2,1,100,0,0
147255,-100,4,1,1,70,0,0
147555,-100,4,2,1,100,0,0
147855,-100,4,1,1,70,0,0
148005,-100,4,2,1,100,0,0
148155,-100,4,1,1,70,0,0
148455,-100,4,2,1,100,0,0
148755,-100,4,1,1,70,0,0
148905,-100,4,2,1,100,0,0
149355,-100,4,1,1,70,0,0
150105,-100,4,2,1,100,0,0
150255,-100,4,1,1,70,0,0
150405,-100,4,2,1,100,0,0
150555,-100,4,1,1,70,0,0
151305,-100,4,2,1,100,0,0
151755,-100,4,1,1,70,0,0
152505,-100,4,2,1,100,0,0
152655,-100,4,1,1,70,0,0
152805,-100,4,2,1,100,0,0
152955,-100,4,1,1,70,0,0
153705,-100,4,2,1,100,0,0
154155,-100,4,1,1,70,0,0
156105,-100,4,2,1,100,0,0
156780,-100,4,1,1,70,0,0
157155,-100,4,2,1,100,0,0
157380,-100,4,1,1,70,0,0
158205,-100,4,2,1,100,0,0
158505,-100,4,1,1,70,0,0
158955,-100,4,2,1,100,0,0
159180,-100,4,1,1,70,0,0
159705,-100,4,2,1,100,0,0
160605,-100,4,1,1,70,0,0
165555,-90.9090909090909,4,1,1,40,0,0
165705,-90.9090909090909,4,2,1,100,0,0
166155,-90.9090909090909,4,1,1,60,0,0
166455,-90.9090909090909,4,2,1,100,0,0
166755,-90.9090909090909,4,1,1,60,0,0
166905,-90.9090909090909,4,2,1,100,0,0
167355,-90.9090909090909,4,1,1,60,0,0
167505,-90.9090909090909,4,2,1,100,0,0
167655,-90.9090909090909,4,1,1,60,0,0
167805,-90.9090909090909,4,2,1,100,0,0
168255,-90.9090909090909,4,1,1,60,0,0
168405,-90.9090909090909,4,2,1,100,0,0
168855,-90.9090909090909,4,1,1,60,0,0
169005,-90.9090909090909,4,2,1,100,0,0
169155,-90.9090909090909,4,1,1,60,0,0
170505,-90.9090909090909,4,2,1,100,0,0
170805,-90.9090909090909,4,1,1,60,0,0
170955,-90.9090909090909,4,2,1,100,0,0
171255,-90.9090909090909,4,1,1,60,0,0
171405,-90.9090909090909,4,2,1,100,0,0
171855,-90.9090909090909,4,1,1,60,0,0
172005,-90.9090909090909,4,2,1,100,0,0
172455,-90.9090909090909,4,1,1,60,0,0
173055,-90.9090909090909,4,2,1,100,0,0
173205,-90.9090909090909,4,1,1,60,0,0
173505,-90.9090909090909,4,2,1,100,0,0
173655,-90.9090909090909,4,1,1,60,0,0
173805,-90.9090909090909,4,2,1,100,0,0
173955,-90.9090909090909,4,1,1,60,0,0
174555,-90.9090909090909,4,2,1,100,0,0
174855,-90.9090909090909,4,1,1,60,0,0
175155,-90.9090909090909,4,2,1,100,0,0
175305,-90.9090909090909,4,1,1,60,0,0
175455,-90.9090909090909,4,2,1,100,0,0
175755,-90.9090909090909,4,1,1,60,0,0
176205,-90.9090909090909,4,2,1,100,0,0
176505,-90.9090909090909,4,1,1,60,0,0
176955,-90.9090909090909,4,2,1,100,0,0
178155,-90.9090909090909,4,1,1,60,0,0
179055,-90.9090909090909,4,2,1,100,0,0
179205,-90.9090909090909,4,1,1,60,0,0
182355,-90.9090909090909,4,2,1,100,0,0
182655,-90.9090909090909,4,1,1,60,0,0
184830,-83.3333333333333,4,2,1,100,0,1
185355,-83.3333333333333,4,1,1,70,0,1
186405,-83.3333333333333,4,2,1,100,0,1
186855,-83.3333333333333,4,1,1,70,0,1
187455,-83.3333333333333,4,2,1,100,0,1
188355,-83.3333333333333,4,1,1,70,0,1
188805,-83.3333333333333,4,2,1,100,0,1
189255,-83.3333333333333,4,1,1,70,0,1
189555,-83.3333333333333,4,1,1,50,0,1
190005,-83.3333333333333,4,2,1,100,0,1
190455,-83.3333333333333,4,1,1,70,0,1
190755,-83.3333333333333,4,1,1,51,0,1
191205,-83.3333333333333,4,2,1,100,0,1
191655,-83.3333333333333,4,1,1,70,0,1
191955,-83.3333333333333,4,1,1,50,0,1
192555,-83.3333333333333,4,2,1,100,0,1
192780,-83.3333333333333,4,1,1,70,0,1
193155,-83.3333333333333,4,2,1,100,0,1
193380,-83.3333333333333,4,1,1,70,0,1
193755,-83.3333333333333,4,2,1,100,0,1
194055,-83.3333333333333,4,1,1,70,0,1
194355,-83.3333333333333,4,1,1,50,0,1
194955,-83.3333333333333,4,2,1,100,0,1
195255,-83.3333333333333,4,1,1,70,0,1
195555,-83.3333333333333,4,2,1,100,0,1
195855,-83.3333333333333,4,1,1,70,0,1
196005,-83.3333333333333,4,2,1,100,0,1
196230,-83.3333333333333,4,1,1,70,0,1
197055,-83.3333333333333,4,2,1,100,0,1
197955,-83.3333333333333,4,1,1,70,0,1
198405,-83.3333333333333,4,2,1,100,0,1
198855,-83.3333333333333,4,1,1,70,0,1
199155,-83.3333333333333,4,1,1,50,0,1
199605,-83.3333333333333,4,2,1,100,0,1
200055,-83.3333333333333,4,1,1,70,0,1
200355,-83.3333333333333,4,1,1,50,0,1
200805,-83.3333333333333,4,2,1,100,0,1
201255,-83.3333333333333,4,1,1,70,0,1
201555,-83.3333333333333,4,1,1,49,0,1
201855,-83.3333333333333,4,2,1,100,0,1
202380,-83.3333333333333,4,1,1,70,0,1
202755,-83.3333333333333,4,2,1,100,0,1
202980,-83.3333333333333,4,1,1,70,0,1
203355,-83.3333333333333,4,2,1,100,0,1
204030,-100,4,1,1,40,0,0
204855,-100,4,2,1,81,0,0
205155,-100,4,1,1,40,0,0
205905,-100,4,2,1,81,0,0
206355,-100,4,1,1,40,0,0
207255,-100,4,2,1,80,0,0
207555,-100,4,1,1,40,0,0
208305,-100,4,2,1,81,0,0
208755,-100,4,1,1,40,0,0
209655,-100,4,2,1,80,0,0
209955,-100,4,1,1,40,0,0
210855,-100,4,2,1,80,0,0
213555,-100,4,1,1,20,0,0

[Colours]
Combo1 : 238,253,253
Combo2 : 57,240,4
Combo3 : 244,0,0
Combo4 : 22,122,222
Combo5 : 250,194,5
SliderBorder : 0,0,0

[HitObjects]
256,32,9630,1,4
224,88,9780,1,2
160,72,9930,1,0
104,104,10080,1,0
48,136,10230,2,0,B|72:176|120:168,2,75,8|0|2
16,192,10680,1,2
48,248,10830,5,0
256,232,11130,1,0
464,248,11430,1,2
256,376,12030,5,0
208,336,12180,2,0,B|168:368|128:344,2,75,2|0|0
164,292,12630,2,0,B|124:224,1,75,8|0
92,292,12930,2,0,B|52:224,1,75,2|2
52,164,13230,5,0
256,184,13530,1,0
460,164,13830,1,2
256,312,14430,21,0
200,336,14580,1,2
144,312,14730,1,0
88,336,14880,1,0
40,296,15030,1,8
40,296,15330,1,0
256,192,15630,53,4
424,96,16080,21,2
480,128,16230,1,8
480,128,16530,1,0
256,192,16830,37,4
88,96,17280,37,2
32,128,17430,1,8
32,128,17730,1,0
88,160,17880,5,0
152,136,18030,2,0,B|200:104|256:80|312:104|360:136,1,225,2|0
328,192,18630,2,0,B|256:232|184:192,1,150,2|0
256,296,19230,21,4
368,352,19530,2,0,B|424:280|368:216,1,150,8|2
320,176,19980,1,0
368,136,20130,1,8
368,72,20280,1,8
320,32,20430,1,0
192,32,20730,1,2
144,152,21030,2,2,B|144:232|240:240|256:208|272:176|368:184|368:264,1,300,2|0
256,328,21930,5,2
256,328,22230,1,0
152,168,22680,1,0
192,120,22830,1,8
256,136,22980,1,8
320,120,23130,1,0
360,168,23280,1,2
328,224,23430,2,0,B|256:264|184:224,1,150
256,328,24030,5,4
104,216,24480,1,2
80,160,24630,1,8
32,40,24930,1,0
256,192,25230,21,4
408,216,25680,53,2
432,160,25830,1,8
480,40,26130,1,0
256,192,26430,5,4
256,192,27030,1,0
256,200,27330,1,0
256,208,27630,1,0
256,216,27930,1,0
256,224,28230,1,0
256,232,28530,1,0
256,80,28830,5,4
432,288,29430,2,2,B|256:356|80:288,1,360.000008583069,2|0
32,160,30330,1,2
24,96,30480,2,0,B|72:184|176:160,1,180.000004291535,2|2
240,144,30930,1,8
304,128,31080,1,8
368,112,31230,5,0
256,32,31530,1,0
144,112,31830,1,2
184,240,32130,2,0,B|96:256,1,90.0000021457673,2|0
184,304,32430,2,0,B|96:320,2,90.0000021457673
248,288,32880,2,0,B|320:272|360:264|392:232|376:192,1,180.000004291535,2|2
352,136,33330,1,0
256,40,33630,5,4
88,152,34080,1,2
104,216,34230,1,8
144,344,34530,1,0
256,272,34830,1,4
424,152,35280,1,2
408,216,35430,1,8
368,344,35730,1,0
256,272,36030,5,4
256,192,36180,12,4,38430
184,344,48030,21,4
232,304,48180,1,2
280,344,48330,2,0,B|344:296,1,75,8|8
288,256,48630,2,0,B|352:208,1,75,2|2
400,176,48930,1,8
448,136,49080,1,0
496,96,49230,2,0,B|448:32|360:56,1,150,0|2
304,72,49680,1,0
288,136,49830,2,0,B|288:176|304:208,1,75,8|8
224,136,50130,2,0,B|224:176|208:208,1,75
184,272,50430,2,2,B|256:312|328:272,1,150,2|0
384,240,50880,1,4
128,240,51480,5,2
72,208,51630,2,0,B|8:160,1,75
112,160,51930,2,0,B|48:112,1,75,8|8
8,72,52230,2,0,B|72:16|152:32,1,150,2|0
256,88,52830,5,4
272,152,52980,1,2
336,136,53130,1,8
384,96,53280,2,0,B|408:136|384:176,1,75,8|2
456,168,53580,2,0,B|432:248,1,75,2|8
408,296,53880,1,0
376,352,54030,2,0,B|288:384|232:336,1,150,0|2
192,288,54480,1,0
224,232,54630,2,0,B|216:192|184:168,1,75,8|8
288,232,54930,2,0,B|296:192|328:168,1,75
368,120,55230,1,0
328,72,55380,2,2,B|256:32|184:72,1,150
256,320,56280,5,2
192,296,56430,2,0,B|112:336,1,75
160,240,56730,2,0,B|72:288,1,75
40,304,57030,2,0,B|-16:240|32:160,1,150
104,64,57630,21,4
152,104,57780,1,2
208,72,57930,1,0
256,112,58080,1,0
320,96,58230,2,0,B|328:144|288:168,2,75,8|0|2
368,56,58680,1,2
432,64,58830,5,0
256,48,59130,1,0
80,64,59430,1,2
216,280,60030,5,0
264,324,60180,2,0,B|224:356|184:332,2,75,2|0|0
312,280,60630,2,0,B|352:212,1,75,8|0
376,296,60930,2,0,B|416:228,1,75,2|2
452,180,61230,5,0
256,184,61530,1,0
60,180,61830,1,2
272,40,62430,21,0
304,96,62580,1,2
360,72,62730,1,0
416,48,62880,1,0
448,104,63030,1,8
448,104,63330,1,0
256,192,63630,53,4
88,288,64080,21,2
32,256,64230,1,8
32,256,64530,1,0
256,192,64830,37,4
424,288,65280,37,2
480,256,65430,1,8
480,256,65730,1,0
424,224,65880,5,0
360,248,66030,2,0,B|312:288|256:252|256:252|200:288|152:248,1,225,2|0
184,192,66630,2,0,B|256:232|328:192,1,150,2|0
256,88,67230,21,4
148,20,67530,2,0,B|148:84|148:84|148:128|108:156,1,150,8|2
52,188,67980,1,0
88,240,68130,2,0,B|100:280|136:304,1,75,8|8
192,312,68430,1,0
320,312,68730,1,2
376,200,69030,2,2,B|348:124|256:104|164:124|136:200,1,300,2|0
256,244,69930,5,2
256,244,70230,1,0
156,80,70680,1,0
196,128,70830,1,8
256,152,70980,1,8
316,128,71130,1,0
356,80,71280,1,2
328,24,71430,2,0,B|256:64|184:24,1,150
256,152,72030,5,4
64,148,72480,1,2
40,208,72630,1,8
0,328,72930,1,0
256,192,73230,21,4
448,148,73680,53,2
472,208,73830,1,8
512,328,74130,1,0
256,192,74430,5,4
256,192,75030,1,0
256,200,75330,1,0
256,208,75630,1,0
256,216,75930,1,0
256,224,76230,1,0
256,232,76530,1,0
256,80,76830,5,4
128,336,77430,2,2,B|108:248|272:268|256:336|240:408|404:424|384:336,1,360.000008583069,2|0
420,188,78330,1,2
460,136,78480,2,0,B|408:104|352:136|344:184|368:224,1,180.000004291535,2|2
400,284,78930,1,8
436,340,79080,1,8
372,360,79230,5,0
256,288,79530,1,0
140,360,79830,1,2
108,228,80130,2,0,B|24:260,1,90.0000021457673,2|0
88,168,80430,2,0,B|172:136,2,90.0000021457673
60,112,80880,2,0,B|156:76|156:76|176:72|208:76|224:104,1,180.000004291535,2|2
256,164,81330,1,0
256,28,81630,5,4
420,144,82080,1,2
360,172,82230,1,8
388,304,82530,1,0
256,268,82830,1,4
92,144,83280,1,2
152,172,83430,1,8
124,304,83730,1,0
256,340,84030,5,4
256,72,84630,2,0,B|344:64|372:128,2,135.000003218651,2|0|0
256,140,85230,2,0,B|168:148|140:84,2,135.000003218651,2|0|0
256,72,85830,1,2
256,72,86130,1,0
256,288,86430,21,4
372,44,87030,1,2
412,100,87180,1,0
472,68,87330,1,8
504,128,87480,1,8
456,176,87630,2,0,B|372:232|288:176,1,180.000004291535,0|2
224,176,88080,2,0,B|140:232|56:176,1,180.000004291535,0|2
8,128,88530,1,8
40,68,88680,1,8
100,36,88830,5,0
256,60,89130,1,0
412,36,89430,1,2
372,164,89730,2,0,B|308:236,1,90.0000021457673,2|0
420,208,90030,2,0,B|356:280,2,90.0000021457673
464,160,90480,2,0,B|456:64|352:24,1,180.000004291535,2|2
296,48,90930,1,0
256,176,91230,5,4
88,292,91680,1,2
52,236,91830,2,0,B|108:320|212:292,1,180.000004291535,8|0
256,176,92430,1,4
424,292,92880,1,2
460,236,93030,2,0,B|404:320|300:292,1,180.000004291535,8|0
256,176,93630,5,4
256,40,93930,1,2
256,40,94080,1,0
224,100,94230,2,0,B|196:176|116:156,2,135.000003218651,2|0|0
288,100,94830,2,0,B|316:176|396:156,2,135.000003218651,2|0|0
256,40,95430,1,0
256,176,95730,1,0
256,288,96030,1,4
400,88,98430,21,4
400,88,98880,1,8
428,148,99030,2,0,B|376:200|288:184,1,150,0|8
228,164,99480,2,0,B|180:236,1,75,8|0
176,132,99780,2,0,B|128:204,1,75,0|2
124,96,100080,1,2
124,96,100380,2,2,B|168:28|256:48,1,150,2|0
316,72,100830,5,0
328,200,101130,2,0,B|272:176|256:200|240:224|184:200,2,150,8|0|8
348,328,102030,1,2
256,296,102255,1,0
164,264,102480,1,0
164,328,102630,1,2
256,296,102855,1,0
348,264,103080,1,0
344,200,103230,6,0,B|328:152|256:108|184:152|168:200,1,225,0|8
164,264,103830,2,0,B|96:320|16:280,1,150,0|8
20,220,104280,1,8
16,156,104430,2,0,B|88:128,1,75
4,96,104730,2,0,B|84:64,1,75,2|2
73,68,105180,2,2,B|128:128|216:96,1,150,2|0
260,56,105630,5,0
300,104,105780,1,2
340,152,105930,1,8
380,200,106080,1,8
420,252,106230,2,2,B|368:368|232:336,1,225
172,328,106830,1,2
68,252,107130,1,8
136,144,107430,2,2,B|192:88|268:152|256:184|244:216|317:279|373:223,1,300,2|0
360,160,108180,22,0,B|288:136|256:184|224:232|152:208,1,225,2|8
68,112,108930,1,0
168,36,109230,2,0,B|200:60|200:104,1,75
256,144,109530,2,0,B|256:56,1,75,8|8
312,100,109830,2,0,B|312:60|344:36,2,75,2|0|8
256,216,110430,5,0
224,272,110580,2,0,B|148:272,1,75
288,272,110880,2,0,B|372:272,2,75,0|2|0
256,216,111330,1,8
208,176,111480,1,0
156,216,111630,6,0,B|128:172|156:136,1,75,8|8
92,116,111930,2,0,B|20:148,1,75
84,188,112230,2,0,B|12:216,1,75,2|2
76,256,112530,2,0,B|4:288,2,75,8|0|0
136,236,112980,6,0,B|216:192|304:232,1,150
320,272,113430,2,0,B|240:316|152:276,1,150,2|2
132,164,114030,1,0
256,140,114330,1,0
380,164,114630,1,2
256,380,115230,1,4
240,304,124830,21,4
180,288,124980,1,2
124,316,125130,1,0
68,288,125280,1,0
116,248,125430,2,0,B|80:215|38:235,2,75,8|0|2
68,288,125880,1,2
76,352,126030,5,0
256,336,126330,1,0
436,352,126630,1,2
404,100,127230,5,0
356,144,127380,2,0,B|396:176|436:152,2,75,2|0|0
304,104,127830,1,8
244,120,127980,1,0
184,96,128130,2,0,B|128:148,1,75,2|2
80,188,128430,5,0
256,216,128730,1,0
428,188,129030,1,2
256,376,129630,21,0
304,332,129780,1,2
360,360,129930,1,0
404,312,130080,1,0
460,344,130230,1,8
460,344,130530,1,0
256,192,130830,53,4
108,316,131280,21,2
52,344,131430,1,8
52,344,131730,1,0
256,192,132030,37,4
404,316,132480,37,2
460,344,132630,1,8
460,344,132930,1,0
404,316,133080,5,0
360,272,133230,2,0,B|292:276|255:238|255:238|220:276|152:272,1,225,2|0
184,332,133830,2,0,B|256:372|328:332,1,150,2|0
256,220,134430,21,4
208,104,134730,2,0,B|212:44|151:6|99:44,1,150,8|2
144,92,135180,1,0
80,104,135330,2,0,B|92:152|152:160,1,75,8|8
192,168,135630,1,0
320,168,135930,1,2
376,284,136230,2,2,B|368:232|272:212|256:284|240:356|152:340|136:284,1,300,2|0
192,168,137130,5,2
320,168,137430,1,0
348,356,137880,1,0
308,304,138030,1,8
256,340,138180,1,8
204,376,138330,1,0
164,324,138480,1,2
184,264,138630,2,0,B|256:224|328:264,1,150
256,156,139230,5,4
76,224,139680,1,2
60,160,139830,1,8
28,36,140130,1,0
256,192,140430,21,4
436,224,140880,53,2
452,160,141030,1,8
484,36,141330,1,0
256,192,141630,5,4
256,192,142230,1,0
256,200,142530,1,0
256,208,142830,1,0
256,216,143130,1,0
256,224,143430,1,0
256,232,143730,1,0
256,360,144030,5,4
192,360,144180,2,0,B|120:360|120:360|96:356|72:340|72:308,1,150,2|2
32,256,144630,2,0,B|116:280|156:200,1,150,8|0
52,124,145230,1,0
88,72,145380,2,0,B|144:140|240:108,1,150,2|2
288,112,145830,2,0,B|368:135|424:72,1,150,8|0
464,192,146430,6,0,B|436:228|396:216,1,75
408,280,146730,2,0,B|324:264,1,75,8|8
272,256,147030,1,2
208,248,147180,1,0
144,240,147330,2,0,B|176:200|156:164,1,75,8|8
184,112,147630,2,0,B|256:152|328:112,1,150,0|8
348,172,148080,1,2
328,232,148230,2,0,B|256:192|184:232,1,150,8|0
256,340,148830,5,4
216,288,148980,2,0,B|160:352|80:320,1,150,2|2
48,376,149430,2,2,B|-8:236|-8:236|16:144|108:156,1,300,2|0
164,140,150180,2,0,B|120:160|124:208,1,75,0|8
128,260,150480,1,0
184,232,150630,2,0,B|256:192|328:232,1,150,0|8
256,340,151230,5,4
296,288,151380,2,0,B|352:352|432:320,1,150,2|2
464,376,151830,2,2,B|520:236|520:236|496:144|404:156,1,300,2|0
348,140,152580,2,0,B|392:160|388:208,1,75,0|8
384,260,152880,1,0
328,232,153030,2,0,B|256:192|184:232,1,150,0|8
256,124,153630,21,4
196,92,153780,2,0,B|212:56|256:40|300:56|316:92,1,150,2|2
316,156,154230,2,0,B|300:192|256:208|212:192|196:156,1,150,2|0
256,192,154680,12,0,156030
324,192,156180,6,0,B|256:160|256:160|188:192,1,150
224,244,156630,2,0,B|208:308|132:304,2,112.5,2|0|0
288,244,157230,2,0,B|304:308|380:304,2,112.5,2|0|0
256,188,157830,1,8
288,64,158130,1,0
224,64,158280,1,0
256,316,158580,37,6
204,132,159030,38,0,B|256:96|308:132,2,112.5,2|0|0
192,260,159780,1,2
256,268,159930,1,8
320,260,160080,1,0
316,196,160230,2,0,B|300:160|256:144|212:160|196:196,1,150,2|2
256,224,160680,1,0
388,68,165630,37,4
448,88,165780,2,0,B|424:132|368:136,1,82.4999975413085,2|2
432,188,166080,2,0,B|344:204,1,82.4999975413085,0|8
280,208,166380,1,8
212,228,166530,1,0
156,188,166680,1,0
88,200,166830,6,0,B|4:228,1,82.4999975413085,8|8
116,256,167130,2,0,B|36:316,1,82.4999975413085,2|0
168,292,167430,2,0,B|120:364,2,82.4999975413085,8|0|0
236,276,167880,1,0
288,228,168030,6,0,B|324:252|368:232,1,82.4999975413085,2|0
224,228,168330,2,0,B|188:252|144:232,1,82.4999975413085,8|8
180,172,168630,1,2
140,112,168780,1,0
112,48,168930,2,0,B|148:16|200:16,1,82.4999975413085,8|0
256,32,169230,5,0
444,192,169530,1,0
256,352,169830,1,0
68,192,170130,1,0
256,192,170430,21,4
188,160,170580,2,0,B|208:124|256:104|304:124|324:160,1,164.999995082617,2|0
320,232,171030,2,0,B|264:244|256:200|256:200|248:244|192:232,1,164.999995082617,2|0
124,208,171480,1,0
84,152,171630,2,0,B|96:68|196:32,1,164.999995082617,2|0
256,52,172080,1,0
323,34,172230,2,0,B|416:71|428:152,1,164.999995082617,2|0
328,248,172830,5,0
184,248,173130,1,8
184,248,173280,1,0
204,108,173580,1,8
140,140,173730,1,0
80,176,173880,1,0
136,220,174030,1,0
256,296,174330,1,0
376,220,174630,1,8
436,252,174780,1,2
496,288,174930,1,0
476,112,175230,5,2
412,88,175380,1,0
344,104,175530,1,8
300,160,175680,1,8
272,224,175830,2,2,B|252:260|200:288|132:264|120:228,1,164.999995082617,2|0
84,188,176280,1,0
72,120,176430,1,2
56,52,176580,2,0,B|112:48|136:96,1,82.4999975413085,0|8
172,28,176880,2,0,B|216:120,1,82.4999975413085,8|0
252,48,177180,2,0,B|288:140,1,82.4999975413085,0|2
304,192,177480,1,2
304,192,177630,1,2
304,192,177930,6,0,B|252:268|160:260,2,164.999995082617,2|0|2
320,124,178680,1,8
384,92,178830,1,0
440,136,178980,1,0
436,204,179130,1,0
368,224,179280,1,8
304,192,179430,2,0,B|236:116|144:148,1,164.999995082617,8|0
152,280,180030,21,0
196,332,180180,1,0
360,280,180480,1,0
316,332,180630,1,0
332,192,180930,5,8
292,136,181080,1,0
220,136,181230,1,0
180,192,181380,1,0
188,260,181530,2,0,B|208:296|256:316|304:296|324:260,1,164.999995082617,8|0
396,140,182130,5,8
344,92,182280,1,0
272,92,182430,2,0,B|200:92|200:92|132:92|112:140,1,164.999995082617,4|0
100,196,182880,1,0
68,260,183030,2,0,B|140:260|140:260|208:260|228:308,1,164.999995082617
256,356,183480,1,0
256,356,183630,5,0
256,356,183780,1,0
256,356,183930,1,0
360,224,184230,1,0
152,160,184530,1,0
256,28,184830,21,4
84,280,185430,2,2,B|132:316|156:320|256:280|356:236|380:244|428:280,1,360.000008583069,2|0
460,128,186330,1,2
484,200,186480,2,0,B|428:213|388:182|368:129|398:88,1,180.000004291535,2|2
444,32,186930,1,8
444,32,187080,1,8
368,24,187230,5,0
256,128,187530,1,0
144,24,187830,1,2
64,156,188130,2,0,B|92:196|144:184,1,90.0000021457673,2|0
172,112,188430,2,0,B|148:68|96:80,2,90.0000021457673
216,172,188880,2,0,B|280:248|384:204,1,180.000004291535,2|2
436,156,189330,1,0
256,68,189630,5,4
92,144,190080,1,2
36,196,190230,1,8
112,328,190530,1,0
256,276,190830,1,4
420,144,191280,1,2
476,196,191430,1,8
400,328,191730,1,0
256,376,192030,5,4
216,72,192630,1,2
256,180,192855,1,0
296,288,193080,1,0
216,288,193230,1,2
256,180,193455,1,0
296,72,193680,1,0
256,8,193830,1,2
256,8,194130,1,0
256,180,194430,21,4
396,368,195030,1,2
384,292,195180,1,0
456,316,195330,1,8
440,240,195480,1,8
452,164,195630,2,0,B|344:188|292:104,1,180.000004291535,0|2
217,107,196080,2,0,B|168:188|60:164,1,180.000004291535,0|2
72,240,196530,1,8
128,292,196680,1,8
116,368,196830,5,0
256,308,197130,1,0
396,368,197430,1,2
436,220,197730,2,0,B|344:196,1,90.0000021457673,2|0
408,148,198030,2,0,B|308:120,2,90.0000021457673
436,220,198480,2,0,B|416:312|312:336,1,180.000004291535,2|2
256,284,198930,1,0
256,132,199230,5,4
452,256,199680,1,2
484,328,199830,2,0,B|428:244|324:272,1,180.000004291535,8|0
256,132,200430,1,4
60,256,200880,1,2
28,328,201030,2,0,B|84:244|188:272,1,180.000004291535,8|0
256,132,201630,5,4
344,256,201930,2,0,B|376:304|432:308,1,90.0000021457673,2|0
424,380,202230,1,2
316,344,202455,1,0
220,276,202680,1,0
292,276,202830,1,2
196,344,203055,1,0
88,380,203280,1,0
136,320,203430,1,2
256,228,203730,1,0
376,320,204030,22,2,B|517:192|376:64,1,300,2|0
256,108,204930,1,2
136,64,205230,2,2,B|-5:192|136:320,1,300,2|0
196,300,205980,1,2
256,320,206130,1,8
316,300,206280,1,0
376,316,206430,6,2,B|456:192|456:192|432:96|344:116,1,300,2|0
256,204,207330,1,2
166,115,207630,2,2,B|80:96|56:192|56:192|136:316,1,300,2|0
200,300,208380,1,2
256,332,208530,1,8
312,300,208680,1,0
372,320,208830,6,2,B|230:192|372:64,1,300,2|0
256,120,209730,1,2
140,64,210030,6,2,B|282:192|140:320,1,300,2|0
256,264,210930,1,2
256,120,211230,5,0
256,192,211380,12,4,213630
