osu file format v7

[General]
AudioFilename: Waka Waka (This Time For Africa).mp3
AudioLeadIn: 0
PreviewTime: 51992
Countdown: 0
SampleSet: Normal
StackLeniency: 0.4
Mode: 0
LetterboxInBreaks: 1

[Editor]
Bookmarks: 21908,37026,52144,59703,74779,89939,105057,120175,150412,188165
DistanceSpacing: 0.100000001490116
BeatDivisor: 2
GridSize: 8

[Metadata]
Title:Waka Waka (This Time For Africa)
Artist:Shakira feat. Freshlyground
Creator:cesc
Version:Normal - feat. Armin
Source:FIFA World Cup South Africa 2010
Tags:Listen Up! collab Kecco lthefuryl Gonzvlo Armin

[Difficulty]
HPDrainRate:2
CircleSize:4
OverallDifficulty:4
SliderMultiplier:1.3
SliderTickRate:1

[Events]
//Background and Video events
Video,-4600,"Waka Waka.avi"
0,0,"Fifa World Cup 2010.jpg"
//Break Periods
2,59869,73467
//Storyboard Layer 0 (Background)
//Storyboard Layer 1 (Fail)
//Storyboard Layer 2 (Pass)
//Storyboard Layer 3 (Foreground)
Sprite,Foreground,Centre,"SB\cesc.png",320,240 F,0,5338,6756,0,1 M,0,5338,21401,480,370 M,0,21401,21874,480,370,480,480
Sprite,Foreground,Centre,"SB\cescp.png",320,240 L,8645,4 F,1,0,473,1,0 S,1,0,473,1,1.2 L,12425,4 F,1,0,473,1,0 S,1,0,473,1,1.2 L,16204,4 F,1,0,473,1,0 S,1,0,473,1,1.2 L,19984,4 F,1,0,473,1,0 S,1,0,473,1,1.2 M,0,6756,7228,480,370 F,1,6756,7228,1,0 S,1,6756,7228,1,1.2
Sprite,Foreground,Centre,"SB\armin.png",320,240 F,0,21401,21874,0,1 M,0,21401,36519,480,370 M,0,36519,36992,480,370,480,480
Sprite,Foreground,Centre,"SB\arminp.png",320,240 F,1,21874,22346,1,0 S,1,21874,22346,1,1.2 M,0,21874,36519,480,370
Sprite,Foreground,Centre,"SB\cesc.png",320,240 F,0,36519,36992,0,1 M,0,36519,51637,480,370 S,1,36992,37051,1,1.2 S,1,37051,37110,1.2,1 M,0,51637,52110,480,370,480,480
Sprite,Foreground,Centre,"SB\armin.png",320,240 F,0,51637,52110,0,1 M,0,51637,59669,480,370 F,0,59196,59669,1,0
Sprite,Foreground,Centre,"SB\arminp.png",320,240 L,52110,16 F,1,0,473,1,0 S,1,0,473,1,1.2 M,0,51637,59669,480,370
Sprite,Foreground,Centre,"SB\cesc.png",320,240 F,0,74315,74787,0,1 M,0,74315,89433,480,370 M,0,89433,89905,480,370,480,480
Sprite,Foreground,Centre,"SB\cescp.png",320,240 F,1,74787,75259,1,0 S,1,74787,75259,1,1.2 M,0,74787,89905,480,370
Sprite,Foreground,Centre,"SB\armin.png",320,240 F,0,89433,89905,0,1 M,0,89433,104551,480,370 S,1,89905,89964,1,1.2 S,1,89964,90023,1.2,1 M,0,104551,105023,480,370,480,480
Sprite,Foreground,Centre,"SB\cesc.png",320,240 F,0,104551,105023,0,1 M,0,104551,119669,480,370 M,0,119669,120141,480,370,480,480
Sprite,Foreground,Centre,"SB\cescp.png",320,240 L,105023,31 F,1,0,473,1,0 S,1,0,473,1,1.2 M,0,105023,119669,480,370
//Storyboard Sound Samples
//Background Colour Transformations
3,100,163,162,255

[TimingPoints]
6756,472.44094488189,4,1,0,50,1,0
36874,-100,4,2,0,80,0,0
37228,-100,4,1,0,50,0,0
50102,-100,4,1,0,20,0,0
50338,-100,4,1,0,50,0,0
52110,-100,4,1,0,50,0,1
59433,-100,4,1,0,50,0,0
59669,-100,4,1,0,50,0,1
59905,-100,4,1,0,50,0,0
105023,-100,4,1,0,50,0,1
118133,-100,4,1,0,20,0,0
118370,-100,4,1,0,50,0,0

[Colours]
Combo1 : 0,179,0
Combo2 : 255,255,0
Combo3 : 254,83,1

[HitObjects]
192,192,6756,2,0,B|125:204|106:142|106:142,2,97.5
176,120,7700,2,0,B|208:56|208:56,1,65
264,112,8173,2,0,B|328:72|328:72,1,65
336,152,8645,2,4,B|416:101|457:174|457:174,1,130
360,296,9590,2,4,B|280:320|256:240|256:240,1,130
104,240,10535,6,0,B|67:272|67:272|16:280|16:280,2,97.5
160,184,11480,2,0,B|192:160|184:120|184:120,1,65
264,144,11952,2,0,B|256:104|280:80|280:80,1,65
344,128,12425,2,4,B|368:160|400:128|432:96|464:128|464:128,1,130
432,280,13370,2,4,B|408:248|376:280|344:312|312:280|312:280,1,130
264,144,14315,6,0,B|288:32,2,97.5
248,224,15259,2,0,B|224:256|240:288|240:288,1,65
160,304,15732,2,0,B|160:256|128:248|128:248,1,65
72,200,16204,2,4,B|120:136|80:72|80:72,1,130
232,24,17149,2,4,B|184:88|240:144|240:144,1,130
384,80,18094,6,0,B|424:112|424:112|432:160|432:160,2,97.5
352,152,19039,2,0,B|288:184|288:184,1,65
288,104,19511,2,0,B|216:96|216:96,1,65
144,88,19984,2,4,B|176:168|120:216|120:216,1,130
208,344,20929,2,4,B|176:264|232:216|232:216,1,130
352,128,21874,5,4
256,64,22228,1,2
160,128,22582,1,0
200,200,22818,2,0,L|255:165|312:200,1,130,2|0
256,256,23527,1,0
256,256,23763,1,0
328,344,24118,6,0,L|256:381|178:341,1,162.5,2|0
168,264,24944,1,2
216,200,25181,1,0
296,200,25417,1,2
344,264,25653,1,0
384,160,26007,6,0,B|368:59|256:11|144:59|128:171,1,357.5,2|2
177,220,27543,2,0,B|202:268|265:294|322:269|341:210|341:210,1,195,0|2
256,184,28488,1,0
256,184,28960,1,2
368,80,29433,6,0,B|296:64|256:16|256:16|216:64|144:80,1,260,4|2
207,222,30850,2,0,B|156:271|192:352|254:383|319:338|361:286|298:212,1,325,0|2
256,272,32267,1,0
264,280,32740,1,2
165,145,33212,6,0,B|263:83|365:153,1,195,0|2
349,142,34157,1,0
256,272,34630,1,2
256,192,34866,12,2,36519
256,272,36992,6,2,B|256:216|256:216,1,32.5
256,120,37464,1,0
224,48,37700,2,0,B|292:23|337:73|336:123|336:123,1,130,4|0
312,176,38409,2,0,B|260:214|200:200|181:144|181:144,1,130,4|0
152,24,39354,5,0
160,96,39590,2,0,B|86:132|126:207|126:207,1,130,4|0
152,272,40299,2,0,B|176:312|176:312,1,32.5,8|8
224,240,40653,2,0,B|272:264|272:264,1,32.5,0|8
328,280,41007,1,0
312,200,41244,5,0
384,224,41480,2,0,B|389:155|366:129|296:120|296:120,1,130,4|0
320,125,42189,2,0,B|264:120|224:80|248:17|248:17,1,130,4|0
320,48,42897,1,0
392,88,43133,1,0
320,128,43370,2,0,B|280:168|224:224|224:224,1,130,4|0
78,60,44551,6,0,B|138:123|74:180|74:180,1,130,8|2
78,175,45259,1,2
78,175,45496,2,0,B|15:241|79:296|79:296,1,130,2|8
224,256,46441,2,0,B|256:200|256:200|232:112|232:112,1,130,8|2
320,144,47149,1,2
328,64,47385,2,0,B|389:96|389:96|464:64|464:64,1,130,2|8
480,192,48330,6,0,B|440:320|440:320,1,130
480,192,49275,2,0,B|328:144|328:144,1,130
356,152,49984,1,8
356,152,50220,5,0
256,192,50456,12,6,52110
256,80,52464,5,2
176,168,52818,2,0,B|201:216|264:242|321:217|340:158|340:158,2,195,2|2|2
120,224,54472,1,0
176,280,54708,1,2
256,296,54944,1,0
336,280,55181,1,2
392,224,55417,1,0
344,72,55889,6,0,B|296:42|257:69|257:69|203:111|161:66|161:66,2,195,2|0|2
344,72,57543,1,0
344,72,57779,1,4
256,192,58015,12,4,59669
256,248,74787,5,4
120,176,75259,2,0,B|32:136|88:40|88:40,2,130,0|8|0
256,248,76677,1,4
392,176,77149,2,0,B|480:136|424:40|424:40,2,130,0|8|0
256,248,78567,1,4
208,104,79039,6,0,B|183:43|183:43,1,65,0|0
256,24,79511,1,8
328,43,79748,2,0,B|329:43|304:104,1,65,0|0
256,168,80220,1,8
256,168,80456,2,0,B|312:208|360:160|360:160,2,97.5,8|0|0
256,168,81401,2,0,B|200:208|152:160|152:160,2,97.5,0|0|0
256,248,82346,1,4
400,312,82818,6,2,B|456:184|456:184,1,130,2|0
320,112,83763,2,2,B|249:162|193:107|193:107,1,130,0|4
112,312,84708,6,2,B|56:184|56:184,1,130,2|0
192,112,85653,2,2,B|263:162|319:107|319:107,1,130,0|4
456,56,86598,5,8
456,56,86834,1,8
456,56,87070,2,2,B|360:152|360:152,1,130,10|10
364,147,87779,1,8
364,147,88015,2,2,B|384:280|384:280,1,130,10|10
384,272,88724,1,8
384,272,88960,2,2,B|224:296|224:296,1,130,8|0
256,144,89905,5,4
152,40,90378,5,2
208,88,90614,2,0,B|175:109|162:168|217:209,1,130,2|0
305,200,91322,2,0,B|347:164|337:107|301:85,2,130,2|0|2
256,144,92504,1,0
168,272,92976,2,0,L|256:314|351:270,1,195,2|0
312,120,94157,5,2
312,120,94393,2,0,B|291:153|232:166|191:111,1,130
142,174,95102,2,0,B|179:221|264:256|337:220|371:173,1,260,2|0
400,248,96283,1,2
256,304,96756,1,0
112,248,97228,1,2
168,192,97464,6,0,B|208:160,1,32.5
256,128,97818,1,2
318,171,98055,2,0,B|344:192,1,32.5
312,264,98409,2,0,B|291:231|232:218|191:273,1,130,2|0
144,320,99118,1,0
216,360,99354,1,2
216,360,99472,1,0
296,360,99708,1,0
368,320,99944,1,2
368,320,100063,1,2
384,240,100299,6,0,B|368:139|256:91|144:139|128:251,1,357.5,2|2
176,344,101952,1,0
176,344,102189,2,0,B|224:374|263:347|263:347|317:305|359:350|359:350,1,195,2|0
356,347,103133,1,4
256,192,103370,12,0,104551
224,224,105023,6,0,B|176:232|176:232|144:192|144:192,2,97.5,0|8|0
96,136,106204,1,8
40,80,106441,1,8
192,96,106913,6,0,B|232:32|232:32,1,65,0|8
272,104,107385,2,0,B|336:64|336:64,1,65,0|8
344,144,107858,2,8,B|291:206|344:265|344:265,1,130
192,192,108803,6,0,B|216:144|192:96|192:96,2,97.5,0|8|0
128,144,109748,2,2,B|88:216|128:248|168:288|112:336|112:336,1,195,8|2
256,256,110929,1,8
328,288,111165,1,2
320,208,111401,1,8
392,240,111637,2,2,B|408:192|392:152|360:136|328:128|328:128,1,130
192,152,112582,6,0,B|152:176|144:152|136:128|88:152|88:152,2,97.5,0|8|0
168,80,113527,1,0
248,96,113763,1,8
296,32,114000,1,8
424,120,114472,2,2,B|358:157|373:265|462:258|462:258,1,195
464,184,115417,2,2,B|312:216|312:216,1,130,10|10
184,232,116362,6,10,B|144:256|120:232|96:208|56:240|56:240,2,130
256,96,117779,1,0
256,96,118015,1,8
256,96,118252,5,0
256,192,118488,12,4,120141
