osu file format v7

[General]
AudioFilename: Shakira-Waka Waka (Esto Es Africa).mp3
AudioLeadIn: 3000
PreviewTime: 105018
Countdown: 1
SampleSet: Normal
StackLeniency: 0.7
Mode: 0
LetterboxInBreaks: 1
StoryFireInFront: 0

[Editor]
Bookmarks: 21878,37469,44555,50224,51878,57783,59437,82114,97468,103255,104554,112586,150144,164546,165262,180734
DistanceSpacing: 1.10000002384186
BeatDivisor: 4
GridSize: 8

[Metadata]
Title:Waka Waka (Esto Es Africa)
Artist:Shakira
Creator:Saturio
Version:Final!
Source:2010 world cup
Tags:2010 world cup football hybrid579 Lizbeth Lissette

[Difficulty]
HPDrainRate:7
CircleSize:4
OverallDifficulty:8
SliderMultiplier:1.6
SliderTickRate:0.5

[Events]
//Background and Video events
0,0,"bg1.png"
//Break Periods
2,74982,81591
2,134982,149623
//Storyboard Layer 0 (Background)
//Storyboard Layer 1 (Fail)
//Storyboard Layer 2 (Pass)
//Storyboard Layer 3 (Foreground)
Sprite,Foreground,Centre,"beatmap by saturio.png",320,240 F,0,1081,2499,0,1 M,0,1081,8640,396,308,543,411 S,0,1081,8640,0.5187201 F,0,4861,6751,1,0
Sprite,Foreground,Centre,"2x speed.png",320,240 M,0,163719,,320,251 F,0,163719,164073,0,1 S,0,163719,165136,0.5391999,0.8566399 F,0,164782,165254,1,0
//Storyboard Sound Samples
//Background Colour Transformations
3,100,255,255,255

[TimingPoints]
6751,472.44094488189,4,1,1,51,1,0
21982,-100,4,1,1,25,0,0
28483,-200,4,1,1,25,0,0
29428,-100,4,1,1,25,0,0
36042,-200,4,1,1,25,0,0
36987,-100,4,1,1,25,0,0
44668,-100,4,1,1,35,0,0
50339,-100,4,2,1,51,0,0
51757,-100,4,1,1,51,0,0
52111,-100,4,1,1,51,0,1
57665,-100,4,2,1,51,0,0
59319,-100,4,1,1,51,0,0
59673,-100,4,1,1,51,0,1
74797,-100,4,1,1,51,0,0
96275,-200,4,1,1,51,0,0
97459,-100,4,1,1,51,0,0
103272,-100,4,2,1,51,0,0
104690,-100,4,1,1,51,0,0
105044,-100,4,1,1,51,0,1
118377,-100,4,2,1,51,0,0
119794,-100,4,1,1,51,0,0
133498,-100,4,2,1,51,0,0
134915,-100,4,1,1,51,0,0
150391,-100,4,1,1,51,0,1
163717,-100,4,2,1,51,0,0
165134,-100,4,1,1,51,0,0
165370,-50,4,1,1,51,0,1
166317,-100,4,1,1,51,0,1
167499,-50,4,1,1,51,0,1
168443,-100,4,1,1,51,0,1
169211,-100,4,1,1,51,0,1
172991,-50,4,1,1,51,0,1
173817,-100,4,1,1,51,0,1
174999,-50,4,1,1,51,0,1
175943,-100,4,1,1,51,0,1
180279,-100,4,2,1,51,0,0
186632,-200,4,2,1,51,0,0
186987,-100,4,2,1,51,0,0
187367,-100,4,1,1,51,0,0
188075,-100,4,2,1,51,0,0

[Colours]
Combo1 : 255,255,255
Combo2 : 255,0,0
Combo3 : 255,255,0
Combo4 : 255,117,51
Combo5 : 198,119,0

[HitObjects]
104,120,6751,1,4
208,88,7105,1,8
208,88,7223,2,0,B|304:96,1,80,0|8
368,216,7695,1,0
344,216,7813,1,0
320,208,7932,1,8
296,208,8050,1,0
272,200,8168,2,0,B|184:192,1,80,0|8
8,296,8640,6,0,B|40:336|104:344,1,80,0|8
112,320,8995,1,0
144,296,9113,2,0,B|176:336|240:344,1,80,0|8
248,320,9467,1,0
280,296,9585,2,0,B|312:336|376:344,1,80,0|8
384,320,9939,1,0
416,296,10058,2,0,B|448:336|512:344,1,80,0|8
104,264,10530,5,4
208,296,10884,1,8
208,296,11002,2,0,B|304:288,1,80,0|8
368,168,11475,1,0
344,168,11593,1,0
320,176,11711,1,8
296,176,11829,1,0
272,184,11947,2,0,B|184:192,1,80,0|8
8,88,12420,6,0,B|40:48|104:40,1,80,0|8
112,64,12774,1,0
144,88,12892,2,0,B|176:48|240:40,1,80,0|8
248,64,13247,1,0
280,88,13365,2,0,B|312:48|376:40,1,80,0|8
384,64,13719,1,0
416,88,13837,2,0,B|448:48|512:40,1,80,0|8
456,248,14310,5,4
360,192,14664,1,8
360,192,14782,2,0,B|264:200,1,80,0|8
184,264,15254,1,0
184,240,15373,1,0
176,215,15491,1,8
177,191,15609,1,0
169,167,15727,2,0,B|162:78,1,80,0|8
448,80,16199,6,0,B|416:120|352:128,1,80,0|8
344,120,16554,1,0
344,160,16672,2,0,B|376:200|440:208,1,80,0|8
448,184,17026,1,0
448,224,17144,2,0,B|416:264|352:272,1,80,0|8
344,264,17499,1,0
344,304,17617,2,0,B|376:344|440:352,1,80,0|8
56,248,18089,5,4
152,192,18443,1,8
152,192,18562,2,0,B|248:200,1,80,0|8
328,264,19034,1,0
328,240,19152,1,0
336,215,19270,1,8
335,191,19388,1,0
343,167,19506,2,0,B|349:78,1,80,0|8
64,80,19979,6,0,B|96:120|160:128,1,80,0|8
168,120,20333,1,0
168,160,20451,2,0,B|136:200|72:208,1,80,0|8
64,184,20806,1,0
64,224,20924,2,0,B|96:264|160:272,1,80,0|8
168,264,21278,1,0
168,304,21396,2,0,B|136:344|72:352,1,80,0|8
56,72,21869,5,4
184,88,22105,1,2
184,88,22223,2,0,B|192:192,1,80
224,192,22577,2,0,B|232:304,1,80,2|0
24,192,23286,2,0,B|32:304|48:384,1,160
128,280,23995,5,0
128,280,24113,2,0,B|232:272,1,80,2|0
240,224,24467,2,0,B|344:216,1,80,2|0
464,48,25176,2,0,B|480:128|448:216,1,160,2|0
376,168,25884,1,0
184,48,26121,5,0
184,48,26239,1,2
184,48,26357,1,0
56,80,26593,1,2
152,176,26947,1,2
184,48,27302,1,2
184,48,27538,1,0
80,328,27774,5,0
80,328,27892,2,0,B|152:328|224:312,1,120,2|0
432,296,28483,2,0,B|384:296|336:304,2,80,0|2|0
328,88,29664,5,2
328,88,29782,2,0,B|320:192,1,80
288,192,30136,2,0,B|280:304,1,80,2|0
488,192,30845,2,0,B|480:304|464:384,1,160
384,280,31554,5,0
384,280,31672,2,0,B|280:272,1,80,2|0
272,224,32026,2,0,B|168:216,1,80,2|0
48,48,32735,2,0,B|32:128|64:216,1,160,2|0
136,168,33443,1,0
328,48,33680,5,0
328,48,33798,1,2
328,48,33916,1,0
448,96,34152,1,2
352,184,34506,1,2
328,48,34861,1,2
328,48,35097,1,0
432,328,35333,5,0
432,328,35451,2,0,B|360:328|288:312,1,120,2|0
80,296,36042,2,0,B|128:296|168:304,2,80,0|2|0
448,64,37459,5,0
448,64,37695,2,0,B|440:240,1,160,2|0
360,256,38404,2,0,B|368:160,2,80,2|0|0
112,256,39231,5,0
112,256,39349,2,0,B|120:152,1,80,0|2
264,80,40058,2,0,B|304:200|288:336,1,240,2|0
56,64,41239,5,0
56,64,41475,2,0,B|64:232,1,160,2|0
144,160,42184,2,0,B|152:256,2,80,2|0|0
400,256,43128,5,0
400,256,43365,2,0,B|384:64,1,160,0|2
304,80,44073,2,0,B|320:264,1,160
64,320,44782,5,8
64,320,44900,1,0
72,232,45136,1,0
72,232,45254,1,8
144,280,45491,2,0,B|248:280,1,80,0|8
240,240,45845,2,0,B|344:240,1,80,0|0
336,240,46199,1,8
352,240,46317,1,0
368,240,46436,1,0
448,64,46672,5,8
448,64,46790,1,0
440,152,47026,1,0
440,152,47144,1,8
368,104,47380,2,0,B|264:104,1,80,0|8
272,144,47735,2,0,B|168:144,1,80,0|0
160,176,48089,1,8
160,176,48325,1,0
80,336,48562,5,8
80,336,48680,1,0
168,312,48916,1,0
168,312,49034,1,8
104,256,49270,2,0,B|88:216|96:144,1,80,0|8
93,177,49625,1,0
144,104,49861,2,0,B|152:56,1,40,0|8
392,112,50451,5,2
392,272,50688,1,2
256,352,50924,1,2
120,272,51160,1,2
120,112,51396,1,2
256,32,51632,1,12
440,328,52105,5,4
416,320,52223,1,0
392,312,52341,1,8
368,304,52459,1,0
280,280,52695,1,0
256,272,52813,2,0,B|248:176,1,80,8|0
192,128,53286,1,10
192,128,53522,1,2
192,128,53758,1,8
56,336,53995,6,0,B|64:240,1,80,0|8
136,328,54467,2,0,B|144:224,1,80,0|8
142,248,54939,1,2
142,248,55176,1,8
142,248,55412,1,2
142,248,55648,1,8
72,56,55884,5,0
96,64,56002,1,0
120,72,56121,1,8
144,80,56239,1,0
232,104,56475,1,0
256,112,56593,2,0,B|264:208,1,80,8|0
320,256,57065,1,10
320,256,57184,1,0
320,256,57302,1,2
232,280,57538,1,8
120,112,58010,5,2
120,272,58247,1,2
256,352,58483,1,2
392,272,58719,1,2
392,112,58955,1,2
256,32,59191,1,12
344,320,59664,5,4
280,264,59900,2,0,B|272:208,1,40,8|0
192,248,60254,2,0,B|184:184,1,40,0|8
96,208,60609,1,2
96,208,60727,1,0
96,208,60845,2,0,B|72:120,1,80,8|2
74,130,61199,1,2
74,130,61317,1,10
96,40,61554,1,0
232,120,61790,6,0,B|240:176,1,40,8|0
320,136,62144,2,0,B|328:200,1,40,0|8
416,176,62499,1,2
416,176,62617,1,0
416,176,62735,2,0,B|440:264,1,80,8|2
437,253,63089,1,2
437,253,63207,1,10
136,336,63443,5,0
136,336,63562,2,0,B|112:288|112:224,1,80
192,216,64034,1,0
192,216,64152,1,8
256,104,64388,2,0,B|280:152|280:216,1,80,0|8
278,180,64861,1,0
256,336,65097,5,8
256,336,65215,1,2
336,304,65451,2,0,B|456:288,1,80
464,200,65924,1,2
440,200,66042,2,0,B|344:216,1,80,8|0
272,200,66514,1,8
184,216,66750,1,2
104,256,66987,1,8
168,64,67223,5,4
232,120,67459,2,0,B|240:176,1,40,8|0
320,136,67813,2,0,B|328:200,1,40,0|8
416,176,68168,1,2
416,176,68286,1,0
416,176,68404,2,0,B|440:264,1,80,8|2
437,253,68758,1,0
437,253,68876,1,8
416,344,69113,1,0
280,264,69349,6,0,B|272:208,1,40,8|0
192,248,69703,2,0,B|184:184,1,40,0|8
96,208,70058,1,2
96,208,70176,1,0
96,208,70294,2,0,B|72:120,1,80,8|2
74,130,70648,1,0
74,130,70766,1,8
376,48,71002,5,0
376,48,71121,2,0,B|400:96|400:160,1,80
320,168,71593,1,0
320,168,71711,1,8
256,280,71947,2,0,B|232:232|232:168,1,80,0|8
233,203,72420,1,0
256,48,72656,5,8
256,48,72774,1,2
176,80,73010,2,0,B|56:96,1,80
48,184,73483,1,2
72,184,73601,2,0,B|168:168,1,80,8|0
208,240,74073,1,8
240,160,74310,1,2
296,232,74546,1,8
296,232,74664,1,0
296,232,74782,1,4
72,192,82341,5,4
328,296,82577,1,10
328,296,82695,2,0,B|320:192,1,80
288,192,83050,2,0,B|280:80,1,80,8|0
488,192,83758,2,0,B|480:80|464:0,1,160
384,104,84467,5,8
384,104,84585,2,0,B|280:112,1,80,2|0
272,160,84939,2,0,B|168:168,1,80,8|0
48,336,85648,2,0,B|32:256|64:168,1,160,2|0
136,216,86357,1,8
328,336,86593,5,0
328,336,86711,1,2
328,336,86829,1,0
408,304,87065,1,2
432,216,87302,1,8
432,216,87420,1,2
344,240,87656,1,0
344,240,87774,1,10
408,304,88010,1,0
432,56,88247,5,8
432,56,88365,2,0,B|360:56|288:72,1,120,2|8
80,88,88955,2,0,B|152:88|224:72,2,120,0|0|8
80,88,89782,1,0
80,88,89900,1,0
184,296,90136,5,8
184,296,90254,2,0,B|192:192,1,80
224,192,90609,2,0,B|232:80,1,80,8|0
416,192,91081,1,8
416,192,91199,1,0
416,192,91317,2,0,B|320:192,2,80,0|8|0
80,80,92026,5,8
88,104,92144,1,0
96,128,92262,2,0,B|112:240,1,80,0|8
176,264,92735,1,0
200,176,92971,2,0,B|280:208|344:280,1,160,8|8
330,265,93680,1,0
472,56,94034,5,8
472,56,94152,1,0
384,64,94388,1,8
304,96,94625,1,0
232,152,94861,1,8
232,152,94979,1,0
184,224,95215,1,0
184,224,95333,1,8
168,312,95569,1,0
64,72,95924,6,0,B|120:88,1,40,8|0
184,64,96278,2,0,B|288:72|384:104,1,200,8|8
448,320,97695,5,8
448,320,97813,1,0
440,232,98050,1,0
440,232,98168,1,8
368,280,98404,2,0,B|264:280,1,80,0|8
272,240,98758,2,0,B|168:240,1,80,0|0
176,240,99113,1,8
160,240,99231,1,0
144,240,99349,1,0
64,64,99585,5,8
64,64,99703,1,0
72,152,99939,1,0
72,152,100058,1,8
144,104,100294,2,0,B|248:104,1,80,0|8
240,144,100648,2,0,B|344:144,1,80,0|0
352,176,101002,1,8
352,176,101239,1,0
432,336,101475,5,8
432,336,101593,1,0
344,312,101829,1,0
344,312,101947,1,8
408,256,102184,2,0,B|424:216|416:144,1,80,0|8
419,177,102538,1,0
368,104,102774,2,0,B|360:56,1,40,0|8
120,112,103365,5,2
120,272,103601,1,2
256,352,103837,1,2
392,272,104073,1,2
392,112,104310,1,2
256,32,104546,1,12
72,328,105018,5,4
96,320,105136,1,0
120,312,105254,1,8
144,304,105373,1,0
232,280,105609,1,0
256,272,105727,2,0,B|264:176,1,80,8|0
320,128,106199,1,10
320,128,106436,1,2
320,128,106672,1,8
456,336,106908,6,0,B|448:240,1,80,0|8
376,328,107380,2,0,B|368:224,1,80,0|8
370,248,107853,1,2
370,248,108089,1,8
370,248,108325,1,2
370,248,108562,1,8
440,56,108798,5,0
416,64,108916,1,0
392,72,109034,1,8
368,80,109152,1,0
280,104,109388,1,0
256,112,109506,2,0,B|248:208,1,80,8|0
192,256,109979,1,10
192,256,110097,1,0
192,256,110215,1,2
280,280,110451,1,8
336,88,110924,5,2
336,176,111160,1,2
256,224,111396,1,2
176,176,111632,1,2
176,88,111869,1,2
256,40,112105,1,12
168,320,112577,5,4
232,264,112813,2,0,B|240:208,1,40,8|0
320,248,113168,2,0,B|328:184,1,40,0|8
416,208,113522,1,2
416,208,113640,1,0
416,208,113758,2,0,B|440:120,1,80,8|2
437,130,114113,1,0
437,130,114231,1,8
328,48,114467,5,4
280,120,114703,2,0,B|272:176,1,40,8|0
192,136,115058,2,0,B|184:200,1,40,0|8
96,176,115412,1,2
96,176,115530,1,0
96,176,115648,2,0,B|72:264,1,80,8|2
74,253,116002,1,0
74,253,116121,1,8
376,336,116357,5,0
376,336,116475,2,0,B|400:288|400:224,1,80
320,216,116947,1,0
320,216,117065,1,8
256,104,117302,2,0,B|232:152|232:216,1,80,0|8
233,180,117656,1,0
233,180,117774,1,0
168,120,118010,1,8
255,354,118483,5,2
392,272,118719,1,2
390,114,118955,1,2
256,32,119191,1,2
120,112,119428,1,2
120,280,119664,1,12
256,192,119900,5,8
256,192,120136,1,4
184,240,120373,1,8
184,240,120491,1,0
184,240,120609,2,0,B|136:240|80:192,1,80,0|8
56,144,121081,1,0
54,127,121199,1,0
63,111,121317,1,8
67,89,121436,1,0
76,74,121554,1,0
144,128,121790,1,8
336,56,122026,6,0,B|400:64|432:80,1,80,0|8
384,144,122499,2,0,B|320:144|272:112,1,80,0|8
305,129,122971,1,0
416,336,123325,5,0
416,336,123443,2,0,B|320:320,1,80,0|8
248,320,123916,2,0,B|184:312,3,40,0|0|8|0
176,288,124388,2,0,B|112:280,3,40,0|0|8|0
104,256,124861,2,0,B|96:208,1,40
56,208,125097,2,0,B|40:144,1,40,8|0
8,144,125333,2,0,B|-8:56,1,80,0|8
216,120,125806,6,0,B|204:56|210:21,1,80,0|8
286,48,126278,2,0,B|304:109|288:164,1,80,0|8
295,127,126750,1,0
416,336,127105,5,0
416,336,127223,2,0,B|320:320,1,80,0|8
272,264,127695,2,8,B|208:272,1,40
152,232,128050,1,0
72,192,128286,2,0,B|16:200,1,40,0|8
48,112,128640,2,0,B|144:96,1,80,2|8
208,56,129113,2,0,B|320:40,1,80,2|8
448,184,129585,6,8,B|440:240,1,40
352,224,129939,1,0
256,272,130176,2,0,B|264:200,1,40,0|8
176,200,130530,2,0,B|184:152|168:112,1,80,2|8
96,160,131002,2,0,B|96:240|112:264,1,80,2|8
256,48,131475,5,2
256,48,131593,1,2
192,112,131829,2,0,B|208:192,1,80
207,190,132184,1,8
288,152,132420,1,0
344,224,132656,1,10
296,296,132892,1,0
208,272,133128,1,10
408,72,133601,5,2
336,320,133837,1,10
256,80,134073,1,2
176,320,134310,1,10
104,72,134546,1,2
256,248,134782,1,14
62,69,150373,5,4
87,75,150491,1,0
111,81,150609,1,8
136,88,150727,1,0
225,105,150963,1,0
250,112,151081,2,0,B|265:207,1,80,8|0
324,251,151554,1,10
324,251,151790,1,2
324,251,152026,1,8
445,34,152262,6,0,B|444:130,1,80,0|8
366,47,152735,2,0,B|365:152,1,80,0|8
365,128,153207,1,2
365,128,153443,1,8
365,128,153680,1,2
365,128,153916,1,8
449,314,154152,5,0
424,308,154270,1,0
400,302,154388,1,8
375,295,154506,1,0
286,278,154743,1,0
261,271,154861,2,0,B|246:176,1,80,8|0
187,132,155333,1,10
187,132,155451,1,0
187,132,155569,1,2
273,102,155806,1,8
104,336,156278,5,2
184,288,156514,1,2
184,200,156750,1,2
104,152,156987,1,2
32,200,157223,1,2
32,288,157459,1,12
344,320,157932,5,4
280,264,158168,2,0,B|272:208,1,40,8|0
200,176,158522,2,0,B|192:112,1,40,0|8
112,168,158876,1,2
112,168,158995,1,0
112,168,159113,2,0,B|88:80,1,80,8|2
90,90,159467,1,2
90,90,159585,1,10
232,120,159821,5,4
232,120,160058,2,0,B|240:176,1,40,8|0
320,232,160412,2,0,B|315:192,1,40,0|8
416,176,160766,1,2
432,184,160884,1,0
448,192,161002,2,0,B|472:280,1,80,8|2
469,269,161357,1,2
469,269,161475,1,10
136,336,161711,5,0
136,336,161829,2,0,B|112:288|112:224,1,80
192,216,162302,1,0
192,216,162420,1,8
256,104,162656,2,0,B|280:152|280:216,1,80,0|8
278,180,163010,1,0
279,180,163128,1,0
336,120,163365,1,8
257,354,163837,5,2
120,272,164073,1,2
122,114,164310,1,2
256,32,164546,1,2
392,112,164782,1,2
392,280,165018,1,12
208,344,165491,6,0,B|112:336|48:296,1,160,4|8
304,40,165963,2,0,B|400:48|488:96,1,160,0|8
304,160,166436,1,0
304,160,166554,1,0
304,160,166672,1,8
192,96,166908,1,0
168,112,167026,1,0
160,136,167144,1,8
144,152,167262,1,0
136,176,167380,1,0
456,288,167617,6,0,B|384:336|256:352,1,160,8|0
56,96,168089,2,0,B|128:48|256:32,1,160,8|0
204,40,168443,1,0
204,40,168562,1,8
240,136,168798,1,0
240,136,168916,1,0
240,136,169034,1,8
304,64,169270,5,8
336,72,169388,1,0
368,88,169506,1,0
392,112,169625,1,8
408,144,169743,2,0,B|424:192,2,40,0|0|8
344,312,170215,5,8
312,328,170333,1,0
280,336,170451,1,0
248,336,170569,1,8
216,336,170688,1,0
184,328,170806,1,0
152,320,170924,1,8
88,168,171396,5,10
160,184,171632,1,2
216,136,171869,1,8
288,136,172105,1,2
352,184,172341,1,8
424,168,172577,1,2
304,40,173050,6,0,B|400:48|488:96,1,160,4|8
208,344,173522,2,0,B|112:336|24:288,1,160,0|8
208,224,173995,1,0
208,224,174113,1,0
208,224,174231,1,8
320,288,174467,1,0
344,272,174585,1,0
352,248,174703,1,8
368,232,174821,1,0
376,208,174939,1,0
56,96,175176,6,0,B|128:48|256:32,1,160,8|0
456,288,175648,2,0,B|384:336|256:352,1,160,8|0
307,343,176002,1,0
307,343,176121,1,8
272,248,176357,1,0
272,248,176475,1,0
272,248,176593,1,8
208,320,176829,5,8
176,304,176947,1,0
144,296,177065,1,0
120,272,177184,1,8
88,264,177302,2,0,B|80:208,2,40,0|0|8
128,48,177774,5,8
160,56,177892,1,0
192,64,178010,1,0
224,80,178128,1,8
256,88,178247,1,0
288,96,178365,1,0
320,104,178483,1,8
424,216,178955,5,10
352,200,179191,1,2
296,248,179428,1,8
224,248,179664,1,2
160,200,179900,1,8
88,216,180136,5,2
256,152,180373,1,2
424,216,180609,1,4
424,216,180963,1,2
424,216,181317,1,2
256,256,181790,6,2,B|256:360,2,80,2|0|2
256,256,182499,1,2
256,256,182735,1,0
256,256,182971,1,2
256,256,183207,1,0
256,256,183443,1,2
56,128,183680,5,0
56,128,183798,1,0
56,128,183916,1,2
104,56,184152,1,2
144,136,184388,2,0,B|200:152|264:112,2,120,2|0|2
376,88,185333,5,0
440,160,185569,1,2
440,160,185688,2,0,B|416:200|416:264,1,80
400,240,186042,1,2
376,248,186160,1,0
360,256,186278,1,2
272,192,186514,1,2
272,192,186632,2,0,B|192:192,1,60,0|2
128,288,187223,5,0
64,192,187459,1,0
128,96,187695,1,0
240,128,187932,1,0
240,248,188168,1,4
