osu file format v7

[General]
AudioFilename: 12 Te Aviso, Te Anuncio.mp3
AudioLeadIn: 0
PreviewTime: 48929
Countdown: 0
SampleSet: Normal
StackLeniency: 0.4
Mode: 1
LetterboxInBreaks: 1

[Editor]
DistanceSpacing: 0.829999983310699
BeatDivisor: 4
GridSize: 16

[Metadata]
Title:Te Aviso, Te Anuncio
Artist:Shakira
Creator:Krisom
Version:lepidon! - Taiko Oni
Source:
Tags:lepidopodus spanish objection tango laundry service servicio de lavanderia

[Difficulty]
HPDrainRate:5
CircleSize:5
OverallDifficulty:5
SliderMultiplier:1.4
SliderTickRate:1

[Events]
//Background and Video events
0,0,"BG.jpg"
//Break Periods
//Storyboard Layer 0 (Background)
//Storyboard Layer 1 (Fail)
//Storyboard Layer 2 (Pass)
//Storyboard Layer 3 (Foreground)
//Storyboard Sound Samples
//Background Colour Transformations
3,100,163,162,255

[TimingPoints]
1740,472.44094488189,4,1,1,70,1,0
11188,480,4,1,1,70,1,0
15028,400,4,1,1,70,1,0
18276,335.00837520938,4,1,1,70,1,0
49096,334.075723830735,4,1,1,70,1,1
71813,-100,4,1,1,70,0,0
73149,335.00837520938,4,1,1,70,1,0
90601,334.634690462911,4,1,1,70,1,0
103986,334.075723830735,4,1,1,70,1,1
125366,-100,4,1,1,70,0,0
141402,334.448160535117,4,1,1,70,1,0
166820,334.261838440111,4,1,1,70,1,1
198909,-100,4,1,1,70,0,0

[Colours]
Combo1 : 252,221,3
Combo2 : 4,208,4
Combo3 : 14,98,254
Combo4 : 240,5,5
SliderBorder : 0,0,0

[HitObjects]
256,192,15028,12,0,17828
256,192,18228,5,4
368,176,18611,1,8
384,240,18778,1,0
352,288,18946,1,0
432,208,19281,1,0
272,176,19783,1,0
304,128,19951,1,8
368,128,20118,1,0
416,160,20286,1,0
384,272,20621,1,8
272,272,20956,1,0
192,192,21291,1,8
304,128,21458,1,0
352,160,21626,1,0
416,256,21961,1,0
272,272,22463,1,0
320,240,22631,1,8
368,224,22798,1,0
416,192,22966,1,0
448,144,23133,1,0
400,112,23301,1,8
288,112,23636,5,0
320,240,23971,1,8
336,304,24138,1,0
350,360,24306,1,0
336,352,24389,1,0
320,336,24473,1,0
256,304,24641,1,0
288,192,24976,1,0
336,176,25143,1,8
400,176,25311,1,0
448,208,25478,1,8
400,240,25646,1,0
336,224,25813,1,8
352,160,25981,1,0
336,112,26148,1,8
272,112,26316,1,0
224,224,26651,1,0
192,272,26818,1,0
224,224,26986,1,0
192,272,27153,1,0
224,224,27321,1,0
208,256,27404,1,0
224,224,27488,1,0
288,208,27656,5,4
432,224,28996,1,8
256,192,30336,1,4
368,160,30671,1,8
400,208,30838,1,0
368,320,31173,1,8
336,256,31341,1,8
416,208,31508,1,0
416,208,31592,1,0
240,240,31676,1,0
256,192,31843,1,0
304,160,32011,1,8
352,176,32178,1,0
384,224,32346,1,0
384,256,32430,1,0
384,256,32513,1,0
416,208,32681,1,8
320,272,33016,5,4
288,176,34356,1,8
400,144,35696,1,4
352,256,36031,1,8
400,224,36198,1,0
304,144,36533,1,8
352,176,36701,1,8
368,224,36868,1,0
384,256,36952,1,0
384,256,37036,1,0
384,256,37203,1,0
352,256,37287,1,0
432,208,37371,1,8
400,256,37538,1,0
432,208,37706,1,0
416,240,37790,1,0
416,240,37873,1,0
400,192,38041,1,8
336,192,38208,1,8
288,144,38376,5,0
256,192,38544,1,0
304,160,38711,1,8
352,128,38879,1,8
416,144,39046,1,0
448,160,39130,1,0
480,160,39214,1,0
448,208,39381,1,8
400,240,39549,1,0
352,272,39716,1,0
304,288,39884,1,0
256,256,40051,1,8
224,208,40219,1,8
272,176,40386,1,0
304,160,40470,1,0
336,160,40554,1,0
448,160,40721,1,8
464,192,40805,1,8
448,224,40889,1,8
416,176,41056,1,0
368,144,41224,1,0
352,192,41391,1,8
336,256,41559,1,8
368,304,41726,1,0
368,304,41810,1,0
368,304,41894,1,0
400,256,42061,1,8
384,192,42229,1,0
416,144,42396,1,0
432,112,42480,1,0
448,80,42564,1,0
448,144,42731,1,8
432,208,42899,1,0
432,240,42982,1,0
416,272,43066,1,0
352,272,43234,1,0
304,240,43401,1,8
272,192,43569,1,0
240,144,43736,5,0
288,112,43904,1,0
352,112,44071,1,8
416,128,44239,1,8
416,192,44406,1,0
416,224,44490,1,0
416,256,44574,1,8
352,272,44741,1,8
304,240,44909,1,0
256,224,45076,1,0
192,208,45244,1,0
240,176,45411,1,8
288,144,45579,1,8
352,144,45746,1,0
384,144,45830,1,0
416,144,45914,1,8
416,224,46081,1,8
416,256,46165,1,8
400,240,46249,1,0
352,256,46416,1,0
336,272,46500,1,0
320,288,46584,1,0
304,224,46751,1,8
288,192,46835,1,8
288,160,46919,1,8
240,128,47086,1,0
208,112,47170,1,0
176,112,47254,1,0
240,112,47421,1,8
272,112,47505,1,8
304,96,47589,1,8
352,112,47756,1,0
400,144,47924,1,0
416,208,48091,1,0
384,256,48259,1,0
320,256,48426,1,0
288,256,48510,1,0
256,272,48594,1,0
256,272,48678,1,0
224,272,48761,1,0
224,272,48845,1,0
192,256,48929,1,0
208,192,49096,5,4
320,160,49430,1,8
352,176,49513,1,8
384,144,49597,1,8
400,208,49764,1,4
352,304,50098,1,8
384,288,50181,1,8
320,256,50265,1,0
368,208,50432,1,4
384,144,50766,1,8
400,176,50849,1,8
432,176,50933,1,8
432,240,51100,1,0
432,304,51267,1,0
432,176,51434,1,8
384,208,51601,1,0
336,192,51768,1,0
304,176,51852,1,0
272,160,51935,1,0
304,112,52102,1,8
352,80,52269,1,8
432,176,52436,1,0
464,128,52603,1,0
464,192,52770,1,8
368,272,53104,1,0
304,176,53438,1,8
256,208,53606,1,8
304,192,53773,1,0
352,176,53940,1,0
384,224,54107,1,8
384,224,54190,1,8
384,224,54274,1,8
416,176,54441,5,4
320,112,54775,1,8
336,128,54858,1,8
368,144,54942,1,8
416,160,55109,1,4
416,272,55443,1,8
416,240,55526,1,8
416,208,55610,1,0
352,224,55777,1,4
256,160,56111,1,8
224,208,56278,1,8
256,256,56445,1,0
288,304,56612,1,0
336,256,56779,1,8
352,240,56863,1,8
368,208,56946,1,0
368,144,57113,1,0
352,112,57197,1,0
352,112,57280,1,0
384,160,57447,1,8
416,208,57614,1,8
448,256,57781,1,0
416,304,57949,1,0
432,240,58116,1,8
320,208,58450,1,0
416,160,58784,1,8
416,160,58951,1,8
416,160,59118,1,0
352,160,59285,1,0
320,160,59368,1,0
336,128,59452,1,8
352,96,59535,1,8
352,96,59619,1,8
288,96,59786,5,4
304,208,60120,1,8
304,240,60204,1,0
320,272,60287,1,8
384,288,60454,1,4
416,176,60788,1,8
416,176,60872,1,8
432,208,60955,1,0
400,160,61122,1,4
288,112,61456,1,8
352,112,61623,1,8
368,144,61707,1,8
400,128,61790,1,0
448,160,61957,1,0
416,208,62124,1,8
400,240,62208,1,8
448,256,62291,1,0
384,240,62459,1,0
352,240,62542,1,0
320,240,62626,1,0
272,208,62793,1,8
208,208,62960,1,8
240,160,63127,1,0
256,128,63210,1,0
256,128,63294,1,0
304,112,63461,1,8
416,128,63795,1,0
432,176,63962,1,0
400,192,64045,1,0
432,240,64129,1,8
384,272,64296,1,0
336,256,64463,1,0
272,256,64630,1,0
272,224,64714,1,0
240,208,64797,1,8
288,176,64964,1,8
304,112,65131,5,4
416,144,65465,1,8
432,176,65549,1,0
448,192,65632,1,8
448,128,65799,1,4
432,240,66133,1,8
416,256,66217,1,8
384,240,66300,1,0
336,208,66467,1,4
224,176,66802,1,8
224,176,66969,1,8
288,176,67136,1,0
320,160,67219,1,0
320,160,67303,1,0
384,176,67470,1,8
448,160,67637,1,0
432,208,67804,1,0
416,240,67887,1,0
400,272,67971,1,0
336,272,68138,1,8
272,288,68305,1,8
224,256,68472,1,0
224,256,68555,1,0
224,256,68639,1,0
272,224,68806,1,8
368,160,69140,1,0
432,256,69474,1,8
432,256,69641,1,8
416,208,69808,1,0
368,240,69975,1,0
352,256,70059,1,0
400,160,70142,1,8
368,176,70226,1,8
400,160,70309,1,8
336,144,70476,1,12
224,176,70810,1,0
192,224,70977,1,0
240,240,71144,1,0
304,256,71312,1,4
368,272,71479,1,4
432,288,71646,1,4
368,288,71813,1,4
256,192,73149,5,4
368,176,73484,1,8
384,240,73651,1,0
352,288,73819,1,0
432,208,74154,1,0
272,176,74656,1,0
304,128,74824,1,8
368,128,74991,1,0
416,160,75159,1,0
384,272,75494,1,8
272,272,75829,1,0
192,192,76164,1,8
304,128,76331,1,0
352,160,76499,1,0
416,256,76834,1,0
272,272,77336,1,0
320,240,77504,1,8
368,224,77671,1,0
416,192,77839,1,0
448,144,78006,1,0
400,112,78174,1,8
288,112,78509,5,0
320,240,78844,1,8
336,304,79011,1,0
350,360,79179,1,0
336,352,79262,1,0
320,336,79346,1,0
256,304,79514,1,0
288,192,79849,1,0
336,176,80016,1,8
400,176,80184,1,0
448,208,80351,1,8
400,240,80519,1,0
336,224,80686,1,8
352,160,80854,1,0
336,112,81021,1,8
272,112,81189,1,0
224,224,81524,1,0
192,272,81691,1,0
224,224,81859,1,0
192,272,82026,1,0
224,224,82194,1,0
208,256,82277,1,0
224,224,82361,1,0
288,208,82529,5,4
432,224,83869,1,8
256,192,85209,1,4
368,160,85544,1,8
400,208,85711,1,0
368,320,86046,1,8
352,176,86130,1,8
336,256,86214,1,8
416,208,86381,1,0
416,208,86465,1,0
240,240,86549,1,0
256,192,86716,1,0
304,160,86884,1,8
352,176,87051,1,0
384,224,87219,1,0
384,256,87303,1,0
384,256,87386,1,0
416,208,87554,1,8
320,272,87889,5,4
288,176,89229,1,8
400,144,90601,1,4
352,256,90935,1,8
400,224,91102,1,0
304,144,91437,1,8
320,160,91521,1,8
352,176,91604,1,8
368,224,91772,1,0
384,256,91855,1,0
384,256,91939,1,0
384,256,92106,1,0
352,256,92190,1,0
432,208,92274,1,8
400,256,92441,1,0
432,208,92608,1,0
416,240,92692,1,0
416,240,92776,1,0
400,192,92943,1,8
336,192,93110,1,8
288,144,93278,5,0
256,192,93445,1,0
304,160,93612,1,8
352,128,93780,1,8
416,144,93947,1,0
448,160,94031,1,0
480,160,94114,1,0
448,208,94281,1,8
400,240,94449,1,0
384,256,94532,1,0
352,272,94616,1,0
304,288,94783,1,0
256,256,94951,1,8
224,208,95118,1,8
272,176,95285,1,0
304,160,95369,1,0
336,160,95453,1,0
448,160,95620,1,8
464,192,95704,1,8
448,224,95787,1,8
416,176,95955,1,0
368,144,96122,1,0
352,192,96289,1,8
336,256,96457,1,8
368,304,96624,1,0
368,304,96708,1,0
368,304,96791,1,0
400,256,96959,1,8
384,192,97126,1,0
416,144,97293,1,0
432,112,97377,1,0
448,80,97461,1,0
448,144,97628,1,8
432,208,97795,1,0
432,240,97879,1,0
416,272,97962,1,0
384,272,98046,1,0
352,272,98130,1,0
304,240,98297,1,8
272,192,98464,1,0
240,144,98632,5,0
288,112,98799,1,0
352,112,98966,1,8
416,128,99134,1,8
416,192,99301,1,0
416,224,99385,1,0
416,256,99468,1,8
352,272,99636,1,8
304,240,99803,1,0
272,256,99887,1,0
256,224,99970,1,0
192,208,100138,1,0
240,176,100305,1,8
288,144,100472,1,8
352,144,100640,1,0
384,144,100723,1,0
416,144,100807,1,8
416,224,100974,1,8
416,256,101058,1,8
400,240,101141,1,0
352,256,101309,1,0
336,272,101392,1,0
320,288,101476,1,0
304,224,101643,1,8
288,192,101727,1,8
288,160,101811,1,8
240,128,101978,1,0
208,112,102062,1,0
176,112,102145,1,0
240,112,102313,1,8
272,112,102396,1,8
304,96,102480,1,8
352,112,102647,1,0
400,144,102815,1,0
416,208,102982,1,0
384,256,103149,1,0
320,256,103317,1,0
288,256,103400,1,0
256,272,103484,1,0
256,272,103568,1,0
224,272,103651,1,0
224,272,103735,1,0
192,256,103819,1,0
208,192,103986,5,4
320,160,104320,1,8
352,176,104403,1,8
384,144,104487,1,8
400,208,104654,1,4
352,304,104988,1,8
384,288,105071,1,8
320,256,105155,1,0
368,208,105322,1,4
384,144,105656,1,8
400,176,105739,1,8
432,176,105823,1,8
432,240,105990,1,0
432,304,106157,1,0
432,176,106324,1,8
400,192,106408,1,8
384,208,106491,1,0
336,192,106658,1,0
304,176,106742,1,0
272,160,106825,1,0
304,112,106992,1,8
352,80,107159,1,8
432,176,107326,1,0
464,128,107493,1,0
432,144,107577,1,0
464,192,107660,1,8
368,272,107994,1,0
304,176,108328,1,8
256,208,108496,1,8
304,192,108663,1,0
352,176,108830,1,0
320,192,108913,1,0
384,224,108997,1,8
384,224,109080,1,8
384,224,109164,1,8
416,176,109331,5,4
320,112,109665,1,8
336,128,109748,1,8
368,144,109832,1,8
416,160,109999,1,4
416,272,110333,1,8
416,240,110416,1,8
416,208,110500,1,0
352,224,110667,1,4
256,160,111001,1,8
224,208,111168,1,8
256,256,111335,1,0
288,304,111502,1,0
272,288,111586,1,0
336,256,111669,1,8
352,240,111753,1,8
368,208,111836,1,0
368,144,112003,1,0
352,112,112087,1,0
352,112,112170,1,0
384,160,112337,1,8
416,208,112504,1,8
448,256,112671,1,0
416,304,112839,1,0
384,288,112922,1,0
432,240,113006,1,8
320,208,113340,1,0
416,160,113674,1,8
416,160,113841,1,8
416,160,114008,1,0
352,160,114175,1,0
320,160,114258,1,0
336,128,114342,1,8
352,96,114425,1,8
352,96,114509,1,8
288,96,114676,5,4
304,208,115010,1,8
304,240,115094,1,0
320,272,115177,1,8
384,288,115344,1,4
416,176,115678,1,8
416,176,115762,1,8
432,208,115845,1,0
400,160,116012,1,4
288,112,116346,1,8
352,112,116513,1,8
368,144,116597,1,8
400,128,116680,1,0
448,160,116847,1,0
208,208,116931,1,0
416,208,117014,1,8
400,240,117098,1,8
448,256,117181,1,0
384,240,117349,1,0
352,240,117432,1,0
320,240,117516,1,0
272,208,117683,1,8
208,208,117850,1,8
240,160,118017,1,0
256,128,118100,1,0
256,128,118184,1,0
256,160,118267,1,0
304,112,118351,1,8
416,128,118685,1,0
432,176,118852,1,0
400,192,118935,1,0
432,240,119019,1,8
384,272,119186,1,0
336,256,119353,1,0
272,256,119520,1,0
272,224,119604,1,0
240,208,119687,1,8
272,208,119771,1,8
288,176,119854,1,8
304,112,120021,5,4
416,144,120355,1,8
432,176,120439,1,0
448,192,120522,1,8
448,128,120689,1,4
432,240,121023,1,8
416,256,121107,1,8
384,240,121190,1,0
336,208,121357,1,4
224,176,121692,1,8
224,176,121859,1,8
288,176,122026,1,0
320,160,122109,1,0
320,160,122193,1,0
384,176,122360,1,8
400,192,122443,1,8
448,160,122527,1,0
432,208,122694,1,0
416,240,122777,1,0
400,272,122861,1,0
336,272,123028,1,8
272,288,123195,1,8
224,256,123362,1,0
224,256,123445,1,0
224,256,123529,1,0
256,256,123612,1,0
272,224,123696,1,8
368,160,124030,1,0
432,256,124364,1,8
432,256,124531,1,8
416,208,124698,1,0
368,240,124865,1,0
352,256,124949,1,0
400,160,125032,1,8
368,176,125116,1,8
400,160,125199,1,8
336,144,125366,5,0
224,160,125700,1,8
208,208,125867,1,8
256,240,126034,1,0
368,288,126369,1,8
384,176,126703,1,0
432,288,127037,1,8
448,224,127204,1,8
384,176,127371,1,0
336,208,127538,1,0
368,160,127705,1,8
256,176,128039,1,0
368,144,128373,1,8
416,160,128540,1,8
416,224,128707,1,0
368,320,129041,1,8
336,208,129375,1,0
416,160,129709,1,8
448,208,129876,1,8
432,256,130043,1,0
384,272,130210,1,0
336,208,130377,1,8
288,240,130545,1,8
304,304,130712,5,0
352,208,131046,1,8
368,160,131213,1,8
416,192,131380,1,0
416,256,131547,1,0
384,304,131714,1,8
416,256,131881,1,0
448,208,132048,1,0
336,160,132382,1,8
336,160,132549,1,8
400,160,132716,1,0
464,160,132883,1,0
448,208,133050,1,8
400,240,133217,1,8
352,272,133384,1,0
240,224,133718,1,8
240,288,133885,1,8
288,256,134052,1,0
400,160,134219,1,0
432,208,134386,1,8
336,160,134720,1,0
336,224,134888,1,0
400,208,135055,1,8
432,208,135222,1,8
416,144,135389,1,0
400,160,135556,1,0
416,144,135723,1,8
400,192,135890,1,8
368,240,136057,2,0,L|112:256|112:80,1,420
224,96,137393,2,0,L|384:96|368:272|256:272,1,420
368,352,138729,2,0,L|176:256|144:48,1,420
256,96,140066,1,0
304,128,140233,1,0
304,192,140400,1,0
272,240,140567,1,0
272,240,140734,1,0
272,240,140817,1,0
272,240,140901,1,0
272,240,140984,1,0
272,240,141068,1,0
272,240,141151,1,0
272,240,141235,1,0
336,224,141402,5,4
128,128,142070,1,0
336,224,142739,1,0
368,320,143408,1,0
208,144,144077,5,0
368,208,144579,1,0
320,192,144746,1,0
432,336,145248,1,0
400,288,145415,1,0
224,256,145917,1,0
176,240,146084,1,0
352,272,146585,1,0
288,256,146753,1,0
416,192,147254,1,0
352,208,147422,1,0
192,256,147923,1,0
240,240,148090,1,0
304,144,148425,1,0
256,256,148759,1,0
352,192,149094,1,0
368,304,149428,5,0
192,304,149930,1,0
224,320,150014,1,0
256,304,150097,1,0
432,288,150599,1,0
416,304,150682,1,0
368,288,150766,1,0
336,320,151268,1,0
352,352,151351,1,0
336,320,151435,1,0
160,336,151937,1,0
352,352,152020,1,0
224,336,152104,1,0
384,256,152606,1,0
352,352,152689,1,0
336,288,152773,1,0
176,368,153274,1,0
208,352,153358,1,0
240,336,153442,1,0
352,288,153776,1,0
272,208,154111,1,0
304,240,154278,1,0
320,256,154445,1,0
320,256,154529,1,0
336,288,154612,1,0
352,256,154696,1,0
368,224,154779,5,0
384,112,155114,1,8
416,160,155281,1,8
432,208,155448,1,0
432,272,155616,1,0
400,224,155783,1,8
352,192,155950,1,0
304,160,156117,1,0
416,160,156452,1,8
464,192,156619,1,8
416,224,156786,1,0
368,256,156953,1,0
352,192,157121,1,8
288,192,157288,1,8
352,192,157455,1,0
464,192,157789,1,8
400,192,157957,1,8
416,128,158124,1,0
368,112,158291,1,0
400,160,158458,1,8
416,192,158542,1,8
400,224,158626,1,0
352,240,158793,1,0
288,256,158960,1,0
304,208,159127,1,8
336,160,159294,1,8
368,208,159462,1,0
384,224,159545,1,0
432,256,159629,1,8
400,208,159796,1,0
384,176,159880,1,0
384,144,159963,1,8
336,128,160131,5,0
448,144,160465,1,8
416,192,160632,1,8
432,256,160799,1,0
368,272,160967,1,0
320,224,161134,1,8
272,192,161301,1,0
224,160,161468,1,0
336,128,161803,1,8
400,128,161970,1,8
432,176,162137,1,0
400,224,162305,1,0
416,176,162472,1,8
416,176,162639,1,8
432,176,162806,1,0
336,240,163141,1,8
336,240,163308,1,8
352,192,163475,1,0
384,144,163642,1,0
448,160,163810,1,8
448,160,163893,1,8
432,192,163977,1,0
416,128,164144,1,0
320,272,164646,1,0
320,272,164813,1,0
160,208,165315,1,0
224,224,165482,1,0
224,224,165649,1,0
288,224,165816,1,0
224,224,165983,1,0
288,208,166151,1,0
320,208,166234,1,0
352,208,166318,1,0
352,208,166401,1,0
352,208,166485,1,0
352,208,166569,1,0
352,208,166652,1,0
208,192,166820,5,4
320,160,167154,1,8
352,176,167237,1,8
384,144,167321,1,8
400,208,167488,1,4
352,304,167822,1,8
384,288,167906,1,8
320,256,167989,1,0
368,208,168157,1,4
384,144,168491,1,8
400,176,168574,1,8
432,176,168658,1,8
432,240,168825,1,0
432,304,168992,1,0
400,304,169076,1,0
432,176,169159,1,8
400,192,169243,1,8
384,208,169326,1,0
336,192,169494,1,0
304,176,169577,1,0
272,160,169661,1,0
304,112,169828,1,8
352,80,169995,1,8
432,176,170162,1,0
400,192,170246,1,0
464,128,170329,1,0
432,144,170413,1,0
464,192,170496,1,8
368,272,170831,1,0
304,176,171165,1,8
256,208,171332,1,8
304,192,171499,1,0
352,176,171666,1,0
320,192,171750,1,0
384,224,171833,1,8
384,224,171917,1,8
384,224,172001,1,8
416,176,172168,5,4
320,112,172502,1,8
336,128,172586,1,8
368,144,172669,1,8
416,160,172836,1,4
416,272,173170,1,8
416,240,173254,1,8
416,208,173338,1,0
352,224,173505,1,4
256,160,173839,1,8
224,208,174006,1,8
256,256,174173,1,0
288,304,174340,1,0
272,288,174424,1,0
336,256,174508,1,8
352,240,174591,1,8
368,208,174675,1,0
368,144,174842,1,0
352,112,174925,1,0
352,112,175009,1,0
384,160,175176,1,8
416,208,175260,1,8
416,208,175343,1,8
448,256,175510,1,0
416,304,175677,1,0
384,288,175761,1,0
432,240,175845,1,8
320,208,176179,1,0
416,160,176513,1,8
400,176,176597,1,8
416,160,176680,1,8
416,160,176847,1,0
352,160,177014,1,0
320,160,177098,1,0
336,128,177182,1,8
352,96,177265,1,8
352,96,177349,1,8
288,96,177516,5,4
304,208,177850,1,8
304,240,177934,1,0
320,272,178017,1,8
384,288,178184,1,4
416,176,178519,1,8
416,176,178602,1,8
432,208,178686,1,0
400,160,178853,1,4
288,112,179187,1,8
352,112,179354,1,8
368,144,179438,1,8
400,128,179521,1,0
448,160,179689,1,0
208,208,179772,1,0
416,208,179856,1,8
400,240,179939,1,8
448,256,180023,1,0
384,240,180190,1,0
352,240,180274,1,0
320,240,180357,1,0
272,208,180524,1,8
208,208,180691,1,8
240,160,180858,1,0
256,128,180942,1,0
256,128,181026,1,0
256,160,181109,1,0
304,112,181193,1,8
416,128,181527,1,0
432,176,181694,1,0
400,192,181778,1,0
432,240,181861,1,8
384,272,182028,1,0
336,256,182196,1,0
272,256,182363,1,0
272,224,182446,1,0
240,208,182530,1,8
272,208,182613,1,8
288,176,182697,1,8
304,112,182864,5,4
416,144,183198,1,8
432,176,183282,1,0
448,192,183365,1,8
448,128,183533,1,4
432,240,183867,1,8
416,256,183950,1,8
384,240,184034,1,0
336,208,184201,1,4
224,176,184535,1,8
224,176,184703,1,8
288,176,184870,1,0
320,160,184953,1,0
320,160,185037,1,0
384,176,185204,1,8
400,192,185287,1,8
448,160,185371,1,0
432,208,185538,1,0
416,240,185622,1,0
400,272,185705,1,0
336,272,185872,1,8
272,288,186040,1,8
224,256,186207,1,0
224,256,186290,1,0
224,256,186374,1,0
256,256,186457,1,0
272,224,186541,1,8
368,160,186875,1,0
432,256,187209,1,8
432,256,187377,1,8
400,256,187460,1,8
416,208,187544,1,0
368,240,187711,1,0
352,256,187794,1,0
400,160,187878,1,8
368,176,187962,1,8
400,160,188045,1,8
352,144,188212,5,4
256,352,188881,1,4
432,192,189549,1,4
304,320,190051,1,4
432,192,190552,1,4
224,336,191221,1,4
368,240,191722,1,4
192,272,192223,1,4
368,240,192725,1,4
192,272,193226,1,4
288,192,193560,5,4
400,176,193895,1,12
368,240,194229,1,4
288,320,194563,1,12
352,304,194897,1,4
240,320,195232,1,12
384,128,195399,1,4
304,288,195900,1,12
416,272,196235,1,4
384,224,196402,1,4
240,288,196569,1,12
368,160,197070,1,12
304,320,197572,1,12
384,160,198073,1,12
304,320,198574,1,12
336,272,198742,1,12
352,208,198909,1,4
