osu file format v7

[General]
AudioFilename: 12 Te Aviso, Te Anuncio.mp3
AudioLeadIn: 0
PreviewTime: 48929
Countdown: 0
SampleSet: Soft
StackLeniency: 0.4
Mode: 0
LetterboxInBreaks: 1

[Editor]
DistanceSpacing: 0.829999983310699
BeatDivisor: 4
GridSize: 8

[Metadata]
Title:Te Aviso, Te Anuncio
Artist:Shakira
Creator:Krisom
Version:Insane
Source:
Tags:lepidopodus spanish objection tango laundry service servicio de lavanderia

[Difficulty]
HPDrainRate:6
CircleSize:5
OverallDifficulty:8
SliderMultiplier:1.6
SliderTickRate:1

[Events]
//Background and Video events
0,0,"BG.jpg"
//Break Periods
2,73349,79099
2,154979,165568
//Storyboard Layer 0 (Background)
//Storyboard Layer 1 (Fail)
//Storyboard Layer 2 (Pass)
//Storyboard Layer 3 (Foreground)
//Storyboard Sound Samples
//Background Colour Transformations
3,100,163,162,255

[TimingPoints]
1740,472.44094488189,4,2,1,80,1,0
11188,480,4,2,1,80,1,0
15028,400,4,2,1,80,1,0
18276,335.00837520938,4,2,1,80,1,0
26399,-100,4,2,0,80,0,0
27572,-100,4,2,1,80,0,0
49096,334.075723830735,4,2,1,80,1,1
68388,-100,4,2,0,80,0,1
68555,-100,4,2,1,80,0,1
70476,-100,4,2,1,80,0,0
73149,335.00837520938,4,2,1,80,1,0
81272,-100,4,2,0,80,0,0
82445,-100,4,2,1,80,0,0
90601,334.634690462911,4,2,1,80,1,0
103986,334.075723830735,4,2,1,80,1,1
123278,-100,4,2,0,80,0,1
123445,-100,4,2,1,80,0,1
125366,-100,4,2,0,80,0,0
140066,-100,4,2,1,80,0,0
141402,334.448160535117,4,2,1,80,1,0
146920,-100,4,2,0,80,0,0
147254,-100,4,2,1,80,0,0
148258,-100,4,2,0,80,0,0
148592,-100,4,2,1,80,0,0
166820,334.261838440111,4,2,1,80,1,1
188045,-100,4,2,1,80,0,0
188212,-100,4,2,1,80,0,1
198909,-100,4,2,1,80,0,0

[Colours]
Combo1 : 252,221,3
Combo2 : 4,208,4
Combo3 : 14,98,254
Combo4 : 240,5,5
SliderBorder : 0,0,0

[HitObjects]
64,64,18276,6,0,B|48:112|48:160|128:160|128:224|64:304,1,240,4|2
95,349,18946,1,0
157,326,19113,1,0
171,261,19281,2,0,B|194:168|130:103,1,160,8|0
200,89,19783,2,0,B|200:49|256:17|312:49|312:93,1,160,2|2
256,125,20286,2,0,B|256:290,1,160,0|8
448,320,20956,6,0,B|464:272|464:224|384:224|384:160|448:80,1,240,4|2
417,35,21626,1,0
355,58,21793,1,0
341,123,21961,2,0,B|318:216|382:281,1,160,8|0
312,296,22463,2,0,B|328:344|288:368,1,80,2|8
221,366,22798,2,0,B|183:339|201:294,1,80,2|0
256,264,23133,2,0,B|256:159,1,80,2|8
256,117,23468,1,2
318,139,23636,6,0,B|318:203|286:235|254:235|222:235|190:267|190:331,1,240,4|2
256,323,24306,2,0,B|256:147,1,160,0|8
256,30,24976,6,0,B|176:77,1,80,4|2
187,137,25311,2,0,B|118:209,1,80,8|2
178,241,25646,2,0,B|155:335,1,80,0|2
223,333,25981,1,8
289,333,26148,1,2
256,274,26316,2,0,L|256:210|256:210|384:50|384:50|128:50|128:50|207:150,1,640,0|4
169,201,27823,5,0
130,255,27991,1,2
89,202,28158,1,0
128,148,28326,2,0,B|167:109|247:109,2,120,0|2|0
128,148,28996,2,0,B|89:109|9:109,2,120,0|2|0
89,202,29666,1,0
129,292,29917,1,2
169,201,30168,1,0
219,158,30336,6,0,B|246:125|301:122|344:159|334:212,1,160,4|8
269,206,30838,2,0,B|269:126|307:126|307:44,1,160,4|8
240,52,31341,1,2
219,114,31508,2,0,B|193:166|195:230|224:275,1,160,4|8
245,329,32011,1,2
310,334,32178,1,4
287,271,32346,1,0
269,207,32513,1,8
205,228,32681,2,0,B|191:188|220:131|277:133|304:151,1,160,2|4
343,201,33183,5,0
382,255,33351,1,2
423,202,33518,1,0
384,148,33686,2,0,B|345:109|265:109,2,120,0|2|0
384,148,34356,2,0,B|423:109|503:109,2,120,0|2|0
423,202,35026,1,0
383,292,35277,1,2
343,201,35528,1,0
287,164,35696,6,0,B|287:100|223:84|223:20,1,160,4|8
289,21,36198,2,0,B|289:85|225:101|225:165,1,160,4|8
205,227,36701,1,2
255,269,36868,2,0,B|215:308|172:299|124:264|145:199,2,160,4|8|8
205,227,37706,2,0,B|206:159|139:159|139:72,1,160,2|8
256,147,38376,5,4
291,90,38544,1,0
224,90,38711,1,8
256,147,38879,1,0
256,213,39046,2,0,B|257:308,1,80
290,350,39381,1,8
223,350,39549,1,0
178,301,39716,6,0,B|146:237|194:189|257:169|322:189|370:237|334:309,2,320,4|0|4
128,176,41391,5,8
128,112,41559,1,8
66,136,41726,2,8,B|66:307,1,160,0|8
113,342,42229,5,0
166,303,42396,1,4
222,268,42564,2,0,B|222:172|286:204|286:108,2,160
273,310,43401,1,8
291,246,43569,6,0,B|336:211|364:144|347:84,1,160,4|0
387,49,44071,1,8
420,106,44239,1,8
484,89,44406,2,0,B|484:169|436:169|436:249,1,160,0|8
401,296,44909,1,0
336,302,45076,6,0,B|368:238|320:190|256:177|192:190|144:238|177:304,2,320,4|0|4
384,176,46751,5,8
384,112,46919,1,8
446,136,47086,2,8,B|446:307,1,160,0|8
381,297,47589,5,0
314,297,47756,1,0
247,297,47924,1,0
208,243,48091,1,0
274,243,48258,1,0
340,243,48426,1,0
317,183,48594,6,0,B|179:183,1,120,2|2
155,273,49096,5,4
255,273,49346,1,2
355,273,49597,1,8
355,339,49764,1,4
256,339,50014,1,2
157,339,50265,1,8
99,306,50432,2,0,B|99:136,1,160,4|8
40,177,50933,2,0,B|42:226|91:250|145:236|164:182,1,160,2|2
223,193,51434,1,8
289,193,51601,1,8
254,136,51768,1,4
344,38,52102,5,8
344,104,52269,1,8
286,71,52436,2,0,B|116:71,2,160,0|8|0
166,127,53438,1,8
166,193,53606,1,8
224,159,53773,2,0,B|388:159,1,160,0|8
399,223,54274,1,0
357,273,54442,5,4
257,273,54691,1,2
157,273,54943,1,8
157,339,55110,1,4
256,339,55359,1,2
355,339,55611,1,8
413,307,55777,1,4
356,272,55944,2,0,B|386:198|300:198|336:108,2,160,2|2|2
290,264,56779,1,8
224,264,56946,1,8
259,207,57113,1,4
168,38,57447,5,8
168,104,57614,1,8
226,70,57781,2,0,B|396:70,2,160,0|8|0
345,128,58783,1,8
345,194,58951,1,8
287,160,59118,2,0,B|123:160,1,160,0|8
113,223,59619,1,0
179,223,59786,5,4
255,286,60036,1,2
294,377,60287,1,8
218,377,60454,1,4
255,286,60705,1,2
333,223,60955,1,8
399,223,61122,1,4
368,282,61289,2,0,B|368:105,2,160,2|2|2
303,298,62124,1,8
256,344,62291,1,8
208,296,62459,1,4
125,192,62793,5,8
191,192,62960,1,8
160,133,63127,2,0,B|144:85|192:37|256:-28|320:37|368:85|352:136|352:136|352:141,1,320
289,252,64129,1,8
223,252,64296,1,8
256,194,64463,2,0,B|256:367,1,160,0|8
381,309,65131,5,4
390,209,65382,1,2
291,193,65632,1,8
221,191,65799,1,4
122,175,66049,1,2
131,75,66300,1,0
200,75,66467,2,0,B|200:115|256:147|312:115|312:71,1,160,4|8
256,38,66969,2,0,B|256:231,1,160,2|2
222,255,67470,1,8
288,255,67637,1,8
256,313,67804,1,4
352,221,68138,6,0,B|368:173|320:125|256:60|192:125|144:173|160:224|160:224|160:229,1,320,0|8
224,219,68973,1,0
290,219,69140,2,0,B|352:144|320:64,1,160,0|8
189,70,69808,2,0,B|160:144|222:219,1,160,0|8
256,274,70309,1,4
256,80,70810,5,8
223,137,70977,1,8
289,137,71144,1,8
323,193,71312,1,8
256,193,71479,1,8
189,193,71646,1,8
256,193,71813,1,4
256,192,72147,12,4,73149
256,30,79849,6,0,B|336:77,1,80,4|2
325,137,80184,2,0,B|394:209,1,80,8|2
334,241,80519,2,0,B|357:335,1,80,0|2
289,333,80854,1,8
223,333,81021,1,2
256,274,81189,2,0,L|256:210|256:210|128:50|128:50|384:50|384:50|305:150,1,640,4|4
356,191,82696,5,0
422,191,82864,1,2
488,191,83031,1,0
454,133,83199,2,0,B|454:-6,2,120,0|2|0
422,191,83869,1,0
322,191,84120,1,2
422,191,84371,1,0
388,248,84539,2,0,B|388:387,2,120,0|2|0
330,282,85209,6,0,B|330:242|274:210|218:242|218:286,1,160,4|8
272,319,85711,2,0,B|272:359|216:391|160:359|160:315,1,160,4|8
218,281,86214,1,2
160,320,86381,2,0,B|144:224|208:224|208:152,1,160,4|8
266,143,86884,1,2
309,93,87051,1,4
243,83,87219,1,0
206,28,87386,1,8
148,57,87554,2,0,B|148:132|225:132|226:198,1,160,2|4
156,193,88056,5,0
90,193,88224,1,2
24,193,88391,1,0
58,251,88559,2,0,B|58:390,2,120,0|2|0
90,193,89229,1,0
190,193,89480,1,2
90,193,89731,1,0
124,136,89899,2,0,B|124:-3,2,120,0|2|0
186,86,90601,6,0,B|233:47|308:145|363:66,1,160,4|8
339,155,91102,2,0,B|292:194|217:96|162:175,1,160,4|8
220,208,91604,1,2
188,266,91772,2,0,B|235:305|310:207|365:286,2,160,4|8|8
188,332,92608,2,0,B|235:371|310:273|365:352,1,160,2|8
256,226,93278,5,4
291,170,93445,1,0
224,170,93612,1,8
224,103,93780,1,0
256,45,93947,1,0
288,103,94114,2,0,B|288:161|225:161|225:259,1,160,2|2
159,256,94616,6,0,B|143:304|191:352|259:414|319:352|367:304|351:253|351:253|351:248,2,320,4|0|4
256,165,96289,5,8
190,165,96457,1,8
224,108,96624,2,0,B|224:278,1,160,0|8
289,281,97126,5,0
339,323,97293,1,4
349,257,97461,2,0,B|349:179|407:179|407:95,2,160
406,289,98297,1,8
464,257,98464,6,0,B|464:179|406:179|406:95,1,160,4|0
401,44,98966,1,8
347,80,99134,1,8
281,90,99301,2,0,B|281:158|223:158|223:236,1,160,0|8
290,235,99803,1,0
353,256,99970,6,0,B|369:304|321:352|253:414|193:352|145:304|161:253|161:253|161:248,2,320,4|0|4
256,165,101643,5,8
322,165,101811,1,8
288,108,101978,2,0,B|288:278,1,160,0|8
256,326,102480,5,0
189,326,102647,1,0
156,267,102815,1,0
222,267,102982,1,0
256,210,103149,1,0
189,210,103317,1,0
197,145,103484,6,0,B|331:145,1,120,2|2
291,270,103986,5,4
257,176,104236,1,2
222,82,104487,1,8
290,82,104654,1,4
257,176,104904,1,2
221,270,105155,1,8
155,270,105322,2,0,B|155:196|106:196|106:112,1,160,4|8
95,54,105823,2,0,B|260:54,1,160,2|2
255,120,106324,1,8
222,177,106491,1,8
289,177,106658,1,4
344,298,106992,5,8
411,298,107159,1,8
377,240,107326,2,0,B|377:67,1,160,0|8
247,79,107994,1,0
199,33,108161,1,0
154,81,108328,1,8
88,81,108496,1,8
121,138,108663,2,0,B|121:308,1,160,0|8
184,322,109164,1,0
221,270,109331,5,4
255,176,109581,1,2
290,82,109832,1,8
222,82,109999,1,4
255,176,110249,1,2
291,270,110500,1,8
257,326,110667,1,4
221,270,110834,2,0,B|147:300|147:214|57:250,2,160,2|2|2
256,213,111669,1,8
222,156,111836,1,8
289,156,112003,1,4
168,86,112337,5,8
101,86,112504,1,8
135,142,112671,2,0,B|135:315,1,160,0|8
265,305,113339,1,0
313,351,113506,1,0
358,303,113673,1,8
424,303,113841,1,8
391,245,114008,2,0,B|391:75,1,160,0|8
324,86,114509,1,0
288,141,114676,5,4
223,215,114926,1,2
289,289,115177,1,8
223,289,115344,1,4
289,215,115595,1,2
224,141,115845,1,8
188,86,116012,1,4
175,21,116179,2,0,B|351:21,2,160,2|2|2
189,86,117014,1,8
256,86,117181,1,8
323,86,117349,1,4
387,192,117683,5,8
321,192,117850,1,8
352,133,118017,2,0,B|368:85|320:37|256:-28|192:37|144:85|160:136|160:136|160:141,1,320
223,252,119019,1,8
289,252,119186,1,8
256,194,119353,2,0,B|256:367,1,160,0|8
127,319,120021,5,4
138,219,120272,1,2
237,220,120522,1,8
275,164,120689,1,4
374,165,120940,1,2
385,65,121190,1,8
331,25,121357,2,0,B|284:-14|209:84|154:5,1,160,4|8
178,94,121858,2,0,B|225:133|300:35|355:114,1,160,2|2
303,151,122360,1,8
256,197,122527,1,8
209,150,122694,1,4
147,267,123028,6,0,B|163:347|243:395|275:395|355:347|371:267|371:267,1,320,8|8
339,210,123863,2,0,B|173:211,3,160,2|2|2|2
256,103,125199,1,2
199,137,125366,6,0,B|199:177|255:209|311:177|311:133,1,160,4|2
256,103,125867,1,0
200,66,126034,2,0,B|200:26|256:-6|312:26|312:70,1,160,0|2
290,128,126536,2,0,B|287:192|223:192|223:272,2,160
223,128,127371,2,0,B|226:192|290:192|290:272,2,160,0|2|4
94,161,128373,6,0,B|94:225|158:225|158:305,1,160,2|4
222,316,128874,2,0,B|224:250|198:205|176:180|153:165,1,160
94,161,129375,1,2
256,45,129876,1,2
418,161,130377,1,2
313,247,130712,6,0,B|313:207|257:175|201:207|201:251,1,160,4|2
256,281,131213,1,0
312,318,131380,2,0,B|312:358|256:390|200:358|200:314,1,160,0|2
222,256,131882,2,0,B|225:192|289:192|289:112,2,160
289,256,132717,2,0,B|286:192|222:192|222:112,2,160,0|2|4
418,161,133718,6,0,B|418:225|354:225|354:305,1,160,2|4
290,316,134219,2,0,B|288:250|314:205|336:180|359:165,1,160
418,161,134720,1,2
256,45,135221,1,2
94,161,135722,1,2
180,261,136057,6,0,B|356:261,1,160,4|2
373,203,136558,1,0
306,203,136725,2,0,B|122:203,1,160,0|2
179,74,137393,6,0,B|355:74,1,160,4|2
372,132,137894,1,0
305,132,138061,2,0,B|121:132,1,160,0|2
180,261,138729,6,0,B|356:261,1,160,4|2
373,203,139230,1,0
306,203,139397,2,0,B|122:203,1,160,0|2
180,261,139899,1,0
209,320,140066,2,0,B|193:352|241:387|272:387|321:352|305:320|305:320,1,160,0|2
305,253,140567,5,8
186,182,140734,1,8
324,182,140901,1,8
207,253,141068,1,8
255,129,141235,1,8
255,129,141402,5,4
255,129,142070,1,8
255,129,142739,1,8
255,129,143408,1,8
442,316,144077,5,8
380,290,144244,1,0
432,249,144412,1,0
369,227,144579,2,0,B|369:132,1,80,0|8
308,120,144913,1,0
364,85,145080,1,0
304,54,145248,1,0
248,90,145415,2,0,B|152:90,2,80,8|0|0
308,120,145917,1,0
368,147,146084,2,0,B|468:147,2,80,8|0|0
314,186,146585,1,0
352,240,146753,6,0,B|368:288|320:336|256:401|192:336|144:288|160:237|160:237|160:232,1,320,8|8
93,230,147589,1,0
38,191,147756,1,0
98,163,147923,1,0
160,141,148090,2,0,B|144:93|192:45|256:-20|320:45|368:93|352:144|352:144|352:149,1,320,8|8
414,163,148927,1,0
474,191,149094,1,0
419,230,149261,1,0
361,196,149428,6,0,B|229:196,2,120,8|0|0
385,133,150097,1,8
318,135,150264,2,0,B|134:135,1,160
129,74,150766,2,0,B|262:74,2,120,8|0|0
94,131,151435,1,8
139,179,151602,5,0
86,219,151769,1,0
147,245,151937,1,0
182,300,152104,2,0,B|359:300,1,160,8|0
342,233,152606,2,0,B|170:233,2,160,2|2|2
342,166,153442,2,0,B|175:166,1,160,8|0
191,100,153943,1,0
257,100,154111,5,8
323,100,154278,1,8
256,100,154445,1,8
256,116,154529,1,8
256,132,154612,1,8
256,148,154696,1,8
256,164,154779,1,4
256,352,166318,6,0,B|256:208,1,120,2|2
187,159,166820,5,4
257,88,167070,1,2
327,158,167321,1,8
327,224,167488,1,4
257,295,167738,1,2
187,225,167989,1,8
136,268,168157,2,0,B|136:308|80:340|24:308|24:264,1,160,4|8
80,233,168658,2,0,B|80:40,1,160,2|2
146,73,169159,1,8
190,121,169326,1,8
256,121,169494,1,4
223,249,169828,5,8
289,249,169995,1,8
256,306,170162,1,0
290,362,170329,1,0
223,362,170496,1,8
342,303,170831,2,0,B|422:303,1,80
393,242,171165,2,0,B|488:242,1,80,8|8
470,175,171499,1,0
470,108,171666,1,0
412,141,171833,1,8
357,101,172001,1,0
325,159,172168,5,4
255,88,172418,1,2
185,158,172669,1,8
185,224,172836,1,4
255,295,173086,1,2
325,225,173337,1,8
325,159,173505,1,4
385,132,173672,2,0,B|400:196|462:180|464:281,2,160,2|2|2
366,73,174508,1,8
322,121,174675,1,8
256,121,174843,1,4
289,249,175176,5,8
223,249,175343,1,8
256,306,175510,1,0
222,362,175677,1,0
289,362,175844,1,8
170,303,176179,2,0,B|90:303,1,80
119,242,176513,2,0,B|24:242,1,80,8|8
42,175,176847,1,0
42,108,177014,1,0
100,141,177181,1,8
155,101,177349,1,0
221,101,177516,5,4
154,175,177767,1,2
224,245,178017,1,8
288,245,178184,1,4
358,175,178434,1,2
291,101,178685,1,8
256,157,178853,1,4
312,191,179020,2,0,B|312:231|256:263|200:231|200:187,2,160,2|2|2
312,124,179856,1,8
255,88,180023,1,8
200,124,180190,1,4
191,256,180524,6,0,B|14:256,2,160,8|0|8
324,256,181527,2,0,B|502:256,2,160,0|8|0
256,141,182530,1,8
322,141,182697,5,8
322,141,182864,1,4
322,141,183031,1,2
194,141,183365,1,8
194,141,183533,1,4
194,141,183700,1,2
256,258,184034,1,0
288,200,184201,2,0,B|288:136|224:120|224:56,1,160,4|8
290,57,184703,2,0,B|290:121|226:137|226:201,1,160,2|2
190,255,185204,1,8
223,312,185371,1,8
289,312,185538,1,4
322,255,185705,5,0
333,189,185872,2,0,B|162:189,2,160,8|0|8
363,130,186708,1,0
363,130,186875,2,0,B|182:130,1,160,0|8
84,70,187544,2,0,B|275:70,1,160,0|8
310,70,188045,5,4
376,70,188212,2,0,B|392:118|392:166|312:166|312:230|376:310,1,240,4|2
318,341,188881,2,0,B|276:295|247:230|276:148|311:118,1,240,0|2
352,168,189549,2,0,B|320:248|192:248|160:168|160:168|160:160,1,240,0|2
49,240,190385,1,2
33,304,190552,1,8
98,290,190719,1,2
163,288,190886,6,0,B|163:94,1,160,4|8
204,75,191388,1,2
256,115,191555,2,0,B|256:216,1,80,0|2
256,115,191889,2,0,B|357:115,2,80,0|0|2
256,115,192391,2,0,B|155:115,2,80,0|0|2
353,205,193059,1,2
409,172,193226,1,8
352,138,193393,1,2
336,73,193560,6,4,B|144:73,1,160,4|8
335,192,194229,2,0,B|143:192,1,160,4|8
336,311,194897,2,0,B|144:311,1,160,4|8
176,311,195399,1,0
224,184,195733,5,2
291,184,195900,1,8
257,127,196067,2,0,B|257:294,1,160,2|2
256,192,196569,12,4,198909
