osu file format v5

[General]
AudioFilename: shakira-whenever_wherever_spainish.mp3
AudioLeadIn: 0
PreviewTime: -1
Countdown: 1
SampleSet: Normal
StackLeniency: 0.7
Mode: 0
LetterboxInBreaks: 1
EditorBookmarks: 60569,71028,80385,88642,115890,124147,142037,144239

[Metadata]
Title:Suerte
Artist:Shakira
Creator:Kamyk666
Version:Normal
Source:
Tags:shakira suerte whatever whenever spain version kamyk666

[Difficulty]
HPDrainRate:3
CircleSize:4
OverallDifficulty:4
SliderMultiplier:0.8
SliderTickRate:1

[Events]
//Background and Video events
0,0,"2_340_10.jpg"
//Break Periods
2,60494,70828
2,80310,88443
2,115815,123672
2,141686,143194
//Storyboard Layer 0 (Background)
//Storyboard Layer 1 (Failing)
//Storyboard Layer 2 (Passing)
//Storyboard Layer 3 (Foreground)
//Storyboard Sound Samples
//Background Colour Transformations
3,100,163,162,255

[TimingPoints]
13230,275.229357798165,4,1,0,70,1

[Colours]
Combo1 : 75,142,197
Combo2 : 86,192,180
Combo3 : 107,117,201
Combo4 : 209,192,168

[HitObjects]
64,64,16532,2,4,B|240:64,1,160
352,64,17633,1,0
480,64,18184,1,0
480,320,19285,2,4,B|56:320,1,400
80,256,20936,6,4,B|80:88,1,160
208,96,22037,1,8
336,96,22587,1,8
336,96,22863,1,8
480,208,23688,2,4,B|301:207,2,160
480,336,25340,5,8
416,336,25615,1,8
352,336,25890,1,8
288,336,26165,1,8
224,336,26441,2,4,B|48:336,1,160
64,208,27541,2,4,B|240:208,3,160
352,208,29743,5,8
416,208,30018,1,8
480,208,30294,1,8
480,144,30569,1,0
480,80,30844,2,4,B|384:80,3,80
256,192,32220,12,4,33596
80,80,34147,5,8
208,80,34697,1,8
336,80,35248,1,8
448,224,36349,5,8
320,224,36899,1,8
192,224,37450,1,8
432,320,38551,6,4,B|176:320,1,240
0,320,40202,1,0
64,208,40752,1,0
176,128,41303,1,0
304,112,41853,1,0
432,112,42404,1,0
432,304,43229,6,4,B|256:304,1,160
144,304,44330,2,4,B|144:128,1,160
272,144,45431,1,8
336,144,45707,1,8
400,144,45982,1,8
464,144,46257,1,8
464,208,46532,2,4,B|464:304,2,80
400,208,47358,6,4,B|208:208,1,160
112,208,48459,1,0
112,80,49009,1,0
304,80,49835,5,8
304,144,50110,1,8
304,208,50385,1,8
304,272,50661,1,8
304,336,50936,2,4,B|208:336,1,80
160,336,51486,1,8
256,192,52037,12,4,53688
32,304,54239,6,4,B|384:304,1,320
480,304,55890,1,0
480,176,56441,6,4,B|304:176,1,160
192,176,57541,2,4,B|80:176,2,80
192,48,58642,2,4,B|384:48,1,160
416,48,59468,1,8
480,48,59743,1,8
480,112,60018,1,8
480,176,60294,1,8
64,80,71578,5,8
192,80,72129,1,8
320,80,72679,1,8
448,80,73229,1,8
448,208,73780,2,4,B|272:208,1,160
160,208,74881,1,0
32,208,75431,1,0
64,336,75982,5,8
192,336,76532,1,8
320,336,77083,1,8
448,336,77633,1,8
448,208,78184,2,4,B|448:32,1,160
320,48,79285,1,0
192,48,79835,1,0
80,80,89193,5,4
208,80,89743,1,4
80,80,90294,1,4
304,192,91395,5,4
176,192,91945,1,4
304,192,92496,1,4
80,320,93596,6,4,B|352:320,2,240
80,192,95798,1,0
208,192,96349,1,0
336,192,96899,2,4,B|512:192,1,160
432,80,98275,6,4,B|256:80,1,160
144,80,99376,2,4,B|144:256,1,160
272,240,100477,1,8
336,240,100753,1,8
400,240,101028,1,8
464,240,101303,1,8
464,176,101578,2,4,B|464:80,2,80
400,176,102404,6,4,B|208:176,1,160
112,176,103505,1,0
112,304,104055,1,0
304,304,104881,5,8
304,240,105156,1,8
304,176,105431,1,8
304,112,105707,1,8
304,48,105982,2,4,B|208:48,1,80
160,48,106532,1,8
112,160,107083,6,4,B|288:160,1,160
400,160,108184,2,4,B|400:336,1,160
272,320,109285,1,8
208,320,109561,1,8
144,320,109836,1,8
80,320,110111,1,8
80,256,110386,2,4,B|80:160,2,80
144,256,111212,6,4,B|336:256,1,160
432,256,112313,1,0
432,128,112863,1,0
240,128,113689,5,8
176,128,113964,1,8
112,128,114239,1,8
48,128,114515,1,8
48,192,114790,2,4,B|46:276,1,80
48,336,115340,1,8
80,304,124422,5,8
208,304,124972,1,8
336,304,125523,1,8
448,160,126624,5,8
320,160,127174,1,8
192,160,127725,1,8
432,64,128826,6,4,B|176:64,1,240
0,64,130477,1,0
64,176,131027,1,0
176,256,131578,1,0
304,272,132128,1,0
432,272,132679,1,0
432,144,133229,5,8
304,144,133780,1,8
176,144,134330,1,8
48,144,134881,1,8
48,272,135431,2,4,B|304:272,2,240
48,144,137633,5,0
240,144,138459,1,0
432,144,139285,1,0
432,272,139835,2,4,B|240:272,3,160
432,80,144514,6,4,B|256:80,1,160
144,80,145615,2,4,B|144:256,1,160
272,240,146716,1,8
336,240,146992,1,8
400,240,147267,1,8
464,240,147542,1,8
464,176,147817,2,4,B|464:80,2,80
400,176,148643,6,4,B|208:176,1,160
112,176,149744,1,0
112,304,150294,1,0
304,304,151120,5,8
304,240,151395,1,8
304,176,151670,1,8
304,112,151946,1,8
304,48,152221,2,4,B|208:48,1,80
160,48,152771,1,8
64,128,153321,6,4,B|240:128,1,160
352,128,154422,2,4,B|352:304,1,160
288,288,155248,1,8
224,288,155523,1,8
160,288,155799,1,8
96,288,156074,1,8
32,288,156349,1,8
32,160,156899,2,4,B|224:160,1,160,4|4
320,160,158000,5,0
384,160,158275,1,0
448,160,158551,1,0
448,224,158826,1,0
384,224,159101,1,0
320,224,159376,1,0
192,224,159927,5,8
128,224,160202,1,8
64,224,160477,1,8
64,160,160753,1,12
192,160,161303,2,4,B|368:160,1,160
256,192,162129,12,4,163780
256,192,164330,12,4,165707
256,192,166257,5,4
256,192,166807,2,4,B|80:192,1,160
96,64,167908,2,4,B|192:64,1,80
304,64,168734,2,4,B|400:64,2,80
304,128,169560,1,8
304,128,169835,1,8
304,192,170110,1,8
304,192,170385,1,8
368,304,170936,6,4,B|192:304,1,160
80,304,172037,2,4,B|80:128,1,160
144,144,172863,1,8
208,144,173138,1,8
272,144,173414,1,8
336,144,173689,1,8
400,144,173964,1,8
400,272,174514,6,4,B|208:272,1,160
112,272,175615,1,8
48,272,175890,1,8
48,208,176165,1,8
112,208,176441,1,8
176,208,176716,1,8
240,208,176991,1,8
368,208,177542,5,8
368,144,177817,1,8
304,144,178092,1,8
304,80,178367,1,8
256,192,178642,12,4,179468
