osu file format v5

[General]
AudioFilename: shakira-whenever_wherever_spainish.mp3
AudioLeadIn: 0
PreviewTime: -1
Countdown: 1
SampleSet: Normal
StackLeniency: 0.7
Mode: 0
LetterboxInBreaks: 1
EditorBookmarks: 60569,71028,80385,88642,115890,124147,142037,144239

[Metadata]
Title:Suerte
Artist:Shakira
Creator:Kamyk666
Version:Insane
Source:
Tags:shakira suerte whatever whenever spain version kamyk666

[Difficulty]
HPDrainRate:8
CircleSize:6
OverallDifficulty:8
SliderMultiplier:1.4
SliderTickRate:2

[Events]
//Background and Video events
0,0,"2_340_10.jpg"
//Break Periods
2,60494,70828
2,80310,88443
2,115815,123672
//Storyboard Layer 0 (Background)
//Storyboard Layer 1 (Failing)
//Storyboard Layer 2 (Passing)
//Storyboard Layer 3 (Foreground)
//Storyboard Sound Samples
//Background Colour Transformations
3,100,163,162,255

[TimingPoints]
13230,275.229357798165,4,1,0,70,1

[Colours]
Combo1 : 75,142,197
Combo2 : 86,192,180
Combo3 : 107,117,201
Combo4 : 209,192,168

[HitObjects]
64,64,16532,1,8
112,64,16670,1,0
160,64,16807,1,8
208,64,16945,1,0
256,64,17083,1,8
368,64,17358,1,0
416,160,17633,1,0
416,272,17908,1,0
304,304,18184,1,0
304,304,18459,1,0
192,304,18734,5,8
224,272,18872,1,0
256,240,19009,1,8
288,208,19147,1,0
320,176,19285,1,8
400,96,19560,1,0
288,64,19835,1,0
176,64,20110,1,0
80,128,20385,1,0
80,128,20661,1,0
80,240,20936,5,8
128,240,21074,1,0
176,240,21211,1,8
224,240,21349,1,0
272,240,21486,2,8,B|352:240,1,70
384,240,21762,1,0
384,240,21899,1,8
384,240,22037,1,0
384,128,22312,1,8
272,80,22587,1,8
160,80,22863,1,8
96,288,23413,5,0
208,288,23688,1,0
320,288,23963,1,0
432,288,24239,1,0
448,176,24514,1,0
368,96,24789,1,0
256,96,25064,1,0
144,96,25340,5,8
144,96,25477,1,0
144,96,25615,1,8
144,96,25752,1,0
144,96,25890,1,8
144,208,26165,1,0
144,320,26441,1,0
256,320,26716,1,0
368,320,26991,2,8,B|368:224|336:144|224:96,1,280
112,96,27817,5,0
112,208,28092,1,0
112,320,28367,1,0
224,320,28642,1,0
336,320,28918,1,0
336,208,29193,2,8,B|192:208,1,140
196,208,29743,6,8,B|198:59,1,140
197,68,30294,2,8,B|348:69,1,140
336,68,30844,1,8
336,68,31119,1,8
336,68,31395,1,8
336,68,31670,1,8
336,240,32083,1,8
336,240,32220,1,0
336,240,32358,1,8
336,240,32496,1,0
336,352,32771,1,8
224,352,33046,1,0
112,352,33321,1,8
112,240,33596,1,0
224,240,33872,1,8
336,240,34147,6,4,B|336:160,1,70
336,64,34560,2,4,B|256:64,1,70
160,64,34973,1,4
160,64,35110,1,4
64,192,35523,1,0
128,288,35798,1,0
240,288,36074,1,0
352,288,36349,6,4,B|352:208,1,70
352,112,36762,2,4,B|256:112,1,70
176,112,37174,1,4
176,112,37312,1,4
256,192,38551,12,0,39376
80,192,40202,5,4
256,320,40752,2,4,B|432:320|432:320|256:48|256:48|45:325,1,840
80,96,43229,5,8
80,96,43367,1,8
240,96,43780,1,0
464,96,44330,5,8
464,96,44468,1,8
288,96,44881,1,0
288,320,45431,6,8,B|208:320,1,70
48,320,45982,2,4,B|48:176,4,140
160,320,47358,5,0
160,208,47633,1,8
160,208,47771,1,8
320,208,48184,1,0
320,320,48459,1,0
432,320,48734,1,0
432,208,49009,1,0
432,96,49285,1,0
208,96,49835,1,8
208,96,49973,1,8
32,96,50385,1,0
32,208,50661,1,0
32,320,50936,1,0
144,320,51211,2,4,B|288:320,1,140
480,192,52037,5,8
432,192,52174,1,8
256,192,52587,1,0
48,192,53138,5,8
96,192,53275,1,8
256,192,53688,1,0
256,16,54239,6,8,B|415:151|415:251|249:342,1,420
144,336,55340,1,8
144,336,55615,1,8
144,336,55890,1,8
144,224,56165,6,4,B|368:224,1,210
464,224,56991,1,0
464,112,57266,1,0
464,0,57541,1,0
352,0,57817,1,0
352,112,58092,1,0
256,192,58642,12,4,60294
128,304,71578,6,4,B|416:304,1,280
422,80,72679,1,0
310,80,72954,1,0
198,80,73230,1,0
86,80,73505,1,0
80,240,73918,2,4,B|176:240,3,70
256,240,74606,1,0
368,240,74881,1,0
448,320,75156,1,0
336,320,75431,1,0
224,320,75707,1,0
112,320,75982,6,4,B|112:240,4,70
32,240,76807,1,0
80,144,77083,1,0
176,96,77358,1,0
288,64,77633,2,4,B|384:64|432:96,1,140
432,208,78184,5,8
432,208,78321,1,0
432,208,78459,1,8
432,208,78596,1,0
432,208,78734,1,8
320,208,79009,1,0
208,208,79285,1,0
96,208,79560,1,0
96,320,79835,1,0
208,320,80110,1,0
80,304,89193,6,4,B|160:304,1,70
256,304,89606,2,4,B|336:304,1,70
432,304,90018,1,4
432,304,90156,1,4
432,128,90569,1,0
320,128,90844,1,0
96,128,91395,5,4
96,128,91532,1,4
96,128,91807,1,4
96,128,91945,1,4
96,128,92220,1,4
96,128,92358,1,4
96,288,92771,1,0
208,288,93046,1,0
432,288,93596,5,4
432,120,94009,1,4
280,192,94422,1,4
64,192,95798,6,8,B|176:64|320:80|448:208,2,420
416,80,98275,5,8
360,80,98413,1,8
192,80,98826,1,0
24,80,99376,1,8
24,80,99514,1,8
24,248,99927,1,0
248,248,100477,2,4,B|400:248,4,140
248,360,101853,1,0
360,360,102129,1,0
448,288,102404,5,0
448,176,102679,1,8
448,176,102817,1,8
280,176,103230,1,0
168,176,103505,1,0
56,176,103780,1,0
80,288,104055,1,0
192,288,104330,1,0
416,288,104881,6,4,B|416:208|416:192,1,70
416,160,105156,1,8
416,48,105431,2,8,B|256:48,4,140
192,80,107083,6,4,B|187:201|124:232|101:256|104:311|297:389|234:179,1,420
256,80,108184,1,4
256,80,108321,1,4
416,80,108734,1,0
416,304,109285,6,4,B|336:304,2,70
416,192,109835,2,8,B|272:192,3,140
160,192,110936,1,8
256,192,111211,12,4,111762
256,320,112312,6,4,B|256:176,3,140
256,179,113688,1,4
256,179,113826,1,4
256,192,114239,12,4,115615
64,304,124422,6,4,B|144:304,1,70
240,304,124835,2,4,B|240:224,1,70
240,128,125248,1,4
240,128,125385,1,4
400,128,125798,1,0
400,240,126074,1,0
192,320,126658,6,4,B|112:320,1,70
16,320,127037,2,4,B|16:240,1,70
16,144,127450,1,4
16,144,127587,1,4
176,144,128000,1,0
176,256,128275,1,0
400,256,128826,6,8,B|400:112|224:48|64:112,2,420
176,192,131028,1,0
336,192,131441,1,0
256,336,132129,2,4,B|256:48,1,280
432,192,133230,6,4,B|352:192,1,70
256,192,133642,2,4,B|160:192,1,70
80,192,134055,2,4,B|80:272,1,70
192,262,134468,2,4,B|338:263,1,140
496,256,135431,1,0
496,80,135844,1,0
320,80,136257,1,0
80,80,137083,1,0
80,304,137633,6,4,B|384:304,1,280
360,79,138734,1,0
128,80,139285,1,0
256,192,139835,12,4,141762
432,272,144514,5,8
432,272,144652,1,8
432,96,145064,1,0
208,96,145615,1,8
208,96,145752,1,8
208,272,146165,1,0
416,192,146716,2,4,B|272:192,3,140
160,192,147817,1,0
48,192,148092,1,0
48,304,148367,1,0
160,304,148642,5,0
272,304,148918,1,8
272,304,149055,1,8
432,304,149468,1,0
432,192,149743,1,0
432,80,150018,1,0
320,80,150294,1,0
208,80,150569,1,0
208,304,151119,5,8
208,304,151257,1,8
368,304,151670,1,0
368,192,151945,1,0
368,80,152220,1,0
256,80,152496,1,0
144,80,152771,1,0
48,288,153321,6,4,B|128:288,1,70
288,288,153872,1,0
464,160,154422,2,4,B|176:160,1,280
64,160,155248,1,0
64,272,155523,2,4,B|208:272,3,140
424,272,156899,1,0
424,160,157174,1,4
424,160,157312,1,4
256,160,157725,5,0
144,160,158000,1,0
256,160,158275,1,0
256,48,158551,1,0
144,48,158826,1,0
32,48,159101,1,0
32,160,159376,1,0
32,344,159927,5,0
144,344,160202,1,4
32,344,160477,1,0
144,344,160752,2,4,B|432:344,2,280
256,192,162129,12,4,162679
256,192,163230,12,4,163780
192,192,164330,5,0
327,192,164606,1,0
192,192,164881,1,0
330,192,165156,1,0
192,192,165431,2,4,B|336:192,2,140
192,304,166257,5,0
256,304,166532,1,4
256,304,166670,1,4
416,304,167083,1,0
416,192,167358,1,0
416,80,167633,1,0
304,80,167908,2,4,B|144:80,1,140
48,272,168734,6,4,B|176:320|256:336|384:320|480:272,2,420
48,48,170936,6,4,B|496:48,1,420
416,144,172037,2,4,B|112:144,1,280
16,144,172863,1,4
192,272,173413,1,0
304,272,173688,1,0
416,272,173963,1,0
416,48,174514,1,0
304,48,174789,1,4
304,48,174927,1,4
304,208,175340,5,0
192,208,175615,1,0
80,208,175890,1,0
80,96,176165,1,0
192,96,176441,2,4,B|336:96,1,140
448,96,176991,1,0
256,192,177541,12,4,179468
