osu file format v9

[General]
AudioFilename: Shakira - Las de la Intuicion.mp3
AudioLeadIn: 0
PreviewTime: -1
Countdown: 1
SampleSet: Soft
StackLeniency: 0.7
Mode: 0
LetterboxInBreaks: 1
EpilepsyWarning: 1

[Editor]
Bookmarks: 199138
DistanceSpacing: 0.8
BeatDivisor: 4
GridSize: 8

[Metadata]
Title:Las de la Intuicion
Artist:Shakira
Creator:lDofuz
Version:Normal
Source:Fijacion Oral Oral Fixation
Tags:

[Difficulty]
HPDrainRate:3
CircleSize:4
OverallDifficulty:2
ApproachRate:2
SliderMultiplier:1.2
SliderTickRate:1

[Events]
//Background and Video events
0,0,"shakira.jpg"
//Break Periods
2,88799,95578
//Storyboard Layer 0 (Background)
//Storyboard Layer 1 (Fail)
//Storyboard Layer 2 (Pass)
//Storyboard Layer 3 (Foreground)
//Storyboard Sound Samples
//Background Colour Transformations
3,100,163,162,255

[TimingPoints]
215,461.538461538462,4,2,0,10,1,0
44753,-100,4,2,0,40,0,0
45215,-100,4,2,0,10,0,0
45676,-100,4,2,0,40,0,0
46138,-100,4,2,0,10,0,0
46599,-100,4,2,0,40,0,0
47061,-100,4,2,0,10,0,0
47522,-100,4,2,0,40,0,0
47984,-100,4,2,0,10,0,0
48445,-100,4,2,0,40,0,0
48907,-100,4,2,0,10,0,0
49368,-100,4,2,0,40,0,0
49830,-100,4,2,0,10,0,0
50291,-100,4,2,0,40,0,0
50753,-100,4,2,0,10,0,0
51215,-100,4,2,0,40,0,0
51676,-100,4,2,0,10,0,0
52138,-100,4,2,0,40,0,0
52599,-100,4,2,0,10,0,0
53061,-100,4,2,0,40,0,0
53522,-100,4,2,0,10,0,0
53984,-100,4,2,0,40,0,0
54445,-100,4,2,0,10,0,0
54907,-100,4,2,0,40,0,0
55368,-100,4,2,0,10,0,0
55830,-100,4,2,0,40,0,0
56291,-100,4,2,0,10,0,0
57330,-100,4,2,0,20,0,0
57561,-100,4,2,0,10,0,0
57791,-100,4,2,0,30,0,0
58022,-100,4,2,0,10,0,0
58253,-100,4,2,0,40,0,0
58484,-100,4,2,0,10,0,0
58715,-100,4,2,0,50,0,0
58945,-100,4,2,0,10,0,0
63215,-133.333333333333,4,2,0,10,0,0
65291,-100,4,2,0,10,0,0
65868,-100,4,2,0,30,0,0
66330,-100,4,2,0,10,0,0
70830,-133.333333333333,4,2,0,10,0,0
72676,-100,4,2,0,10,0,0
73253,-100,4,2,0,30,0,0
73715,-100,4,2,0,10,0,0
78215,-133.333333333333,4,2,0,10,0,0
80061,-100,4,2,0,10,0,0
80638,-100,4,2,0,30,0,0
81099,-100,4,2,0,10,0,0
85138,-200,4,2,0,10,0,0
88830,-100,4,2,0,10,0,0
109945,-100,4,2,0,30,0,0
110638,-100,4,2,0,10,0,0
111215,-100,4,2,0,40,0,0
111676,-100,4,2,0,10,0,0
112138,-100,4,2,0,40,0,0
112599,-100,4,2,0,10,0,0
113061,-100,4,2,0,40,0,0
113522,-100,4,2,0,10,0,0
113984,-100,4,2,0,40,0,0
114445,-100,4,2,0,10,0,0
114907,-100,4,2,0,40,0,0
115368,-100,4,2,0,10,0,0
115830,-100,4,2,0,40,0,0
116291,-100,4,2,0,10,0,0
116868,-100,4,2,0,40,0,0
117099,-100,4,2,0,10,0,0
117791,-100,4,2,0,40,0,0
118022,-100,4,2,0,10,0,0
118599,-100,4,2,0,40,0,0
119061,-100,4,2,0,10,0,0
119522,-100,4,2,0,40,0,0
119984,-100,4,2,0,10,0,0
120445,-100,4,2,0,40,0,0
120907,-100,4,2,0,10,0,0
121368,-100,4,2,0,40,0,0
121830,-100,4,2,0,10,0,0
122407,-100,4,2,0,40,0,0
122638,-100,4,2,0,10,0,0
123791,-100,4,2,0,20,0,0
124022,-100,4,2,0,10,0,0
124253,-100,4,2,0,30,0,0
124484,-100,4,2,0,10,0,0
124715,-100,4,2,0,40,0,0
124945,-100,4,2,0,10,0,0
125176,-100,4,2,0,50,0,0
125407,-100,4,2,0,10,0,0
125522,-100,4,2,0,10,0,1
129907,-133.333333333333,4,2,0,10,0,1
131753,-100,4,2,0,10,0,1
132330,-100,4,2,0,30,0,1
132791,-100,4,2,0,10,0,1
137291,-133.333333333333,4,2,0,10,0,1
139138,-100,4,2,0,10,0,1
139715,-100,4,2,0,29,0,1
140176,-100,4,2,0,10,0,1
144676,-133.333333333333,4,2,0,10,0,1
146522,-100,4,2,0,10,0,1
147099,-100,4,2,0,30,0,1
147561,-100,4,2,0,10,0,1
151599,-200,4,2,0,10,0,1
155638,-100,4,2,0,30,0,1
155868,-100,4,2,0,10,0,1
155984,-100,4,2,0,10,0,0

[Colours]
Combo1 : 255,0,0
Combo2 : 255,255,0
Combo3 : 83,0,0
Combo4 : 255,128,0
Combo5 : 0,0,0

[HitObjects]
256,64,15907,2,0,B|256:136,3,60
256,224,17061,2,0,B|176:224|176:136,1,120
320,160,18215,1,0
320,160,18445,1,0
64,288,19830,2,0,B|128:288,2,60
64,192,20753,2,0,B|64:120,2,60
160,192,21676,2,0,B|224:192,3,60
376,80,23291,6,0,B|432:192|392:320,1,240
248,312,24907,1,0
248,168,25599,2,0,B|248:240,1,60
256,80,27907,6,0,B|176:80|208:128|128:128,1,120
56,128,28830,1,0
56,224,29291,2,0,B|56:296,1,60
288,224,30676,6,0,B|360:224,3,60
448,224,31830,1,0
448,128,32291,1,0
304,128,32984,2,0,B|208:128,1,60
104,152,34599,6,0,B|104:88,2,60
104,248,35522,2,0,B|104:312,2,60
104,152,36445,2,0,B|168:80|168:208|264:136,1,180
448,184,38061,2,0,B|448:256,3,60
448,344,39215,1,0
352,344,39676,2,0,B|256:344|256:344|256:200,1,240
184,160,42676,6,0,B|240:160|240:160|256:128|256:128|304:128,1,120
288,32,43599,2,0,B|232:32|232:32|216:56|216:56|152:56,1,120
88,56,44522,1,0
88,152,44984,2,0,B|88:232|176:232,1,120,8|0
256,232,45907,2,8,B|336:232|336:304,1,120,8|0
432,304,46830,1,8
432,208,47291,1,0
432,112,47753,1,8
336,112,48215,6,0,B|280:112|280:112|264:128|264:128|216:128,1,120,0|8
240,224,49138,2,0,B|184:224|184:224|168:240|168:240|128:240,1,120,0|8
128,144,50061,1,0
128,96,50291,1,8
128,48,50522,1,8
224,48,50984,2,0,B|304:48|304:120,2,120,0|8|0
128,48,52368,5,8
128,144,52830,2,0,B|128:216|208:216,1,120,0|8
304,216,53753,1,0
400,216,54215,1,8
400,120,54676,2,0,B|352:120|352:120|336:136|336:136|288:136,1,120,0|8
280,232,55599,1,0
232,232,55830,1,8
184,232,56061,1,8
88,232,56522,6,0,B|16:232|16:152,1,120
16,56,57445,1,8
64,56,57676,1,0
112,56,57907,5,8
160,56,58138,1,0
208,56,58368,5,8
256,56,58599,1,0
304,56,58830,5,8
304,152,59291,2,0,B|304:240|208:240|208:144,1,180
64,152,60676,2,0,B|64:232|144:232,2,120
256,152,62522,2,0,B|328:152,1,60
464,152,63676,6,0,B|448:208|496:208|464:256,1,89.9999973177911
472,312,64599,2,0,B|448:256|504:256|464:208,1,89.9999973177911
384,216,65522,2,0,B|320:216,3,60,0|0|8|8
224,216,66676,2,0,B|144:216|144:296,2,120
272,216,67830,2,0,B|352:216|352:144,1,120
496,152,68984,1,0
496,248,69445,1,0
496,248,69676,2,0,B|440:192|440:312|376:240,1,120
248,248,71061,6,0,B|224:280|224:280|272:280,1,89.9999973177911
248,208,71984,6,0,B|272:176|272:176|224:176,1,89.9999973177911
128,184,72907,2,0,B|88:184|88:152,3,60,0|0|8|8
128,64,74061,6,0,B|232:0|232:152|376:48,1,240
448,56,75445,2,0,B|392:176|512:176|440:296,1,240
352,288,76830,2,0,B|272:288,5,60
256,224,78445,2,0,B|256:176|272:200|336:200,1,89.9999973177911
392,224,79368,2,0,B|392:176|376:200|312:200,1,89.9999973177911
328,296,80291,2,0,B|328:368,3,60,0|0|8|8
256,296,81445,6,0,B|192:168|272:48,1,240
320,144,82830,2,0,B|200:80|88:152,1,240
72,248,84215,2,0,B|72:304|72:304|144:304|144:304|144:240,1,180
216,240,85599,6,0,B|216:32|376:32|384:248,1,390
256,72,97138,6,0,B|208:176|368:168|248:320,1,240
408,296,98753,2,0,B|456:208|360:160,1,120
400,136,99445,2,0,B|400:64,1,60
112,88,101061,6,0,B|112:160,2,60
208,88,101984,2,0,B|208:168,2,60
304,88,102907,2,0,B|344:168|312:264,1,180
120,264,104522,6,0,B|120:192,1,60
120,152,104984,2,0,B|200:152,1,60
280,152,105676,1,0
280,248,106138,2,0,B|408:248|408:136,1,180
407,150,107061,1,0
184,208,109138,6,8,B|256:200|256:112,1,120
320,208,110061,2,8,B|248:208|256:112,1,120
256,64,110984,2,0,B|328:64|320:160,1,120,0|8
384,64,111907,2,0,B|456:64|448:160,1,120,0|8
448,240,112830,1,0
352,240,113291,1,8
256,240,113753,5,0
160,240,114215,2,0,B|80:240|80:160,1,120,8|0
88,72,115138,2,0,B|176:72|176:152,1,120,8|0
272,136,116061,1,8
368,136,116522,2,0,B|368:88|328:88,2,60,0|0|8
368,232,117445,2,0,B|368:280|328:280,2,60,0|0|8
280,192,118368,5,0
184,192,118830,1,8
184,96,119291,1,0
280,96,119753,2,0,B|360:96|360:176,1,120,8|0
360,264,120676,2,0,B|360:344|280:344,2,120,8|0|8
456,264,122061,2,0,B|456:328,2,60,0|0|8
456,168,122984,2,0,B|456:88|384:88,1,120
296,112,123907,6,0,B|232:112,1,60,8|0
192,112,124368,6,0,B|120:112,1,60,8|0
80,112,124830,6,0,B|80:192,1,60,8|0
80,224,125291,5,8
176,224,125753,2,8,B|200:224|200:224|208:216|208:216|208:240|208:240|216:216|216:216|216:240|216:240|224:224|224:224|352:224,1,240
432,224,127138,2,0,B|432:104|256:104,1,240
64,112,128984,1,0
64,160,129215,2,0,B|64:280,1,120
136,272,130138,6,0,B|200:272|200:224,1,89.9999973177911
200,152,131061,2,0,B|200:88|264:88,1,89.9999973177911
344,88,131984,2,0,B|392:88|392:136,3,60,0|0|8|8
392,216,133138,6,0,B|392:344|312:336|344:152,1,240
424,120,134522,2,0,B|552:120|552:32|336:72,1,240
280,64,135907,1,0
232,64,136138,2,0,B|160:64|160:112|304:112,1,180
256,208,137522,6,0,B|256:256|256:256|256:184,1,89.9999973177911
256,144,138445,2,0,B|256:96|256:96|256:168,1,89.9999973177911
352,144,139368,2,0,B|392:144|392:144|392:168,3,60,0|0|8|8
352,248,140522,2,0,B|304:168|448:184|384:328|232:256,1,240
256,168,141907,2,0,B|176:112|256:48|80:296,1,240
16,256,143291,2,0,B|16:184,5,60
88,192,144907,6,0,B|88:152|120:152|120:104,1,89.9999973177911
192,112,145830,2,0,B|192:152|216:152|216:200,1,89.9999973177911
312,216,146753,2,0,B|376:216,3,60,0|0|8|8
312,40,147907,2,0,B|312:136|312:136|216:136|224:240,1,240
288,296,149291,2,0,B|288:200|288:200|384:200|376:96,1,240
472,112,150676,2,0,B|472:176,1,60
472,272,151368,1,0
392,288,152291,6,0,B|208:192|208:144|240:112|288:128|288:184|96:296,1,450,0|4
