osu file format v9

[General]
AudioFilename: Shakira - Las de la Intuicion.mp3
AudioLeadIn: 0
PreviewTime: -1
Countdown: 1
SampleSet: Soft
StackLeniency: 0.7
Mode: 0
LetterboxInBreaks: 1
EpilepsyWarning: 1

[Editor]
Bookmarks: 199138
DistanceSpacing: 0.8
BeatDivisor: 2
GridSize: 8

[Metadata]
Title:Las de la Intuicion
Artist:Shakira
Creator:lDofuz
Version:Easy
Source:Fijacion Oral Oral Fixation
Tags:

[Difficulty]
HPDrainRate:2
CircleSize:3
OverallDifficulty:1
ApproachRate:1
SliderMultiplier:0.9
SliderTickRate:1

[Events]
//Background and Video events
0,0,"shakira.jpg"
//Break Periods
2,88568,95458
//Storyboard Layer 0 (Background)
//Storyboard Layer 1 (Fail)
//Storyboard Layer 2 (Pass)
//Storyboard Layer 3 (Foreground)
//Storyboard Sound Samples
//Background Colour Transformations
3,100,163,162,255

[TimingPoints]
215,461.538461538462,4,2,0,10,1,0
44753,-100,4,2,0,40,0,0
45215,-100,4,2,0,10,0,0
45676,-100,4,2,0,40,0,0
46138,-100,4,2,0,10,0,0
46599,-100,4,2,0,40,0,0
47061,-100,4,2,0,10,0,0
47522,-100,4,2,0,40,0,0
47984,-100,4,2,0,10,0,0
48445,-100,4,2,0,40,0,0
48907,-100,4,2,0,10,0,0
49368,-100,4,2,0,40,0,0
49830,-100,4,2,0,10,0,0
50291,-100,4,2,0,40,0,0
50753,-100,4,2,0,10,0,0
51215,-100,4,2,0,40,0,0
51676,-100,4,2,0,10,0,0
52138,-100,4,2,0,40,0,0
52599,-100,4,2,0,10,0,0
53061,-100,4,2,0,40,0,0
53522,-100,4,2,0,10,0,0
53984,-100,4,2,0,40,0,0
54445,-100,4,2,0,10,0,0
54907,-100,4,2,0,40,0,0
55368,-100,4,2,0,10,0,0
55830,-100,4,2,0,40,0,0
56291,-100,4,2,0,10,0,0
57330,-100,4,2,0,20,0,0
57561,-100,4,2,0,10,0,0
57791,-100,4,2,0,30,0,0
58022,-100,4,2,0,10,0,0
58253,-100,4,2,0,40,0,0
58484,-100,4,2,0,10,0,0
58715,-100,4,2,0,50,0,0
58945,-100,4,2,0,10,0,0
65868,-100,4,2,0,30,0,0
66330,-100,4,2,0,10,0,0
73253,-100,4,2,0,30,0,0
73715,-100,4,2,0,10,0,0
80638,-100,4,2,0,30,0,0
81099,-100,4,2,0,10,0,0
109945,-100,4,2,0,30,0,0
110638,-100,4,2,0,10,0,0
111215,-100,4,2,0,40,0,0
111676,-100,4,2,0,10,0,0
112138,-100,4,2,0,40,0,0
112599,-100,4,2,0,10,0,0
113061,-100,4,2,0,40,0,0
113522,-100,4,2,0,10,0,0
113984,-100,4,2,0,40,0,0
114445,-100,4,2,0,10,0,0
114907,-100,4,2,0,40,0,0
115368,-100,4,2,0,10,0,0
115830,-100,4,2,0,40,0,0
116291,-100,4,2,0,10,0,0
116868,-100,4,2,0,40,0,0
117099,-100,4,2,0,10,0,0
117791,-100,4,2,0,40,0,0
118022,-100,4,2,0,10,0,0
118599,-100,4,2,0,40,0,0
119061,-100,4,2,0,10,0,0
119522,-100,4,2,0,40,0,0
119984,-100,4,2,0,10,0,0
120445,-100,4,2,0,40,0,0
120907,-100,4,2,0,10,0,0
121368,-100,4,2,0,40,0,0
121830,-100,4,2,0,10,0,0
122407,-100,4,2,0,40,0,0
122638,-100,4,2,0,10,0,0
123791,-100,4,2,0,20,0,0
124022,-100,4,2,0,10,0,0
124253,-100,4,2,0,30,0,0
124484,-100,4,2,0,10,0,0
124715,-100,4,2,0,40,0,0
124945,-100,4,2,0,10,0,0
125176,-100,4,2,0,50,0,0
125407,-100,4,2,0,10,0,0
125522,-100,4,2,0,10,0,1
132330,-100,4,2,0,30,0,1
132791,-100,4,2,0,10,0,1
139715,-100,4,2,0,29,0,1
140176,-100,4,2,0,10,0,1
147099,-100,4,2,0,30,0,1
147561,-100,4,2,0,10,0,1
155638,-100,4,2,0,30,0,1
155868,-100,4,2,0,10,0,1
155984,-100,4,2,0,10,0,0

[Colours]
Combo1 : 0,0,0
Combo2 : 198,198,0
Combo3 : 64,0,0
Combo4 : 255,128,0
Combo5 : 215,0,0

[HitObjects]
256,48,15907,1,0
256,120,16368,1,0
256,192,16830,1,0
152,192,17522,2,0,B|152:304|272:304,1,180
256,128,19830,6,0,B|256:200,2,45
256,56,20753,2,0,B|192:56,2,45
328,56,21676,2,0,B|328:112,3,45
192,56,23291,2,0,B|192:168|64:168,1,180
80,272,24907,1,0
184,272,25599,2,0,B|248:272,1,45
488,72,27907,6,0,B|488:184|368:184,1,180
304,184,29291,2,0,B|256:184,1,45
80,176,30676,2,0,B|80:120,3,45
80,56,31830,1,0
152,56,32291,1,0
264,56,32984,2,0,B|264:104,1,45
280,304,34599,6,0,B|280:272|240:272,2,45
352,304,35522,2,0,B|352:272|376:272,2,45
312,240,36445,2,0,B|312:192,3,45
328,48,38061,2,0,B|328:168|224:168,1,180
120,168,39676,1,0
120,272,40368,2,0,B|176:272,1,45
440,104,42676,5,0
440,176,43138,1,0
440,248,43599,2,0,B|440:304|384:304,1,90
312,304,44522,5,0
240,304,44984,1,8
168,304,45445,1,0
96,304,45907,2,0,B|32:304|32:240,1,90,8|0
32,184,46830,2,0,B|32:112|96:112,1,90,8|0
144,112,47753,1,8
216,112,48215,1,0
288,112,48676,1,8
360,112,49138,6,0,B|424:112|424:176,1,90,0|8
424,232,50061,2,0,B|424:296|360:296,2,90,0|8|0
432,160,51445,1,8
432,88,51907,1,0
360,88,52368,2,0,B|264:88,1,90,8|0
200,88,53291,1,8
128,88,53753,1,0
128,160,54215,2,0,B|128:248,1,90,8|0
128,320,55138,2,0,B|192:320|192:272,1,90,8|0
192,200,56061,2,0,B|192:136|240:136,1,90,8|0
344,136,57215,6,10,B|392:136,7,45,8|8|8|8|8|8|8|8
392,208,59291,6,0,B|392:320|256:320,1,180
208,320,60676,2,0,B|88:320|88:184,1,180,0|0
160,216,62061,1,0
232,216,62522,2,0,B|288:216,1,45,0|0
424,216,63676,6,0,B|424:160|368:160,1,90
296,160,64599,2,0,B|232:160|232:216,1,90
232,280,65522,2,0,B|176:280,3,45,0|0|8|8
112,280,66676,6,0,B|112:176|240:176,1,180,0|0
304,176,68061,2,0,B|424:176|424:288,1,180,8|0
352,280,69445,2,0,B|256:280,2,90,0|0|0
360,176,71061,2,2,B|344:144|376:144|360:88,1,90
288,88,71984,2,2,B|272:120|304:120|288:184,1,90
216,176,72907,2,0,B|160:176,3,45,0|0|8|8
96,176,74061,6,0,B|96:80,2,90,0|0|0
96,248,75445,2,0,B|96:336,2,90,8|0|0
136,184,76830,2,0,B|240:184,2,90,0|0|0
216,112,78445,2,0,B|312:112,1,90
376,112,79368,2,0,B|376:208,1,90
384,272,80291,2,0,B|328:272,3,45,0|0|8|8
264,272,81445,6,0,B|264:192|208:168|208:88,1,180
136,104,82830,2,0,B|136:192|80:208|80:288,1,180
152,272,84215,2,0,B|216:272,3,45
304,272,85599,2,0,B|432:216|352:96|232:176,2,270
256,72,97138,6,0,B|216:192|304:192|248:280,1,180
264,352,98753,1,0
160,352,99445,2,0,B|96:352,1,45
160,144,101061,2,0,B|160:200,2,45
160,72,101984,2,0,B|104:72,2,45
232,72,102907,2,0,B|232:120,3,45
232,264,104522,2,0,B|344:264|344:152,1,180
344,48,106138,1,0
448,48,106830,2,0,B|448:112,1,45
136,184,109138,6,8,B|176:152|224:184,1,90
272,232,110061,2,8,B|312:256|360:232,1,90
360,160,110984,1,0
360,88,111445,1,8
432,88,111907,2,0,B|432:176,1,90,0|8
432,248,112830,1,0
360,248,113291,1,8
288,248,113753,6,0,B|176:248,1,90,0|8
200,176,114676,2,8,B|200:88,1,90,0|8
272,88,115599,2,0,B|376:88,1,90,0|8
368,160,116522,2,0,B|432:160,2,45,0|0|8
296,160,117445,2,0,B|224:160,2,45,0|0|8
296,232,118368,1,0
296,304,118830,1,8
224,304,119291,6,0,B|160:304|160:248,1,90,0|8
160,184,120215,2,0,B|160:96,1,90,0|8
232,96,121138,1,0
304,96,121599,1,8
376,96,122061,2,0,B|432:96,2,45,0|0|8
376,168,122984,2,0,B|376:216,10,45,0|0|8|0|8|0|8|0|8|0|10
304,192,125753,6,0,B|224:112|112:216,1,180
128,264,127138,2,0,B|24:264|24:112,2,180
200,264,129445,1,0
256,168,130138,2,0,B|216:136,2,45
328,168,131061,2,0,B|376:128,2,45
288,232,131984,2,0,B|288:304,3,45,0|0|8|8
288,352,133138,6,0,B|392:352|392:224,1,180
392,160,134522,2,0,B|392:56|256:56,1,180
272,128,135907,2,0,B|272:200,1,45,0|0
272,248,136599,1,0
128,248,137522,2,0,B|128:176,2,45
128,320,138445,2,0,B|64:320,2,45
200,320,139368,2,0,B|264:320,3,45,0|0|8|8
320,320,140522,6,0,B|432:320|432:200,1,180
432,136,141907,6,0,B|424:56|496:176|280:112,1,180
296,192,143291,2,0,B|296:256,5,45
224,224,144907,2,0,B|192:192|192:256|136:224,1,90
144,152,145830,2,0,B|144:104,2,45
72,152,146753,2,0,B|32:152|32:184,3,45,0|0|8|8
72,232,147907,6,0,B|80:328|88:352|64:344|192:344,1,180
232,344,149291,6,0,B|328:336|352:328|344:352|344:224,1,180
344,184,150676,2,0,B|344:120,1,45,0|0
344,64,151368,1,0
232,64,152061,6,0,B|80:64|80:320|280:304,2,360,0|0|12
