osu file format v14

[General]
AudioFilename: GJIGO alias Goyang 2-5.mp3
AudioLeadIn: 0
PreviewTime: 48492
Countdown: 0
SampleSet: Normal
StackLeniency: 0.7
Mode: 1
LetterboxInBreaks: 0
WidescreenStoryboard: 0

[Editor]
DistanceSpacing: 0.8
BeatDivisor: 1
GridSize: 4
TimelineZoom: 1.6

[Metadata]
Title:Goyang 25
TitleUnicode:Goyang 25
Artist:Shae
ArtistUnicode:Shae
Creator:Izect Ztenz
Version:Kantan
Source:GOJIGO 25 SCTV
Tags:Goyang25 sctv JIGO indonesia Surono
BeatmapID:796297
BeatmapSetID:336436

[Difficulty]
HPDrainRate:7
CircleSize:6.9
OverallDifficulty:3
ApproachRate:8.3
SliderMultiplier:1.4
SliderTickRate:1

[Events]
//Background and Video events
0,0,"bgtaiko2.png",0,0
//Break Periods
2,59658,60323
//Storyboard Layer 0 (Background)
//Storyboard Layer 1 (Fail)
//Storyboard Layer 2 (Pass)
//Storyboard Layer 3 (Foreground)
//Storyboard Sound Samples

[TimingPoints]
10831,392.156862745098,4,1,0,50,1,0
48478,-100,4,1,0,50,0,1
59066,-100,4,1,0,50,0,0
61027,-100,4,1,0,50,0,1
73772,-100,4,1,0,50,0,0

[HitObjects]
212,156,10831,5,8,0:0:0:0:
212,156,12399,1,8,0:0:0:0:
212,156,13968,1,8,0:0:0:0:
168,212,14752,1,12,0:0:0:0:
264,160,15536,1,12,0:0:0:0:
244,140,17105,1,0,0:0:0:0:
232,156,17889,5,8,0:0:0:0:
232,156,18674,1,0,0:0:0:0:
232,156,19850,1,8,0:0:0:0:
232,156,20242,1,8,0:0:0:0:
232,156,21027,1,0,0:0:0:0:
240,192,21811,1,0,0:0:0:0:
232,156,22987,1,8,0:0:0:0:
232,156,23380,1,8,0:0:0:0:
232,156,24164,1,0,0:0:0:0:
164,136,24948,1,8,0:0:0:0:
232,156,26125,1,8,0:0:0:0:
148,224,26517,2,0,B|220:264|344:120|392:88|392:88|108:152|108:152|324:308|488:72,1,980
188,200,29654,1,0,0:0:0:0:
188,200,30438,1,0,0:0:0:0:
188,200,31223,1,0,0:0:0:0:
188,200,32791,1,0,0:0:0:0:
188,200,33576,1,0,0:0:0:0:
188,200,34360,1,0,0:0:0:0:
188,200,35929,1,0,0:0:0:0:
188,200,36713,1,0,0:0:0:0:
188,200,37497,1,0,0:0:0:0:
188,200,39458,1,12,0:0:0:0:
188,200,40242,1,12,0:0:0:0:
256,192,40634,12,0,41811,0:0:0:0:
248,192,42203,5,12,0:0:0:0:
248,192,43772,1,8,0:0:0:0:
248,192,45340,1,8,0:0:0:0:
248,192,46909,1,8,0:0:0:0:
248,192,48478,1,4,0:0:0:0:
248,192,49654,1,8,0:0:0:0:
248,192,50046,1,0,0:0:0:0:
176,172,51223,1,8,0:0:0:0:
176,172,51615,1,0,0:0:0:0:
176,172,52791,1,8,0:0:0:0:
176,172,53183,1,8,0:0:0:0:
176,172,54752,1,0,0:0:0:0:
176,172,55929,1,8,0:0:0:0:
176,172,56321,1,0,0:0:0:0:
144,132,57105,1,8,0:0:0:0:
156,212,57889,1,0,0:0:0:0:
264,200,58281,1,8,0:0:0:0:
264,296,58674,1,8,0:0:0:0:
328,196,59066,1,8,0:0:0:0:
184,188,59458,1,0,0:0:0:0:
264,192,61027,5,12,0:0:0:0:
264,192,62203,5,8,0:0:0:0:
264,192,62595,1,0,0:0:0:0:
264,192,63772,1,8,0:0:0:0:
264,192,64164,1,0,0:0:0:0:
264,192,65340,1,8,0:0:0:0:
264,192,65732,1,8,0:0:0:0:
264,192,67301,1,0,0:0:0:0:
264,192,68478,1,8,0:0:0:0:
264,192,68870,1,0,0:0:0:0:
264,192,69654,1,8,0:0:0:0:
224,176,70438,1,0,0:0:0:0:
108,192,70831,1,8,0:0:0:0:
256,208,71223,1,8,0:0:0:0:
256,208,71615,1,8,0:0:0:0:
256,192,72007,12,0,73576,0:0:0:0:
