osu file format v14

[General]
AudioFilename: GJIGO alias Goyang 2-5.mp3
AudioLeadIn: 0
PreviewTime: 48492
Countdown: 0
SampleSet: Soft
StackLeniency: 0.7
Mode: 3
LetterboxInBreaks: 0
SpecialStyle: 0
WidescreenStoryboard: 0

[Editor]
Bookmarks: 16330,17105,47685,72750,73621
DistanceSpacing: 0.8
BeatDivisor: 4
GridSize: 32
TimelineZoom: 1

[Metadata]
Title:Goyang 25
TitleUnicode:Goyang 25
Artist:Shae
ArtistUnicode:Shae
Creator:Izect Ztenz
Version:HD
Source:GOJIGO 25 SCTV
Tags:Goyang25 sctv JIGO indonesia Surono
BeatmapID:744577
BeatmapSetID:336436

[Difficulty]
HPDrainRate:7.4
CircleSize:4
OverallDifficulty:7.9
ApproachRate:5
SliderMultiplier:1.4
SliderTickRate:1

[Events]
//Background and Video events
0,0,"6781009-cool-anime-city-wallpaper.jpg",0,0
//Break Periods
//Storyboard Layer 0 (Background)
//Storyboard Layer 1 (Fail)
//Storyboard Layer 2 (Pass)
//Storyboard Layer 3 (Foreground)
//Storyboard Sound Samples

[TimingPoints]
10831,392.156862745098,4,2,0,51,1,0
48576,-100,4,2,0,51,0,1
73576,-100,4,2,0,51,0,0

[HitObjects]
64,192,10831,128,0,12399:0:0:0:0:
448,192,10831,1,0,0:0:0:0:
320,192,11027,1,0,0:0:0:0:
448,192,11223,1,0,0:0:0:0:
320,192,11419,1,0,0:0:0:0:
448,192,11615,1,0,0:0:0:0:
320,192,11811,1,0,0:0:0:0:
448,192,12007,1,0,0:0:0:0:
320,192,12203,1,0,0:0:0:0:
192,192,12399,128,0,13968:0:0:0:0:
448,192,12399,1,0,0:0:0:0:
320,192,12595,1,0,0:0:0:0:
448,192,12791,1,0,0:0:0:0:
320,192,12987,1,0,0:0:0:0:
448,192,13183,1,0,0:0:0:0:
320,192,13380,1,0,0:0:0:0:
448,192,13576,1,0,0:0:0:0:
320,192,13772,1,0,0:0:0:0:
64,192,13968,1,0,0:0:0:0:
320,192,13968,128,0,15536:0:0:0:0:
448,192,14164,1,0,0:0:0:0:
64,192,14360,1,0,0:0:0:0:
448,192,14556,1,0,0:0:0:0:
64,192,14752,1,0,0:0:0:0:
448,192,14948,1,0,0:0:0:0:
64,192,15144,1,0,0:0:0:0:
192,192,15340,1,0,0:0:0:0:
64,192,15536,1,0,0:0:0:0:
448,192,15536,128,0,17105:0:0:0:0:
192,192,15732,1,0,0:0:0:0:
64,192,15929,1,0,0:0:0:0:
192,192,16125,1,0,0:0:0:0:
64,192,16321,1,0,0:0:0:0:
192,192,16419,1,0,0:0:0:0:
320,192,16517,1,0,0:0:0:0:
192,192,16615,1,0,0:0:0:0:
64,192,16713,1,0,0:0:0:0:
192,192,16811,1,0,0:0:0:0:
320,192,16909,1,0,0:0:0:0:
192,192,17007,1,0,0:0:0:0:
64,192,17105,1,0,0:0:0:0:
320,192,17105,1,0,0:0:0:0:
192,192,17301,1,0,0:0:0:0:
192,192,17497,1,0,0:0:0:0:
320,192,17497,1,0,0:0:0:0:
64,192,17693,1,0,0:0:0:0:
448,192,17693,1,0,0:0:0:0:
192,192,18085,1,0,0:0:0:0:
320,192,18085,1,0,0:0:0:0:
64,192,18281,1,0,0:0:0:0:
256,192,18281,1,0,0:0:0:0:
192,192,18478,1,0,0:0:0:0:
320,192,18674,1,0,0:0:0:0:
64,192,18870,1,0,0:0:0:0:
448,192,18870,1,0,0:0:0:0:
320,192,19066,1,0,0:0:0:0:
192,192,19262,1,0,0:0:0:0:
64,192,19458,1,0,0:0:0:0:
320,192,19654,1,0,0:0:0:0:
64,192,19654,1,0,0:0:0:0:
192,192,19850,1,0,0:0:0:0:
320,192,19850,1,0,0:0:0:0:
192,192,20046,1,0,0:0:0:0:
320,192,20242,1,0,0:0:0:0:
64,192,20438,1,0,0:0:0:0:
448,192,20438,1,0,0:0:0:0:
192,192,20634,1,0,0:0:0:0:
320,192,20634,1,0,0:0:0:0:
320,192,20831,1,0,0:0:0:0:
192,192,21027,1,0,0:0:0:0:
64,192,21223,1,0,0:0:0:0:
320,192,21223,1,0,0:0:0:0:
192,192,21419,1,0,0:0:0:0:
448,192,21419,1,0,0:0:0:0:
64,192,21615,1,0,0:0:0:0:
320,192,21811,1,0,0:0:0:0:
64,192,22007,1,0,0:0:0:0:
448,192,22007,1,0,0:0:0:0:
192,192,22203,1,0,0:0:0:0:
448,192,22203,1,0,0:0:0:0:
64,192,22399,1,0,0:0:0:0:
320,192,22595,1,0,0:0:0:0:
192,192,22791,1,0,0:0:0:0:
448,192,22791,1,0,0:0:0:0:
192,192,22987,1,0,0:0:0:0:
448,192,22987,1,0,0:0:0:0:
64,192,23183,1,0,0:0:0:0:
192,192,23380,1,0,0:0:0:0:
64,192,23576,1,0,0:0:0:0:
320,192,23576,1,0,0:0:0:0:
64,192,23772,1,0,0:0:0:0:
192,192,23772,1,0,0:0:0:0:
320,192,23968,1,0,0:0:0:0:
64,192,24164,1,0,0:0:0:0:
448,192,24360,1,0,0:0:0:0:
192,192,24360,1,0,0:0:0:0:
64,192,24556,1,0,0:0:0:0:
320,192,24556,1,0,0:0:0:0:
192,192,24703,1,0,0:0:0:0:
320,192,24948,1,0,0:0:0:0:
448,192,25144,1,0,0:0:0:0:
192,192,25144,1,0,0:0:0:0:
448,192,25340,1,0,0:0:0:0:
320,192,25340,1,0,0:0:0:0:
192,192,25536,1,0,0:0:0:0:
448,192,25732,1,0,0:0:0:0:
320,192,25929,1,0,0:0:0:0:
64,192,25929,1,0,0:0:0:0:
192,192,26125,1,0,0:0:0:0:
320,192,26125,1,0,0:0:0:0:
192,192,26321,1,0,0:0:0:0:
320,192,26321,1,0,0:0:0:0:
448,192,26713,1,0,0:0:0:0:
192,192,26713,1,0,0:0:0:0:
320,192,26909,1,0,0:0:0:0:
64,192,26909,1,0,0:0:0:0:
192,192,27105,1,0,0:0:0:0:
448,192,27105,1,0,0:0:0:0:
320,192,27301,1,0,0:0:0:0:
192,192,27301,1,0,0:0:0:0:
320,192,27497,1,0,0:0:0:0:
448,192,27497,1,0,0:0:0:0:
320,192,27693,1,0,0:0:0:0:
64,192,27693,1,0,0:0:0:0:
192,192,27889,1,0,0:0:0:0:
448,192,27889,1,0,0:0:0:0:
64,192,28085,1,0,0:0:0:0:
192,192,28085,1,0,0:0:0:0:
192,192,28281,1,0,0:0:0:0:
320,192,28281,1,0,0:0:0:0:
320,192,28478,1,0,0:0:0:0:
448,192,28478,1,0,0:0:0:0:
320,192,28674,1,0,0:0:0:0:
64,192,28674,1,0,0:0:0:0:
192,192,28870,1,0,0:0:0:0:
448,192,28870,1,0,0:0:0:0:
64,192,29066,1,0,0:0:0:0:
320,192,29066,1,0,0:0:0:0:
192,192,29262,1,0,0:0:0:0:
448,192,29262,1,0,0:0:0:0:
64,192,29458,1,0,0:0:0:0:
320,192,29458,1,0,0:0:0:0:
448,192,29458,1,0,0:0:0:0:
64,192,29850,1,0,0:0:0:0:
448,192,29850,1,0,0:0:0:0:
192,192,30046,1,0,0:0:0:0:
320,192,30242,1,0,0:0:0:0:
448,192,30438,1,0,0:0:0:0:
64,192,30438,1,0,0:0:0:0:
320,192,30634,1,0,0:0:0:0:
64,192,30831,1,0,0:0:0:0:
320,192,31027,1,0,0:0:0:0:
192,192,31027,1,0,0:0:0:0:
448,192,31223,1,0,0:0:0:0:
64,192,31223,1,0,0:0:0:0:
192,192,31419,1,0,0:0:0:0:
64,192,31615,1,0,0:0:0:0:
320,192,31811,1,0,0:0:0:0:
192,192,31811,1,0,0:0:0:0:
320,192,32203,1,0,0:0:0:0:
192,192,32203,1,0,0:0:0:0:
320,192,32399,1,0,0:0:0:0:
64,192,32399,1,0,0:0:0:0:
192,192,32595,1,0,0:0:0:0:
448,192,32595,1,0,0:0:0:0:
64,192,32791,1,0,0:0:0:0:
448,192,32791,1,0,0:0:0:0:
192,192,32987,1,0,0:0:0:0:
320,192,32987,1,0,0:0:0:0:
64,192,33183,1,0,0:0:0:0:
320,192,33380,1,0,0:0:0:0:
64,192,33576,1,0,0:0:0:0:
448,192,33576,1,0,0:0:0:0:
192,192,33772,1,0,0:0:0:0:
320,192,33772,1,0,0:0:0:0:
64,192,33968,1,0,0:0:0:0:
320,192,34164,1,0,0:0:0:0:
64,192,34360,1,0,0:0:0:0:
448,192,34360,1,0,0:0:0:0:
192,192,34556,1,0,0:0:0:0:
320,192,34556,1,0,0:0:0:0:
448,192,34752,1,0,0:0:0:0:
320,192,34948,1,0,0:0:0:0:
64,192,35144,1,0,0:0:0:0:
448,192,35144,1,0,0:0:0:0:
192,192,35340,1,0,0:0:0:0:
320,192,35340,1,0,0:0:0:0:
64,192,35536,1,0,0:0:0:0:
320,192,35732,1,0,0:0:0:0:
64,192,35929,1,0,0:0:0:0:
448,192,35929,1,0,0:0:0:0:
192,192,36125,1,0,0:0:0:0:
320,192,36125,1,0,0:0:0:0:
320,192,36321,1,0,0:0:0:0:
320,192,36517,1,0,0:0:0:0:
448,192,36713,1,0,0:0:0:0:
64,192,36713,1,0,0:0:0:0:
192,192,36909,1,0,0:0:0:0:
320,192,36909,1,0,0:0:0:0:
192,192,37105,1,0,0:0:0:0:
320,192,37301,1,0,0:0:0:0:
64,192,37497,1,0,0:0:0:0:
448,192,37497,1,0,0:0:0:0:
192,192,37693,1,0,0:0:0:0:
320,192,37693,1,0,0:0:0:0:
448,192,37889,1,0,0:0:0:0:
320,192,38085,1,0,0:0:0:0:
64,192,38281,1,0,0:0:0:0:
448,192,38281,1,0,0:0:0:0:
192,192,38478,1,0,0:0:0:0:
320,192,38478,1,0,0:0:0:0:
64,192,38674,1,0,0:0:0:0:
320,192,38870,1,0,0:0:0:0:
64,192,39458,1,0,0:0:0:0:
448,192,39458,1,0,0:0:0:0:
320,192,39458,1,0,0:0:0:0:
448,192,40242,1,0,0:0:0:0:
320,192,40242,1,0,0:0:0:0:
192,192,40242,1,0,0:0:0:0:
64,192,40831,1,0,0:0:0:0:
448,192,40831,1,0,0:0:0:0:
320,192,40831,1,0,0:0:0:0:
192,192,41027,1,0,0:0:0:0:
320,192,41027,1,0,0:0:0:0:
192,192,41223,1,0,0:0:0:0:
448,192,41419,1,0,0:0:0:0:
320,192,41419,1,0,0:0:0:0:
192,192,41419,1,0,0:0:0:0:
320,192,41811,1,0,0:0:0:0:
448,192,41811,1,0,0:0:0:0:
64,192,41811,1,0,0:0:0:0:
64,192,42203,128,0,43772:0:0:0:0:
448,192,42203,1,0,0:0:0:0:
320,192,42399,1,0,0:0:0:0:
448,192,42595,1,0,0:0:0:0:
320,192,42791,1,0,0:0:0:0:
448,192,42987,1,0,0:0:0:0:
320,192,43183,1,0,0:0:0:0:
448,192,43380,1,0,0:0:0:0:
320,192,43576,1,0,0:0:0:0:
448,192,43772,1,0,0:0:0:0:
320,192,43772,128,0,45340:0:0:0:0:
192,192,43772,1,0,0:0:0:0:
192,192,43968,1,0,0:0:0:0:
64,192,44164,1,0,0:0:0:0:
192,192,44360,1,0,0:0:0:0:
64,192,44556,1,0,0:0:0:0:
192,192,44752,1,0,0:0:0:0:
64,192,44948,1,0,0:0:0:0:
192,192,45144,1,0,0:0:0:0:
192,192,45340,128,0,46909:0:0:0:0:
448,192,45340,1,0,0:0:0:0:
64,192,45340,1,0,0:0:0:0:
320,192,45536,1,0,0:0:0:0:
448,192,45732,1,0,0:0:0:0:
320,192,45929,1,0,0:0:0:0:
448,192,46125,1,0,0:0:0:0:
320,192,46321,1,0,0:0:0:0:
448,192,46517,1,0,0:0:0:0:
320,192,46713,1,0,0:0:0:0:
64,192,46909,128,0,48478:0:0:0:0:
448,192,46909,1,0,0:0:0:0:
320,192,47007,1,0,0:0:0:0:
192,192,47105,1,0,0:0:0:0:
320,192,47203,1,0,0:0:0:0:
448,192,47301,1,0,0:0:0:0:
320,192,47399,1,0,0:0:0:0:
192,192,47497,1,0,0:0:0:0:
320,192,47595,1,0,0:0:0:0:
448,191,47693,1,0,0:0:0:0:
320,191,47791,1,0,0:0:0:0:
192,191,47889,1,0,0:0:0:0:
320,191,47987,1,0,0:0:0:0:
448,191,48085,1,0,0:0:0:0:
320,191,48183,1,0,0:0:0:0:
192,191,48281,1,0,0:0:0:0:
320,191,48380,1,0,0:0:0:0:
192,191,48478,1,0,0:0:0:0:
448,191,48478,1,0,0:0:0:0:
64,192,48870,1,0,0:0:0:0:
192,192,48870,1,0,0:0:0:0:
320,192,49066,1,0,0:0:0:0:
448,192,49066,1,0,0:0:0:0:
320,192,49458,1,0,0:0:0:0:
448,192,49458,1,0,0:0:0:0:
64,192,49654,1,0,0:0:0:0:
192,192,49654,1,0,0:0:0:0:
64,192,49850,1,0,0:0:0:0:
320,192,50046,1,0,0:0:0:0:
448,192,50046,1,0,0:0:0:0:
64,192,50438,1,0,0:0:0:0:
192,192,50438,1,0,0:0:0:0:
320,192,50634,1,0,0:0:0:0:
448,192,50634,1,0,0:0:0:0:
320,192,51027,1,0,0:0:0:0:
448,192,51027,1,0,0:0:0:0:
64,192,51223,1,0,0:0:0:0:
192,192,51223,1,0,0:0:0:0:
192,192,51419,1,0,0:0:0:0:
448,192,51615,1,0,0:0:0:0:
320,192,51615,1,0,0:0:0:0:
64,192,52007,1,0,0:0:0:0:
192,192,52007,1,0,0:0:0:0:
448,192,52203,1,0,0:0:0:0:
320,192,52203,1,0,0:0:0:0:
448,192,52595,1,0,0:0:0:0:
320,192,52595,1,0,0:0:0:0:
192,192,52759,1,0,0:0:0:0:
64,192,52759,1,0,0:0:0:0:
320,192,52987,1,0,0:0:0:0:
320,192,53183,1,0,0:0:0:0:
448,192,53183,1,0,0:0:0:0:
320,192,53576,1,0,0:0:0:0:
448,192,53576,1,0,0:0:0:0:
192,192,53772,1,0,0:0:0:0:
64,192,53772,1,0,0:0:0:0:
192,192,54164,1,0,0:0:0:0:
64,192,54164,1,0,0:0:0:0:
448,192,54360,1,0,0:0:0:0:
320,192,54360,1,0,0:0:0:0:
64,192,54556,1,0,0:0:0:0:
64,192,54752,1,0,0:0:0:0:
192,192,54752,1,0,0:0:0:0:
320,192,55144,1,0,0:0:0:0:
448,192,55144,1,0,0:0:0:0:
192,192,55340,1,0,0:0:0:0:
64,192,55340,1,0,0:0:0:0:
64,192,55732,1,0,0:0:0:0:
192,192,55732,1,0,0:0:0:0:
320,192,55929,1,0,0:0:0:0:
448,192,55929,1,0,0:0:0:0:
192,192,56125,1,0,0:0:0:0:
192,192,56321,1,0,0:0:0:0:
64,192,56321,1,0,0:0:0:0:
448,192,56713,1,0,0:0:0:0:
320,192,56713,1,0,0:0:0:0:
192,192,56909,1,0,0:0:0:0:
64,192,56909,1,0,0:0:0:0:
192,192,57301,1,0,0:0:0:0:
64,192,57301,1,0,0:0:0:0:
320,192,57497,1,0,0:0:0:0:
448,192,57497,1,0,0:0:0:0:
448,192,57693,1,0,0:0:0:0:
192,192,57889,1,0,0:0:0:0:
64,192,57889,1,0,0:0:0:0:
320,192,58281,1,0,0:0:0:0:
448,192,58281,1,0,0:0:0:0:
64,192,58478,1,0,0:0:0:0:
192,192,58478,1,0,0:0:0:0:
64,192,58870,1,0,0:0:0:0:
192,192,58870,1,0,0:0:0:0:
448,192,59066,1,0,0:0:0:0:
320,192,59066,1,0,0:0:0:0:
192,192,59262,1,0,0:0:0:0:
448,192,59458,1,0,0:0:0:0:
320,192,59458,1,0,0:0:0:0:
64,192,59654,128,0,61027:0:0:0:0:
192,192,59654,1,0,0:0:0:0:
320,192,59654,1,0,0:0:0:0:
320,192,59948,1,0,0:0:0:0:
192,192,60046,1,0,0:0:0:0:
320,192,60242,1,0,0:0:0:0:
192,192,60438,1,0,0:0:0:0:
448,192,60438,1,0,0:0:0:0:
320,192,60634,1,0,0:0:0:0:
448,192,60831,1,0,0:0:0:0:
192,192,61027,1,0,0:0:0:0:
448,192,61027,1,0,0:0:0:0:
64,192,61419,1,0,0:0:0:0:
192,192,61419,1,0,0:0:0:0:
448,192,61615,1,0,0:0:0:0:
320,192,61615,1,0,0:0:0:0:
448,192,62007,1,0,0:0:0:0:
320,192,62007,1,0,0:0:0:0:
192,192,62203,1,0,0:0:0:0:
64,192,62203,1,0,0:0:0:0:
192,192,62399,1,0,0:0:0:0:
320,192,62595,1,0,0:0:0:0:
448,192,62595,1,0,0:0:0:0:
192,192,62987,1,0,0:0:0:0:
64,192,62987,1,0,0:0:0:0:
320,192,63183,1,0,0:0:0:0:
448,192,63183,1,0,0:0:0:0:
320,192,63576,1,0,0:0:0:0:
448,192,63576,1,0,0:0:0:0:
192,192,63772,1,0,0:0:0:0:
64,192,63772,1,0,0:0:0:0:
320,192,63968,1,0,0:0:0:0:
448,192,64164,1,0,0:0:0:0:
320,192,64164,1,0,0:0:0:0:
320,192,64556,1,0,0:0:0:0:
448,192,64556,1,0,0:0:0:0:
192,192,64752,1,0,0:0:0:0:
64,192,64752,1,0,0:0:0:0:
64,192,65144,1,0,0:0:0:0:
192,192,65144,1,0,0:0:0:0:
320,192,65340,1,0,0:0:0:0:
448,192,65340,1,0,0:0:0:0:
320,192,65536,1,0,0:0:0:0:
192,192,65732,1,0,0:0:0:0:
64,192,65732,1,0,0:0:0:0:
192,192,66125,1,0,0:0:0:0:
64,192,66125,1,0,0:0:0:0:
320,192,66321,1,0,0:0:0:0:
448,192,66321,1,0,0:0:0:0:
320,192,66713,1,0,0:0:0:0:
448,192,66713,1,0,0:0:0:0:
64,192,66909,1,0,0:0:0:0:
192,192,66909,1,0,0:0:0:0:
64,192,67105,1,0,0:0:0:0:
448,192,67301,1,0,0:0:0:0:
320,192,67301,1,0,0:0:0:0:
448,191,67693,1,0,0:0:0:0:
320,192,67693,1,0,0:0:0:0:
64,192,67889,1,0,0:0:0:0:
192,192,67889,1,0,0:0:0:0:
64,192,68281,1,0,0:0:0:0:
192,192,68281,1,0,0:0:0:0:
320,192,68478,1,0,0:0:0:0:
448,191,68478,1,0,0:0:0:0:
320,192,68674,1,0,0:0:0:0:
192,192,68870,1,0,0:0:0:0:
64,192,68870,1,0,0:0:0:0:
192,192,69262,1,0,0:0:0:0:
64,192,69262,1,0,0:0:0:0:
320,192,69458,1,0,0:0:0:0:
448,192,69458,1,0,0:0:0:0:
320,192,69801,1,0,0:0:0:0:
448,192,69801,1,0,0:0:0:0:
64,192,70046,1,0,0:0:0:0:
192,192,70046,1,0,0:0:0:0:
448,192,70242,1,0,0:0:0:0:
448,192,70438,1,0,0:0:0:0:
320,192,70438,1,0,0:0:0:0:
64,192,70438,128,0,71811:0:0:0:0:
192,192,70831,1,0,0:0:0:0:
448,192,70831,1,0,0:0:0:0:
448,192,71027,1,0,0:0:0:0:
192,192,71223,1,0,0:0:0:0:
448,192,71419,1,0,0:0:0:0:
320,192,71419,1,0,0:0:0:0:
192,192,71615,1,0,0:0:0:0:
320,192,71811,1,0,0:0:0:0:
448,192,71811,128,0,73576:0:0:0:0:
64,192,72007,1,0,0:0:0:0:
192,192,72203,1,0,0:0:0:0:
320,192,72399,1,0,0:0:0:0:
192,192,72595,1,0,0:0:0:0:
64,192,72791,1,0,0:0:0:0:
192,192,72889,1,0,0:0:0:0:
320,192,72987,1,0,0:0:0:0:
192,192,73085,1,0,0:0:0:0:
64,192,73183,1,0,0:0:0:0:
192,192,73281,1,0,0:0:0:0:
320,192,73380,1,0,0:0:0:0:
192,192,73478,1,0,0:0:0:0:
320,192,73576,1,0,0:0:0:0:
64,192,73576,1,0,0:0:0:0:
64,192,73968,1,0,0:0:0:0:
192,192,73968,1,0,0:0:0:0:
320,192,74164,1,0,0:0:0:0:
448,192,74164,1,0,0:0:0:0:
320,192,74556,1,0,0:0:0:0:
448,192,74556,1,0,0:0:0:0:
64,192,74752,1,0,0:0:0:0:
192,192,74752,1,0,0:0:0:0:
192,192,74948,1,0,0:0:0:0:
448,192,75144,1,0,0:0:0:0:
320,192,75144,1,0,0:0:0:0:
192,192,75536,1,0,0:0:0:0:
64,192,75536,1,0,0:0:0:0:
448,192,75732,1,0,0:0:0:0:
320,192,75732,1,0,0:0:0:0:
448,192,76125,1,0,0:0:0:0:
320,192,76125,1,0,0:0:0:0:
192,192,76321,1,0,0:0:0:0:
64,192,76321,1,0,0:0:0:0:
320,192,76517,1,0,0:0:0:0:
320,192,76713,1,0,0:0:0:0:
448,192,76713,1,0,0:0:0:0:
192,192,77105,1,0,0:0:0:0:
64,192,77105,1,0,0:0:0:0:
320,192,77301,1,0,0:0:0:0:
448,192,77301,1,0,0:0:0:0:
320,192,77693,1,0,0:0:0:0:
448,192,77693,1,0,0:0:0:0:
64,192,77889,1,0,0:0:0:0:
192,192,77889,1,0,0:0:0:0:
192,192,78085,1,0,0:0:0:0:
448,192,78281,1,0,0:0:0:0:
320,192,78281,1,0,0:0:0:0:
319,191,78674,1,0,0:0:0:0:
447,191,78674,1,0,0:0:0:0:
64,191,78870,1,0,0:0:0:0:
192,192,78870,1,0,0:0:0:0:
64,191,79262,1,0,0:0:0:0:
192,192,79262,1,0,0:0:0:0:
319,191,79458,1,0,0:0:0:0:
447,191,79458,1,0,0:0:0:0:
64,192,79654,1,0,0:0:0:0:
192,192,79850,1,0,0:0:0:0:
64,191,79850,1,0,0:0:0:0:
64,192,80242,1,0,0:0:0:0:
192,192,80242,1,0,0:0:0:0:
320,192,80438,1,0,0:0:0:0:
448,192,80438,1,0,0:0:0:0:
320,192,80798,1,0,0:0:0:0:
448,192,80798,1,0,0:0:0:0:
64,192,81027,1,0,0:0:0:0:
192,192,81027,1,0,0:0:0:0:
192,192,81223,1,0,0:0:0:0:
448,192,81419,1,0,0:0:0:0:
320,192,81419,1,0,0:0:0:0:
320,191,81811,1,0,0:0:0:0:
448,192,81811,1,0,0:0:0:0:
64,192,82007,1,0,0:0:0:0:
192,192,82007,1,0,0:0:0:0:
64,192,82399,1,0,0:0:0:0:
192,192,82399,1,0,0:0:0:0:
448,192,82595,1,0,0:0:0:0:
320,192,82595,1,0,0:0:0:0:
448,192,82791,1,0,0:0:0:0:
320,192,82791,1,0,0:0:0:0:
192,192,82987,1,0,0:0:0:0:
64,192,82987,128,0,84556:0:0:0:0:
320,192,83380,1,0,0:0:0:0:
192,192,83576,1,0,0:0:0:0:
320,192,83968,1,0,0:0:0:0:
192,192,84164,1,0,0:0:0:0:
448,192,84556,128,0,86125:0:0:0:0:
320,192,84556,1,0,0:0:0:0:
