osu file format v14

[General]
AudioFilename: GJIGO alias Goyang 2-5.mp3
AudioLeadIn: 0
PreviewTime: 48492
Countdown: 0
SampleSet: Soft
StackLeniency: 0.7
Mode: 3
LetterboxInBreaks: 0
SpecialStyle: 0
WidescreenStoryboard: 1

[Editor]
Bookmarks: 48459,49911,50266,51621,52201,53169
DistanceSpacing: 0.8
BeatDivisor: 4
GridSize: 8
TimelineZoom: 1

[Metadata]
Title:Goyang 25
TitleUnicode:Goyang 25
Artist:Shae
ArtistUnicode:Shae
Creator:Izect Ztenz
Version:EZ
Source:GOJIGO 25 SCTV
Tags:Goyang25 sctv JIGO indonesia Surono
BeatmapID:786809
BeatmapSetID:336436

[Difficulty]
HPDrainRate:6.8
CircleSize:4
OverallDifficulty:7.7
ApproachRate:5
SliderMultiplier:1.4
SliderTickRate:1

[Events]
//Background and Video events
0,0,"6781009-cool-anime-city-wallpaper.jpg",0,0
//Break Periods
//Storyboard Layer 0 (Background)
//Storyboard Layer 1 (Fail)
//Storyboard Layer 2 (Pass)
//Storyboard Layer 3 (Foreground)
//Storyboard Sound Samples

[TimingPoints]
10831,392.156862745098,4,2,0,51,1,0
48478,-100,4,2,0,51,0,1
73772,-100,4,2,0,51,0,0

[HitObjects]
64,192,10831,128,0,12399:0:0:0:0:
192,192,12399,128,0,13968:0:0:0:0:
320,192,13968,128,0,15536:0:0:0:0:
448,192,15536,128,0,17105:0:0:0:0:
192,192,17105,1,0,0:0:0:0:
64,192,17497,1,0,0:0:0:0:
320,192,17693,1,0,0:0:0:0:
192,192,18085,1,0,0:0:0:0:
448,192,18281,1,0,0:0:0:0:
192,192,18674,1,0,0:0:0:0:
320,192,19066,1,0,0:0:0:0:
64,192,19262,1,0,0:0:0:0:
192,192,19654,1,0,0:0:0:0:
320,192,19850,1,0,0:0:0:0:
448,192,20046,1,0,0:0:0:0:
320,192,20242,1,0,0:0:0:0:
64,192,20634,1,0,0:0:0:0:
192,192,20831,1,0,0:0:0:0:
320,192,21223,1,0,0:0:0:0:
192,192,21419,1,0,0:0:0:0:
320,192,21811,1,0,0:0:0:0:
192,192,22203,1,0,0:0:0:0:
320,192,22791,1,0,0:0:0:0:
192,192,22987,1,0,0:0:0:0:
64,192,23183,1,0,0:0:0:0:
320,192,23380,1,0,0:0:0:0:
192,192,23772,1,0,0:0:0:0:
320,192,23968,1,0,0:0:0:0:
192,192,24360,1,0,0:0:0:0:
448,192,24556,1,0,0:0:0:0:
192,192,24948,1,0,0:0:0:0:
448,192,25340,1,0,0:0:0:0:
192,192,25536,1,0,0:0:0:0:
64,192,25929,1,0,0:0:0:0:
320,192,26125,1,0,0:0:0:0:
64,192,26713,1,0,0:0:0:0:
192,192,27105,1,0,0:0:0:0:
320,192,27497,1,0,0:0:0:0:
448,192,27889,1,0,0:0:0:0:
192,192,28281,1,0,0:0:0:0:
320,192,28478,1,0,0:0:0:0:
448,192,28674,1,0,0:0:0:0:
192,192,28870,1,0,0:0:0:0:
64,192,29066,1,0,0:0:0:0:
192,192,29262,1,0,0:0:0:0:
64,192,29458,1,0,0:0:0:0:
448,192,29458,1,0,0:0:0:0:
448,192,29850,1,0,0:0:0:0:
192,192,30046,1,0,0:0:0:0:
320,192,30242,1,0,0:0:0:0:
320,192,30634,1,0,0:0:0:0:
192,192,30831,1,0,0:0:0:0:
448,192,31223,1,0,0:0:0:0:
192,192,31615,1,0,0:0:0:0:
320,192,31811,1,0,0:0:0:0:
192,192,32203,1,0,0:0:0:0:
448,192,32399,1,0,0:0:0:0:
320,192,32595,1,0,0:0:0:0:
192,192,32791,1,0,0:0:0:0:
192,192,33183,1,0,0:0:0:0:
64,192,33380,1,0,0:0:0:0:
320,192,33772,1,0,0:0:0:0:
192,192,33968,1,0,0:0:0:0:
320,192,34360,1,0,0:0:0:0:
192,192,34752,1,0,0:0:0:0:
448,192,34948,1,0,0:0:0:0:
320,192,35340,1,0,0:0:0:0:
192,192,35536,1,0,0:0:0:0:
64,192,35732,1,0,0:0:0:0:
320,192,35929,1,0,0:0:0:0:
64,192,36321,1,0,0:0:0:0:
192,192,36517,1,0,0:0:0:0:
320,192,36909,1,0,0:0:0:0:
64,192,37105,1,0,0:0:0:0:
192,192,37497,1,0,0:0:0:0:
64,192,37889,1,0,0:0:0:0:
192,192,38085,1,0,0:0:0:0:
320,192,38478,1,0,0:0:0:0:
192,192,38674,1,0,0:0:0:0:
64,192,38870,1,0,0:0:0:0:
192,192,39458,1,0,0:0:0:0:
320,192,39458,1,0,0:0:0:0:
192,192,40242,1,0,0:0:0:0:
320,192,40242,1,0,0:0:0:0:
64,192,40831,1,0,0:0:0:0:
448,192,40831,1,0,0:0:0:0:
192,192,41419,1,0,0:0:0:0:
320,192,41419,1,0,0:0:0:0:
64,192,41811,1,0,0:0:0:0:
448,192,41811,1,0,0:0:0:0:
192,192,42203,128,0,43772:0:0:0:0:
320,192,42203,1,0,0:0:0:0:
448,192,42595,1,0,0:0:0:0:
320,192,42987,1,0,0:0:0:0:
64,192,43380,1,0,0:0:0:0:
64,192,43772,128,0,45340:0:0:0:0:
448,192,43772,1,0,0:0:0:0:
192,192,44164,1,0,0:0:0:0:
320,192,44556,1,0,0:0:0:0:
192,192,44948,1,0,0:0:0:0:
192,192,45340,128,0,46909:0:0:0:0:
448,192,45340,1,0,0:0:0:0:
448,192,46909,128,0,48478:0:0:0:0:
64,192,48478,1,0,0:0:0:0:
320,192,48478,1,0,0:0:0:0:
64,192,48870,1,0,0:0:0:0:
192,192,49066,1,0,0:0:0:0:
192,192,49458,1,0,0:0:0:0:
320,192,49654,1,0,0:0:0:0:
448,192,50046,1,0,0:0:0:0:
320,192,50438,1,0,0:0:0:0:
192,192,50634,1,0,0:0:0:0:
192,192,51027,1,0,0:0:0:0:
64,192,51223,1,0,0:0:0:0:
192,192,51615,1,0,0:0:0:0:
320,192,52007,1,0,0:0:0:0:
192,192,52203,1,0,0:0:0:0:
64,192,52595,1,0,0:0:0:0:
192,192,52791,1,0,0:0:0:0:
64,192,53183,1,0,0:0:0:0:
320,192,53576,1,0,0:0:0:0:
192,192,53772,1,0,0:0:0:0:
448,192,54164,1,0,0:0:0:0:
320,192,54360,1,0,0:0:0:0:
192,192,54752,1,0,0:0:0:0:
64,192,55144,1,0,0:0:0:0:
448,192,55340,1,0,0:0:0:0:
64,192,55732,1,0,0:0:0:0:
320,192,55929,1,0,0:0:0:0:
192,192,56321,1,0,0:0:0:0:
320,192,56713,1,0,0:0:0:0:
64,192,56909,1,0,0:0:0:0:
64,192,57301,1,0,0:0:0:0:
320,192,57497,1,0,0:0:0:0:
448,192,57889,1,0,0:0:0:0:
64,192,57889,128,0,61027:0:0:0:0:
192,192,61027,1,0,0:0:0:0:
448,192,61027,1,0,0:0:0:0:
192,192,61419,1,0,0:0:0:0:
448,192,61615,1,0,0:0:0:0:
64,192,62007,1,0,0:0:0:0:
320,192,62203,1,0,0:0:0:0:
192,192,62595,1,0,0:0:0:0:
192,192,62987,1,0,0:0:0:0:
64,192,63183,1,0,0:0:0:0:
192,192,63576,1,0,0:0:0:0:
64,192,63772,1,0,0:0:0:0:
320,192,64164,1,0,0:0:0:0:
448,192,64556,1,0,0:0:0:0:
320,192,64752,1,0,0:0:0:0:
192,192,65144,1,0,0:0:0:0:
64,192,65340,1,0,0:0:0:0:
320,192,65732,1,0,0:0:0:0:
64,192,66125,1,0,0:0:0:0:
320,192,66321,1,0,0:0:0:0:
192,192,66713,1,0,0:0:0:0:
448,192,66909,1,0,0:0:0:0:
64,192,67301,1,0,0:0:0:0:
192,192,67693,1,0,0:0:0:0:
64,192,67889,1,0,0:0:0:0:
192,192,68281,1,0,0:0:0:0:
64,192,68478,1,0,0:0:0:0:
448,192,68870,1,0,0:0:0:0:
64,192,69262,1,0,0:0:0:0:
192,192,69458,1,0,0:0:0:0:
64,192,69850,1,0,0:0:0:0:
320,192,70046,1,0,0:0:0:0:
320,192,70438,1,0,0:0:0:0:
192,192,70438,128,0,73576:0:0:0:0:
320,192,73576,1,0,0:0:0:0:
448,192,73576,1,0,0:0:0:0:
64,192,73968,1,0,0:0:0:0:
192,192,74164,1,0,0:0:0:0:
320,192,74556,1,0,0:0:0:0:
448,192,74752,1,0,0:0:0:0:
64,192,75144,1,0,0:0:0:0:
320,192,75536,1,0,0:0:0:0:
192,192,75732,1,0,0:0:0:0:
64,192,76125,1,0,0:0:0:0:
192,192,76321,1,0,0:0:0:0:
320,192,76713,1,0,0:0:0:0:
320,192,77105,1,0,0:0:0:0:
448,192,77301,1,0,0:0:0:0:
192,192,77693,1,0,0:0:0:0:
320,192,77889,1,0,0:0:0:0:
64,192,78281,1,0,0:0:0:0:
320,192,78674,1,0,0:0:0:0:
192,192,78870,1,0,0:0:0:0:
448,192,79262,1,0,0:0:0:0:
320,192,79458,1,0,0:0:0:0:
64,192,79850,1,0,0:0:0:0:
64,192,80242,1,0,0:0:0:0:
320,192,80438,1,0,0:0:0:0:
192,192,80831,1,0,0:0:0:0:
448,192,81027,1,0,0:0:0:0:
320,192,81419,1,0,0:0:0:0:
448,192,81811,1,0,0:0:0:0:
192,192,82007,1,0,0:0:0:0:
320,192,82399,1,0,0:0:0:0:
64,192,82595,1,0,0:0:0:0:
192,192,82987,1,0,0:0:0:0:
320,192,82987,128,0,86125:0:0:0:0:
192,192,86125,1,0,0:0:0:0:
