osu file format v12

[General]
AudioFilename: Don't Mine at Night.mp3
AudioLeadIn: 0
PreviewTime: 37931
Countdown: 0
SampleSet: Soft
StackLeniency: 0.7
Mode: 0
LetterboxInBreaks: 1
WidescreenStoryboard: 1

[Editor]
Bookmarks: 8526,24235,39473,54711,69949,85187,100425,115663,130901
DistanceSpacing: 0.8
BeatDivisor: 4
GridSize: 4
TimelineZoom: 1

[Metadata]
Title:Don't Mine At Night
TitleUnicode:Don't Mine At Night
Artist:ShadyVox
ArtistUnicode:ShadyVox
Creator:ColdTooth
Version:Insane
Source:
Tags:Wolf Katy Perry JansAnimation minecraft my little pony
BeatmapID:350238
BeatmapSetID:140170

[Difficulty]
HPDrainRate:6
CircleSize:4
OverallDifficulty:7
ApproachRate:8
SliderMultiplier:2.1
SliderTickRate:2

[Events]
//Background and Video events
Video,-199,"dont mine.avi"
0,0,"BG.jpg",0,0
//Break Periods
//Storyboard Layer 0 (Background)
//Storyboard Layer 1 (Fail)
//Storyboard Layer 2 (Pass)
//Storyboard Layer 3 (Foreground)
//Storyboard Sound Samples
//Background Colour Transformations
3,100,163,162,255

[TimingPoints]
1383.85881330263,476.190476190476,4,2,0,100,1,0
8526,-100,4,2,0,50,0,0
9002,-100,4,3,0,100,0,0
9121,-100,4,2,0,90,0,0
10907,-100,4,3,0,100,0,0
11026,-100,4,2,0,90,0,0
12812,-100,4,3,0,100,0,0
12931,-100,4,2,0,90,0,0
14717,-100,4,3,0,100,0,0
14836,-100,4,2,0,90,0,0
16621,-100,4,3,0,100,0,0
16741,-100,4,2,0,90,0,0
18526,-100,4,3,0,100,0,0
18645,-100,4,2,0,90,0,0
20431,-100,4,3,0,100,0,0
20550,-100,4,2,0,90,0,0
22336,-100,4,3,0,100,0,0
22455,-100,4,2,0,90,0,0
24241,-100,4,1,0,100,0,0
24360,-100,4,2,0,100,0,0
39479,-83.3333333333333,4,2,0,80,0,1
39598,-83.3333333333333,4,2,0,80,0,1
47098,-83.3333333333333,4,1,0,80,0,1
47217,-83.3333333333333,4,2,0,80,0,1
54717,-83.3333333333333,4,1,0,80,0,1
54836,-83.3333333333333,4,2,0,80,0,1
62336,-83.3333333333333,4,1,0,80,0,1
62455,-83.3333333333333,4,2,0,80,0,1
68050,-100,4,2,0,80,0,0
69955,-83.3333333333333,4,1,0,80,0,1
70074,-83.3333333333333,4,2,0,80,0,1
75312,-83.3333333333333,4,1,0,80,0,1
75550,-83.3333333333333,4,2,0,80,0,1
77574,-83.3333333333333,4,1,0,80,0,1
77693,-83.3333333333333,4,2,0,80,0,1
83288,-100,4,2,0,90,0,0
87098,-100,4,3,0,90,0,0
87217,-100,4,2,0,90,0,0
89002,-100,4,3,0,90,0,0
89121,-100,4,2,0,90,0,0
90907,-100,4,3,0,90,0,0
91026,-100,4,2,0,90,0,0
92812,-100,4,3,0,90,0,0
92931,-100,4,2,0,90,0,0
94717,-100,4,3,0,90,0,0
94836,-100,4,2,0,90,0,0
96621,-100,4,3,0,90,0,0
96741,-100,4,2,0,90,0,0
98526,-100,4,3,0,90,0,0
98645,-100,4,2,0,90,0,0
100431,-100,4,1,0,100,0,0
100550,-100,4,2,0,100,0,0
115669,-83.3333333333333,4,1,0,100,0,1
115788,-83.3333333333333,4,2,0,100,0,1
123288,-83.3333333333333,4,1,0,100,0,1
123407,-83.3333333333333,4,2,0,100,0,1
130907,-83.3333333333333,4,1,0,100,0,1
131026,-83.3333333333333,4,2,0,100,0,1
138526,-83.3333333333333,4,1,0,100,0,1
138645,-83.3333333333333,4,2,0,100,0,1
144241,-100,4,2,0,100,0,0
146145,-100,4,1,0,100,0,0
146264,-100,4,2,0,5,0,0

[Colours]
Combo1 : 128,128,128
Combo2 : 0,128,255
Combo3 : 255,128,0
Combo4 : 236,0,0

[HitObjects]
204,192,8526,5,2,0:0:0:0:
308,192,8764,1,2,0:0:0:0:
396,248,9002,6,0,L|416:144,1,105,2|0,0:0|0:0,0:0:0:0:
336,80,9479,1,2,0:0:0:0:
236,52,9717,1,2,0:0:0:0:
140,92,9955,1,0,0:0:0:0:
40,64,10193,1,0,0:0:0:0:
44,168,10431,2,0,P|60:204|48:268,1,105
96,360,10907,6,0,P|152:352|192:324,1,105,2|0,0:0|0:0,0:0:0:0:
320,324,11383,2,0,P|363:352|415:359,1,105,0|0,0:0|0:0,0:0:0:0:
480,276,11860,1,2,0:0:0:0:
356,176,12098,2,2,P|372:192|400:208,1,52.5,2|0,0:0|0:0,0:0:0:0:
420,136,12336,2,0,P|368:100|280:188,1,210,0|2,0:0|0:0,0:0:0:0:
212,264,13050,5,0,0:0:0:0:
116,224,13288,2,0,P|72:232|32:276,2,105,0|0|2,0:0|0:0|0:0,0:0:0:0:
184,144,14002,2,2,P|192:100|236:60,1,105,0|0,0:0|0:0,0:0:0:0:
340,68,14479,1,0,0:0:0:0:
440,96,14717,6,0,L|456:200,1,105,2|0,0:0|0:0,0:0:0:0:
352,280,15193,2,0,L|336:176,1,105,0|0,0:0|0:0,0:0:0:0:
268,96,15669,2,0,B|200:120|152:68|152:68|112:88|112:136,1,210,2|2,0:0|0:0,0:0:0:0:
72,232,16383,1,2,0:0:0:0:
104,332,16621,5,2,0:0:0:0:
176,256,16860,1,0,0:0:0:0:
72,232,17098,1,0,0:0:0:0:
208,344,17336,1,0,0:0:0:0:
276,264,17574,2,0,P|324:280|376:268,1,105,2|0,0:0|0:0,0:0:0:0:
476,236,18050,2,2,L|472:288,2,52.5,2|2|0,0:0|0:0|0:0,0:0:0:0:
444,136,18526,5,2,0:0:0:0:
368,64,18764,1,0,0:0:0:0:
272,104,19002,2,0,P|240:120|176:100,1,105,2|0,0:0|0:0,0:0:0:0:
104,24,19479,2,0,P|80:80|152:196,1,210
248,240,20193,1,2,0:0:0:0:
348,212,20431,6,0,L|452:200,1,105,2|0,0:0|0:0,0:0:0:0:
384,120,20907,2,0,L|280:132,1,105,2|0,0:0|0:0,0:0:0:0:
188,184,21383,1,2,0:0:0:0:
84,172,21621,1,2,0:0:0:0:
124,268,21860,2,0,P|112:316|140:360,1,105
256,284,22336,5,2,0:0:0:0:
388,268,22574,2,0,P|400:316|372:360,2,105,2|0|0,0:0|0:0|0:0,0:0:0:0:
492,264,23288,2,0,P|464:192|344:172,1,210,2|2,0:0|0:0,0:0:0:0:
244,204,24002,1,2,0:0:0:0:
140,224,24241,6,0,B|104:208|44:232|44:232|16:184|32:124,1,210,4|0,0:0|0:0,0:0:0:0:
120,68,24955,1,0,0:0:0:0:
120,68,25193,2,2,B|220:64|220:64|272:28|324:44,1,210
292,144,25907,1,0,0:0:0:0:
452,56,26145,6,0,P|440:84|452:156,1,105,2|0,0:0|0:0,0:0:0:0:
488,252,26621,2,0,P|500:280|488:352,1,105,2|0,0:0|0:0,0:0:0:0:
364,356,27098,1,2,0:0:0:0:
256,296,27336,1,0,0:0:0:0:
148,356,27574,1,2,0:0:0:0:
24,352,27812,2,0,P|9:302|24:252,1,105
112,196,28288,5,0,0:0:0:0:
196,136,28526,2,2,L|160:36,1,105
40,120,29002,1,0,0:0:0:0:
112,196,29241,1,0,0:0:0:0:
196,136,29479,2,2,P|228:172|232:228,1,105
168,308,29955,6,0,P|228:348|328:268,1,210
428,264,30669,2,0,P|448:316|480:352,2,105,2|2|2,0:0|0:0|0:0,0:0:0:0:
420,160,31383,1,0,0:0:0:0:
340,92,31621,1,0,0:0:0:0:
236,112,31860,6,0,P|184:144|56:92,1,210,2|0,0:0|0:0,0:0:0:0:
152,56,32574,1,0,0:0:0:0:
152,56,32812,2,0,P|136:136|164:260,1,210,0|2,0:0|0:0,0:0:0:0:
240,328,33526,1,2,0:0:0:0:
340,300,33764,6,0,L|444:280,1,105
368,208,34241,2,0,L|264:188,1,105,2|0,0:0|0:0,0:0:0:0:
216,96,34717,1,2,0:0:0:0:
320,80,34955,2,0,L|372:76,2,52.5
216,96,35431,1,0,0:0:0:0:
112,80,35669,6,0,P|72:116|88:260,1,210
156,336,36383,1,0,0:0:0:0:
156,336,36621,2,0,P|240:308|356:336,1,210
456,308,37336,1,2,0:0:0:0:
368,252,37574,2,0,P|320:236|264:228,1,105
164,240,38050,5,2,0:0:0:0:
432,56,38526,1,2,0:0:0:0:
504,132,38764,1,2,0:0:0:0:
432,56,39241,2,0,P|396:72|332:76,1,105,2|4,0:0|0:0,0:0:0:0:
208,48,39717,5,0,0:0:0:0:
272,156,39955,1,8,0:0:0:0:
56,176,40193,1,0,0:0:0:0:
120,284,40431,2,0,P|164:320|232:316,1,125.999996154785
292,304,40788,1,0,0:0:0:0:
352,320,40907,2,0,P|413:324|462:287,1,125.999996154785,8|0,0:0|0:0,0:0:0:0:
468,80,41383,6,0,B|400:48|304:104|220:72,1,251.999992309571,2|8,0:0|0:0,0:0:0:0:
96,52,42098,1,0,0:0:0:0:
76,176,42336,1,2,0:0:0:0:
200,196,42574,1,2,0:0:0:0:
124,296,42812,2,0,P|160:328|236:316,1,125.999996154785,8|0,0:0|0:0,0:0:0:0:
452,356,43288,6,0,B|484:288|428:192|460:108,1,251.999992309571,2|8,0:0|0:0,0:0:0:0:
352,48,44002,1,0,0:0:0:0:
256,128,44241,1,2,0:0:0:0:
160,48,44479,1,2,0:0:0:0:
64,128,44717,2,0,P|56:196|76:248,1,125.999996154785,8|0,0:0|0:0,0:0:0:0:
160,340,45193,2,0,P|196:332|284:336,1,125.999996154785
408,340,45669,5,2,0:0:0:0:
116,64,46145,1,2,0:0:0:0:
24,148,46383,1,2,0:0:0:0:
116,64,46860,2,0,P|136:84|228:100,1,125.999996154785,2|4,0:0|0:0,0:0:0:0:
344,56,47336,5,0,0:0:0:0:
436,140,47574,2,0,P|380:184|372:236,1,125.999996154785,8|0,0:0|0:0,0:0:0:0:
320,348,48050,1,2,0:0:0:0:
192,348,48288,1,2,0:0:0:0:
256,240,48526,2,0,P|192:220|72:336,2,251.999992309571,8|0|8,0:0|0:0|0:0,0:0:0:0:
192,348,49717,1,2,0:0:0:0:
320,348,49955,2,0,P|368:312|376:248,1,125.999996154785
464,84,50431,2,0,L|476:212,2,125.999996154785,8|0|2,0:0|0:0|0:0,0:0:0:0:
32,88,51383,6,2,L|56:212,1,125.999996154785,8|0,0:0|0:0,0:0:0:0:
84,268,51741,1,0,0:0:0:0:
128,312,51860,2,2,P|184:328|248:312,1,125.999996154785
184,204,52336,2,0,P|168:132|176:80,2,125.999996154785,8|0|0,0:0|0:0|0:0,0:0:0:0:
300,248,53050,1,0,0:0:0:0:
376,148,53288,5,2,0:0:0:0:
116,312,53764,1,2,0:0:0:0:
24,228,54002,1,2,0:0:0:0:
116,312,54479,2,2,P|168:336|232:320,1,125.999996154785,2|4,0:0|0:0,0:0:0:0:
356,304,54955,5,2,0:0:0:0:
484,212,55193,2,0,P|472:144|428:112,1,125.999996154785,8|0,0:0|0:0,0:0:0:0:
368,124,55550,1,0,0:0:0:0:
308,140,55669,2,0,P|240:128|208:84,1,125.999996154785,2|0,0:0|0:0,0:0:0:0:
92,40,56145,1,8,0:0:0:0:
16,140,56383,1,0,0:0:0:0:
48,340,56621,6,0,B|116:372|212:316|296:348,1,251.999992309571,2|8,0:0|0:0,0:0:0:0:
140,268,57336,2,0,P|196:260|268:260,1,125.999996154785,0|2,0:0|0:0,0:0:0:0:
428,328,57812,1,2,0:0:0:0:
476,212,58050,2,0,P|464:164|488:92,2,125.999996154785,8|2|0,0:0|0:0|0:0,0:0:0:0:
352,232,58764,5,0,0:0:0:0:
392,112,59002,2,0,P|340:80|276:88,1,125.999996154785,8|0,0:0|0:0,0:0:0:0:
220,112,59360,1,0,0:0:0:0:
172,152,59479,2,2,P|120:184|56:176,1,125.999996154785
92,56,59955,2,0,P|120:184|192:280,1,251.999992309571,8|2,0:0|0:0,0:0:0:0:
312,320,60669,1,0,0:0:0:0:
424,264,60907,5,2,0:0:0:0:
32,144,61383,1,2,0:0:0:0:
48,268,61621,1,2,0:0:0:0:
32,144,62098,2,0,P|80:156|148:124,1,125.999996154785,2|4,0:0|0:0,0:0:0:0:
264,156,62574,5,0,0:0:0:0:
388,196,62812,2,0,P|452:192|496:236,1,125.999996154785,8|0,0:0|0:0,0:0:0:0:
396,348,63288,1,2,0:0:0:0:
256,292,63526,1,2,0:0:0:0:
116,348,63764,1,8,0:0:0:0:
144,200,64002,2,0,P|132:152|156:80,1,125.999996154785,0|2,0:0|0:0,0:0:0:0:
356,80,64479,6,0,P|378:137|367:198,2,125.999996154785,0|8|2,0:0|0:0|0:0,0:0:0:0:
256,156,65193,2,0,L|256:284,1,125.999996154785,2|0,0:0|0:0,0:0:0:0:
136,320,65669,1,2,0:0:0:0:
52,132,65907,1,2,0:0:0:0:
256,156,66145,5,6,0:0:0:0:
460,132,66383,2,0,P|480:156|476:248,1,125.999996154785,0|8,0:0|0:0,0:0:0:0:
376,320,66860,1,4,0:0:0:0:
256,360,67098,2,0,B|244:328|272:288|256:236,1,125.999996154785
240,176,67455,1,0,0:0:0:0:
180,160,67574,2,2,P|128:160|64:124,1,125.999996154785,10|2,0:0|0:0,0:0:0:0:
372,60,68050,5,2,0:0:0:0:
376,72,68526,1,2,0:0:0:0:
380,84,69002,1,2,0:0:0:0:
412,184,69241,1,2,0:0:0:0:
88,340,69717,2,0,P|124:324|188:320,1,105,2|4,0:0|0:0,0:0:0:0:
312,340,70193,5,0,0:0:0:0:
436,328,70431,2,0,L|452:268,2,62.9999980773926,8|0|0,0:0|0:0|0:0,0:0:0:0:
364,228,70907,1,0,0:0:0:0:
424,120,71145,2,0,P|384:92|308:84,1,125.999996154785,2|10,0:0|0:0,0:0:0:0:
200,148,71621,1,0,0:0:0:0:
96,76,71860,6,0,B|40:112|32:176|32:176|88:216|92:284,1,251.999992309571,2|10,0:0|0:0,0:0:0:0:
256,324,72574,1,0,0:0:0:0:
420,284,72812,2,0,B|424:216|480:176|480:176|472:112|416:76,1,251.999992309571,2|10,0:0|0:0,0:0:0:0:
256,60,73526,1,0,0:0:0:0:
192,168,73764,6,0,P|152:188|76:168,1,125.999996154785
320,168,74241,2,0,P|360:188|436:168,1,125.999996154785,8|0,0:0|0:0,0:0:0:0:
420,284,74717,2,0,P|380:304|304:284,1,125.999996154785
92,284,75193,2,0,P|132:304|208:284,1,125.999996154785,10|4,0:0|0:0,0:0:0:0:
52,176,75669,5,0,0:0:0:0:
60,164,76145,1,2,0:0:0:0:
68,152,76621,1,2,0:0:0:0:
128,40,76860,1,2,0:0:0:0:
384,60,77336,2,0,P|324:76|264:60,1,125.999996154785,2|4,0:0|0:0,0:0:0:0:
172,144,77812,6,0,P|156:192|192:256,1,125.999996154785,2|8,0:0|0:0,0:0:0:0:
304,308,78288,2,0,L|312:244,2,62.9999980773926
428,292,78764,1,0,0:0:0:0:
472,176,79002,6,0,B|432:144|412:88|412:88|328:76|308:164,1,251.999992309571,8|0,0:0|0:0,0:0:0:0:
256,276,79717,1,0,0:0:0:0:
204,164,79955,2,0,B|184:77|100:89|100:89|80:145|40:177,1,251.999992309571,8|0,0:0|0:0,0:0:0:0:
80,296,80669,2,0,P|128:328|196:336,1,125.999996154785,2|8,0:0|0:0,0:0:0:0:
432,296,81145,2,0,P|384:328|316:336,2,125.999996154785,2|2|2,0:0|0:0|0:0,0:0:0:0:
504,192,81860,6,0,P|480:148|416:112,1,125.999996154785,8|0,0:0|0:0,0:0:0:0:
332,204,82336,2,0,P|336:224|356:268,2,62.9999980773926
256,104,82812,1,8,0:0:0:0:
180,204,83050,2,0,P|176:224|156:268,2,62.9999980773926
256,304,83526,5,2,0:0:0:0:
332,204,83764,2,0,P|368:208|428:176,1,105,8|0,0:0|0:0,0:0:0:0:
400,76,84241,2,0,P|364:72|304:104,2,105,0|0|8,0:0|0:0|0:0,0:0:0:0:
428,176,84955,1,0,0:0:0:0:
396,276,85193,6,0,B|336:284|304:320|304:320|248:340|204:308,1,210,4|0,0:0|0:0,0:0:0:0:
104,276,85907,1,2,0:0:0:0:
64,180,86145,2,0,P|48:140|60:80,1,105,2|0,0:0|0:0,0:0:0:0:
100,48,86502,1,0,0:0:0:0:
152,56,86621,2,2,P|202:68|251:51,1,105
440,128,87098,6,2,P|416:76|368:56,1,105,2|2,0:0|0:0,0:0:0:0:
384,264,87574,2,2,L|372:212,1,52.5
356,140,87812,1,2,0:0:0:0:
256,108,88050,1,2,0:0:0:0:
156,140,88288,1,0,0:0:0:0:
180,40,88526,2,0,P|132:36|52:160,1,210,2|2,0:0|0:0,0:0:0:0:
100,244,89241,5,0,0:0:0:0:
144,340,89479,2,0,P|176:324|200:260,1,105
368,340,89955,2,0,P|336:324|312:260,2,105,2|0|0,0:0|0:0|0:0,0:0:0:0:
412,244,90669,1,2,0:0:0:0:
480,164,90907,2,0,B|448:136|432:76|432:76|376:48|328:80,1,210,2|0,0:0|0:0,0:0:0:0:
256,152,91621,1,0,0:0:0:0:
182,79,91860,2,0,B|136:48|80:76|80:76|64:136|32:164,1,210
24,268,92574,1,0,0:0:0:0:
104,332,92812,5,2,0:0:0:0:
204,308,93050,1,0,0:0:0:0:
308,308,93288,1,0,0:0:0:0:
408,332,93526,1,2,0:0:0:0:
436,232,93764,2,0,P|399:194|375:147,1,105,2|0,0:0|0:0,0:0:0:0:
480,136,94241,2,0,P|436:80|304:72,1,210,0|2,0:0|0:0,0:0:0:0:
256,164,94955,5,2,0:0:0:0:
216,260,95193,2,0,P|168:284|116:280,1,105
48,204,95669,2,0,P|96:180|148:184,2,105,2|0|0,0:0|0:0|0:0,0:0:0:0:
40,308,96383,1,0,0:0:0:0:
128,368,96621,6,0,B|192:368|260:340|260:340|336:340,1,210,2|0,0:0|0:0,0:0:0:0:
436,312,97336,1,0,0:0:0:0:
420,208,97574,2,0,P|408:176|428:108,1,105,2|2,0:0|0:0,0:0:0:0:
348,40,98050,2,0,L|244:32,1,105
140,52,98526,5,2,0:0:0:0:
36,36,98764,1,2,0:0:0:0:
76,132,99002,2,0,P|88:180|64:228,1,105,2|0,0:0|0:0,0:0:0:0:
56,332,99479,2,2,B|100:340|164:316|164:316|156:264|180:216,1,210
264,280,100193,1,0,0:0:0:0:
360,320,100431,6,0,P|412:340|460:224,1,210,4|0,0:0|0:0,0:0:0:0:
464,124,101145,2,0,B|424:116|424:116|380:68,1,105,0|2,0:0|0:0,0:0:0:0:
256,88,101621,1,2,0:0:0:0:
132,68,101860,2,0,B|88:116|88:116|48:124,1,105,2|0,0:0|0:0,0:0:0:0:
48,228,102336,6,0,B|104:260|112:328|112:328|160:344|196:328,1,210,2|0,0:0|0:0,0:0:0:0:
316,328,103050,2,0,B|352:344|400:328|400:328|408:260|464:228,1,210,0|0,0:0|0:0,0:0:0:0:
360,220,103764,2,0,P|396:180|440:156,1,105,2|0,0:0|0:0,0:0:0:0:
476,56,104241,6,0,P|404:76|276:40,1,210
172,52,104955,1,0,0:0:0:0:
72,84,105193,2,0,P|104:116|152:152,1,105,2|0,0:0|0:0,0:0:0:0:
72,300,105669,2,0,P|104:268|152:232,1,105,2|0,0:0|0:0,0:0:0:0:
200,324,106145,6,0,B|248:340|304:324|304:324|292:272|312:220,1,210
396,280,106860,2,0,P|436:288|476:244,1,105,2|2,0:0|0:0,0:0:0:0:
452,144,107336,1,2,0:0:0:0:
396,56,107574,2,0,P|352:48|292:56,1,105,2|2,0:0|0:0,0:0:0:0:
196,96,108050,6,0,P|128:116|28:36,2,210
128,16,109241,1,0,0:0:0:0:
128,16,109479,2,0,P|96:112|148:200,1,210,0|2,0:0|0:0,0:0:0:0:
200,292,110193,1,0,0:0:0:0:
300,256,110431,6,0,P|344:276|384:316,2,105,2|0|0,0:0|0:0|0:0,0:0:0:0:
224,184,111145,1,0,0:0:0:0:
224,184,111383,2,2,P|220:144|244:84,1,105
348,92,111860,6,0,P|400:136|472:44,2,210
60,52,113288,2,0,B|48:100|76:104|60:156,1,105
48,260,113764,2,0,P|88:268|120:320,1,105
224,328,114241,5,2,0:0:0:0:
128,44,114717,1,2,0:0:0:0:
32,84,114955,1,2,0:0:0:0:
128,44,115431,2,0,P|168:56|232:48,1,105,2|4,0:0|0:0,0:0:0:0:
356,56,115907,5,2,0:0:0:0:
468,112,116145,2,0,P|452:164|468:232,1,125.999996154785,8|0,0:0|0:0,0:0:0:0:
400,340,116621,2,0,P|340:344|280:316,1,125.999996154785,2|0,0:0|0:0,0:0:0:0:
228,284,116979,1,0,0:0:0:0:
172,256,117098,2,0,P|115:229|53:233,1,125.999996154785,8|0,0:0|0:0,0:0:0:0:
80,356,117574,2,0,P|112:232|96:108,1,251.999992309571,2|8,0:0|0:0,0:0:0:0:
208,52,118288,5,0,0:0:0:0:
328,88,118526,2,0,P|376:108|440:80,2,125.999996154785,2|2|8,0:0|0:0|0:0,0:0:0:0:
236,172,119241,1,0,0:0:0:0:
356,204,119479,2,0,P|392:256|264:312,1,251.999992309571,2|8,0:0|0:0,0:0:0:0:
144,292,120193,1,0,0:0:0:0:
40,220,120431,6,0,P|28:184|56:104,1,125.999996154785,2|2,0:0|0:0,0:0:0:0:
172,60,120907,1,8,0:0:0:0:
340,60,121145,1,2,0:0:0:0:
340,228,121383,2,0,P|276:304|172:228,1,251.999992309571,0|2,0:0|0:0,0:0:0:0:
432,72,122336,5,2,0:0:0:0:
472,192,122574,1,2,0:0:0:0:
432,72,123050,2,0,P|392:64|312:92,1,125.999996154785,2|0,0:0|0:0,0:0:0:0:
200,152,123526,5,0,0:0:0:0:
72,152,123764,2,0,P|64:256|184:320,1,251.999992309571,8|2,0:0|0:0,0:0:0:0:
256,216,124479,1,2,0:0:0:0:
332,320,124717,2,0,P|440:270|440:151,1,251.999992309571,8|0,0:0|0:0,0:0:0:0:
364,52,125431,1,0,0:0:0:0:
252,112,125669,6,0,P|216:120|136:88,1,125.999996154785,8|0,0:0|0:0,0:0:0:0:
48,176,126145,2,0,B|68:228|44:296|44:296|96:336|164:296,1,251.999992309571,2|8,0:0|0:0,0:0:0:0:
256,208,126860,1,2,0:0:0:0:
348,296,127098,2,0,B|416:336|468:296|468:296|444:228|464:176,1,251.999992309571,2|8,0:0|0:0,0:0:0:0:
424,56,127812,6,0,P|384:80|312:56,1,125.999996154785,0|2,0:0|0:0,0:0:0:0:
88,56,128288,2,0,P|128:80|200:56,1,125.999996154785,0|8,0:0|0:0,0:0:0:0:
256,168,128764,1,0,0:0:0:0:
312,280,129002,2,0,P|260:304|200:280,1,125.999996154785,2|0,0:0|0:0,0:0:0:0:
40,248,129479,5,2,0:0:0:0:
356,56,129955,1,2,0:0:0:0:
480,80,130193,1,2,0:0:0:0:
356,56,130669,2,0,P|316:68|232:56,1,125.999996154785,2|0,0:0|0:0,0:0:0:0:
108,48,131145,5,0,0:0:0:0:
44,156,131383,2,0,B|64:192|72:256|72:256|132:288|212:240,1,251.999992309571,8|2,0:0|0:0,0:0:0:0:
320,176,132098,1,2,0:0:0:0:
388,72,132336,2,0,P|420:56|504:80,2,125.999996154785,8|0|2,0:0|0:0|0:0,0:0:0:0:
320,176,133050,1,0,0:0:0:0:
424,248,133288,6,0,P|408:292|336:312,1,125.999996154785,8|2,0:0|0:0,0:0:0:0:
88,248,133764,2,0,P|104:292|176:312,2,125.999996154785,2|2|8,0:0|0:0|0:0,0:0:0:0:
128,128,134479,1,0,0:0:0:0:
212,32,134717,2,0,P|244:68|300:32,1,125.999996154785,2|0,0:0|0:0,0:0:0:0:
424,40,135193,2,0,B|468:104|400:224|440:288,1,251.999992309571,8|0,0:0|0:0,0:0:0:0:
332,352,135907,1,0,0:0:0:0:
212,316,136145,2,0,P|176:304|100:340,2,125.999996154785,8|0|2,0:0|0:0|0:0,0:0:0:0:
448,232,137098,5,2,0:0:0:0:
40,84,137574,1,2,0:0:0:0:
24,208,137812,1,2,0:0:0:0:
40,84,138288,2,0,P|80:96|160:72,1,125.999996154785,2|4,0:0|0:0,0:0:0:0:
280,40,138764,5,0,0:0:0:0:
400,72,139002,2,0,P|448:112|404:272,1,251.999992309571,8|0,0:0|0:0,0:0:0:0:
376,172,139717,2,0,P|320:204|292:256,1,125.999996154785,2|8,0:0|0:0,0:0:0:0:
232,368,140193,1,2,0:0:0:0:
60,336,140431,6,0,B|16:272|84:152|44:88,1,251.999992309571,2|8,0:0|0:0,0:0:0:0:
164,48,141145,1,2,0:0:0:0:
276,104,141383,2,0,P|300:116|392:92,2,125.999996154785,2|2|8,0:0|0:0|0:0,0:0:0:0:
168,168,142098,1,0,0:0:0:0:
56,112,142336,2,0,B|76:192|48:248|48:248|104:284|156:268,1,251.999992309571,6|8,0:0|0:0,0:0:0:0:
356,268,143050,2,0,B|408:284|464:248|464:248|436:192|456:112,1,251.999992309571,6|0,0:0|0:0,0:0:0:0:
340,64,143764,2,0,P|316:124|312:184,1,125.999996154785,8|0,0:0|0:0,0:0:0:0:
236,256,144241,2,0,L|140:304,1,105
40,292,144717,5,0,0:0:0:0:
407,159,145193,1,0,0:0:0:0:
332,56,145431,1,0,0:0:0:0:
454,96,145669,1,0,0:0:0:0:
332,135,145907,1,0,0:0:0:0:
408,30,146145,5,4,0:0:0:0:
256,192,146264,12,0,151860,0:0:0:0:
