osu file format v12

[General]
AudioFilename: Don't Mine at Night.mp3
AudioLeadIn: 0
PreviewTime: 37931
Countdown: 0
SampleSet: Soft
StackLeniency: 0.7
Mode: 0
LetterboxInBreaks: 1
WidescreenStoryboard: 1

[Editor]
Bookmarks: 8520,24235,39473,54711,69949,85187,100425,115663,130901
DistanceSpacing: 0.8
BeatDivisor: 4
GridSize: 4
TimelineZoom: 1

[Metadata]
Title:Don't Mine At Night
TitleUnicode:Don't Mine At Night
Artist:ShadyVox
ArtistUnicode:ShadyVox
Creator:ColdTooth
Version:Hard
Source:
Tags:Wolf Katy Perry JansAnimation minecraft my little pony
BeatmapID:350237
BeatmapSetID:140170

[Difficulty]
HPDrainRate:5
CircleSize:4
OverallDifficulty:5
ApproachRate:7
SliderMultiplier:1.6
SliderTickRate:2

[Events]
//Background and Video events
Video,-199,"dont mine.avi"
0,0,"BG.jpg",0,0
//Break Periods
//Storyboard Layer 0 (Background)
//Storyboard Layer 1 (Fail)
//Storyboard Layer 2 (Pass)
//Storyboard Layer 3 (Foreground)
Sprite,Foreground,Centre,"vinyl.png",320,240 L,9473,30 S,0,0,238,1.2,1 S,0,238,476,1 L,39949,30 S,0,0,238,1.2,1 S,0,238,476,1 L,70425,30 S,0,0,238,1.2,1 S,0,238,476,1 L,100901,30 S,0,0,238,1.2,1 S,0,238,476,1 L,131337,30 S,0,0,238,1.2,1 S,0,238,476,1 S,0,8520,,1 F,0,8520,8996,0,1 M,0,8520,9124,190,448,140,387 S,0,8996,9235,1.2,1 F,0,8996,23758,1 F,0,23758,24235,1,0 F,0,38996,39473,0,1 S,0,39473,39711,1.2,1 F,0,54235,54711,1,0 F,0,69473,69949,0,1 S,0,69949,70187,1.2,1 F,0,84711,85187,1,0 F,0,99949,100425,0,1 S,0,100425,100663,1.2,1 F,0,115187,115663,1,0 F,0,130425,130901,0,1 S,0,130901,131139,1.2,1 F,0,145663,146139,1,0
Sprite,Foreground,Centre,"wolf.png",320,240 L,24711,30 S,0,0,238,1.2,1 S,0,238,476,1 L,55187,30 S,0,0,238,1.2,1 S,0,238,476,1 L,85663,30 S,0,0,238,1.2,1 S,0,238,476,1 L,116139,30 S,0,0,238,1.2,1 S,0,238,476,1 M,0,23758,,474,444 S,0,23758,,1 F,0,23758,24235,0,1 S,0,24235,24473,1.2,1 F,0,24235,38996,1 F,0,38996,39473,1,0 F,0,54235,54711,0,1 S,0,54711,54949,1.2,1 F,0,69473,69949,1,0 F,0,84711,85187,0,1 S,0,85187,85425,1.2,1 F,0,99949,100425,1,0 F,0,115187,115663,0,1 S,0,115663,115901,1.2,1 F,0,130425,130901,1,0
//Storyboard Sound Samples
//Background Colour Transformations
3,100,163,162,255

[TimingPoints]
1383.85881330263,476.190476190476,4,2,0,100,1,0
8526,-100,4,2,0,50,0,0
9002,-100,4,3,0,100,0,0
9121,-100,4,2,0,90,0,0
10907,-100,4,3,0,100,0,0
11026,-100,4,2,0,90,0,0
12812,-100,4,3,0,100,0,0
12931,-100,4,2,0,90,0,0
14717,-100,4,3,0,100,0,0
14836,-100,4,2,0,90,0,0
16621,-100,4,3,0,100,0,0
16741,-100,4,2,0,90,0,0
18526,-100,4,3,0,100,0,0
18645,-100,4,2,0,90,0,0
20431,-100,4,3,0,100,0,0
20550,-100,4,2,0,90,0,0
22336,-100,4,3,0,100,0,0
22455,-100,4,2,0,90,0,0
24241,-100,4,1,0,100,0,0
24360,-100,4,2,0,100,0,0
39479,-100,4,2,0,80,0,1
39598,-100,4,2,0,80,0,1
47098,-100,4,1,0,80,0,1
47217,-100,4,2,0,80,0,1
54717,-100,4,1,0,80,0,1
54836,-100,4,2,0,80,0,1
62336,-100,4,1,0,80,0,1
62455,-100,4,2,0,80,0,1
68050,-100,4,2,0,80,0,0
69955,-100,4,1,0,80,0,1
70074,-100,4,2,0,80,0,1
75312,-100,4,1,0,80,0,1
75550,-100,4,2,0,80,0,1
77574,-100,4,1,0,80,0,1
77693,-100,4,2,0,80,0,1
83288,-100,4,2,0,90,0,0
87098,-100,4,3,0,90,0,0
87217,-100,4,2,0,90,0,0
89002,-100,4,3,0,90,0,0
89121,-100,4,2,0,90,0,0
90907,-100,4,3,0,90,0,0
91026,-100,4,2,0,90,0,0
92812,-100,4,3,0,90,0,0
92931,-100,4,2,0,90,0,0
94717,-100,4,3,0,90,0,0
94836,-100,4,2,0,90,0,0
96621,-100,4,3,0,90,0,0
96741,-100,4,2,0,90,0,0
98526,-100,4,3,0,90,0,0
98645,-100,4,2,0,90,0,0
100431,-100,4,1,0,100,0,0
100550,-100,4,2,0,100,0,0
115669,-100,4,1,0,100,0,1
115788,-100,4,2,0,100,0,1
123288,-100,4,1,0,100,0,1
123407,-100,4,2,0,100,0,1
130907,-100,4,1,0,100,0,1
131026,-100,4,2,0,100,0,1
138526,-100,4,1,0,100,0,1
138645,-83.3333333333333,4,2,0,100,0,1
144241,-100,4,2,0,100,0,0
146145,-100,4,1,0,100,0,0
146264,-100,4,2,0,100,0,0

[Colours]
Combo1 : 128,128,128
Combo2 : 0,128,255
Combo3 : 255,128,0
Combo4 : 236,0,0

[HitObjects]
88,68,8526,6,2,P|80:112|80:148,1,80
16,196,9002,6,0,P|52:228|148:192,1,160,2|0,0:0|0:0,0:0:0:0:
216,152,9717,1,0,0:0:0:0:
284,108,9955,2,0,P|328:92|360:96,1,80,2|0,0:0|0:0,0:0:0:0:
440,104,10431,2,0,B|456:168|440:204|448:264,1,160,0|2,0:0|0:0,0:0:0:0:
416,336,11145,5,0,0:0:0:0:
336,336,11383,2,0,P|304:328|256:336,1,80
180,348,11860,1,2,0:0:0:0:
104,324,12098,1,2,0:0:0:0:
104,324,12812,6,0,P|88:272|104:168,1,160,2|0,0:0|0:0,0:0:0:0:
176,136,13526,1,0,0:0:0:0:
244,176,13764,2,0,P|264:184|320:176,2,80,2|0|0,0:0|0:0|0:0,0:0:0:0:
280,104,14479,1,2,0:0:0:0:
212,64,14717,6,0,P|152:48|96:116,1,160,2|0,0:0|0:0,0:0:0:0:
92,196,15431,1,0,0:0:0:0:
60,268,15669,2,0,B|52:312|72:348|72:348|112:332|148:340,1,160,2|0,0:0|0:0,0:0:0:0:
228,336,16383,1,0,0:0:0:0:
304,312,16621,6,0,L|384:300,1,80,2|0,0:0|0:0,0:0:0:0:
460,324,17098,2,0,P|464:280|448:248,1,80
392,192,17574,1,2,0:0:0:0:
316,168,17812,1,2,0:0:0:0:
252,120,18050,2,0,L|212:108,2,40
244,200,18526,6,0,P|224:264|140:276,1,160,2|0,0:0|0:0,0:0:0:0:
164,200,19241,2,0,P|120:200|88:216,2,80
200,272,19955,1,2,0:0:0:0:
264,320,20193,1,2,0:0:0:0:
344,324,20431,6,0,P|384:336|464:264,1,160,2|0,0:0|0:0,0:0:0:0:
384,256,21145,1,0,0:0:0:0:
308,232,21383,2,0,P|300:192|304:152,1,80,2|0,0:0|0:0,0:0:0:0:
360,96,21860,2,0,P|392:100|436:84,2,80,0|0|2,0:0|0:0|0:0,0:0:0:0:
284,72,22574,5,0,0:0:0:0:
208,96,22812,1,0,0:0:0:0:
132,72,23050,1,0,0:0:0:0:
56,96,23288,2,0,B|40:144|48:188|48:188|84:180|116:196,1,160,2|2,0:0|0:0,0:0:0:0:
188,220,24002,1,2,0:0:0:0:
264,196,24241,6,0,P|253:271|180:300,1,160,4|0,0:0|0:0,0:0:0:0:
120,256,24955,1,0,0:0:0:0:
188,220,25193,2,0,P|152:184|88:184,1,80,2|0,0:0|0:0,0:0:0:0:
120,256,25669,2,0,P|160:296|188:300,1,80,2|0,0:0|0:0,0:0:0:0:
256,268,26145,2,0,P|328:248|416:276,1,160,2|0,0:0|0:0,0:0:0:0:
488,276,26860,2,0,P|476:228|452:204,1,80,0|2,0:0|0:0,0:0:0:0:
408,140,27336,2,0,P|384:92|396:52,1,80,0|2,0:0|0:0,0:0:0:0:
464,84,27812,1,0,0:0:0:0:
408,140,28050,6,0,P|356:160|288:268,1,160,0|2,0:0|0:0,0:0:0:0:
232,292,28764,1,0,0:0:0:0:
152,296,29002,1,0,0:0:0:0:
100,232,29241,1,0,0:0:0:0:
136,160,29479,2,0,P|172:128|180:88,1,80,2|0,0:0|0:0,0:0:0:0:
100,84,29955,2,0,L|248:188,1,160,0|2,0:0|0:0,0:0:0:0:
308,160,30669,1,0,0:0:0:0:
340,232,30907,1,2,0:0:0:0:
292,296,31145,1,0,0:0:0:0:
212,280,31383,2,0,P|168:232|148:220,1,80,2|0,0:0|0:0,0:0:0:0:
76,208,31860,6,0,P|116:156|212:168,1,160,0|2,0:0|0:0,0:0:0:0:
268,208,32574,2,0,P|368:208|412:88,1,240,0|2,0:0|0:0,0:0:0:0:
348,48,33526,1,0,0:0:0:0:
268,48,33764,2,0,P|188:60|108:48,1,160,0|0,0:0|0:0,0:0:0:0:
40,88,34479,1,0,0:0:0:0:
40,88,34717,2,0,P|32:128|40:168,1,80,2|0,0:0|0:0,0:0:0:0:
116,184,35193,2,0,P|164:204|184:240,1,80,2|0,0:0|0:0,0:0:0:0:
112,260,35669,6,0,B|144:328|144:328|200:344|244:304,1,160,2|0,0:0|0:0,0:0:0:0:
284,260,36383,2,0,P|332:264|360:288,1,80
428,316,36860,1,2,0:0:0:0:
420,236,37098,2,0,P|356:188|260:184,1,160,0|2,0:0|0:0,0:0:0:0:
212,224,37812,1,2,0:0:0:0:
184,300,38050,2,0,P|132:236|180:152,1,160,2|2,0:0|0:0,0:0:0:0:
224,128,38764,2,0,L|304:128,1,80,2|2,0:0|0:0,0:0:0:0:
380,104,39241,1,2,0:0:0:0:
444,60,39479,6,0,P|448:136|384:184,2,160,4|8|2,0:0|0:0|0:0,0:0:0:0:
380,104,40669,1,2,0:0:0:0:
312,64,40907,2,0,L|232:56,1,80,8|0,0:0|0:0,0:0:0:0:
240,136,41383,2,0,P|180:148|144:232,2,160,2|8|2,0:0|0:0|0:0,0:0:0:0:
220,212,42574,1,2,0:0:0:0:
268,276,42812,2,0,P|264:304|232:344,2,80,8|0|2,0:0|0:0|0:0,0:0:0:0:
424,312,43764,6,0,B|396:268|448:200|420:156,1,160,8|0,0:0|0:0,0:0:0:0:
352,116,44479,2,0,P|336:116|284:84,1,80,0|8,0:0|0:0,0:0:0:0:
212,48,44955,1,2,0:0:0:0:
140,80,45193,2,0,P|124:132|32:124,2,160,2|8|0,0:0|0:0|0:0,0:0:0:0:
212,48,46383,1,2,0:0:0:0:
288,72,46621,2,0,P|304:88|428:68,1,160,8|4,0:0|0:0,0:0:0:0:
356,32,47336,5,0,0:0:0:0:
356,32,47574,2,0,P|348:92|396:176,2,160,8|2|8,0:0|0:0|0:0,0:0:0:0:
424,72,48764,1,0,0:0:0:0:
472,136,49002,2,0,P|456:224|400:260,1,160,2|8,0:0|0:0,0:0:0:0:
328,296,49717,1,0,0:0:0:0:
252,320,49955,2,0,L|172:324,2,80,2|0|8,0:0|0:0|0:0,0:0:0:0:
328,296,50669,1,0,0:0:0:0:
268,240,50907,6,0,P|248:200|144:192,1,160,2|8,0:0|0:0,0:0:0:0:
80,240,51621,1,0,0:0:0:0:
36,172,51860,2,0,P|32:144|40:92,1,80,2|0,0:0|0:0,0:0:0:0:
112,60,52336,2,0,P|140:64|192:56,1,80,8|0,0:0|0:0,0:0:0:0:
268,40,52812,5,2,0:0:0:0:
424,64,53288,2,0,P|400:104|456:188,1,160,8|2,0:0|0:0,0:0:0:0:
396,240,54002,2,0,P|356:208|340:180,1,80,0|8,0:0|0:0,0:0:0:0:
288,124,54479,1,2,0:0:0:0:
244,60,54717,6,0,P|216:92|212:132,1,80
248,200,55193,2,0,L|248:300,2,80,8|0|2,0:0|0:0|0:0,0:0:0:0:
212,128,55907,1,0,0:0:0:0:
152,180,56145,2,0,P|116:212|88:224,1,80,8|0,0:0|0:0,0:0:0:0:
48,156,56621,2,0,P|8:228|60:296,1,160,2|8,0:0|0:0,0:0:0:0:
116,320,57336,2,0,P|156:320|192:344,1,80,0|2,0:0|0:0,0:0:0:0:
244,284,57812,1,2,0:0:0:0:
320,260,58050,1,8,0:0:0:0:
300,336,58288,1,0,0:0:0:0:
244,284,58526,6,0,P|242:236|274:196,1,80,2|0,0:0|0:0,0:0:0:0:
333,183,59002,2,0,L|417:182,2,80,8|0|2,0:0|0:0|0:0,0:0:0:0:
272,129,59717,1,2,0:0:0:0:
196,152,59955,2,0,L|100:152,1,80,8|0,0:0|0:0,0:0:0:0:
64,92,60431,2,0,P|36:160|96:232,2,160,2|8|2,0:0|0:0|0:0,0:0:0:0:
144,92,61621,1,2,0:0:0:0:
216,56,61860,1,8,0:0:0:0:
344,156,62336,5,4,0:0:0:0:
272,192,62574,1,0,0:0:0:0:
256,272,62812,2,0,L|256:368,2,80,8|0|2,0:0|0:0|0:0,0:0:0:0:
272,192,63526,1,0,0:0:0:0:
340,236,63764,2,0,P|380:228|416:184,1,80,8|0,0:0|0:0,0:0:0:0:
344,156,64241,2,0,P|272:112|198:154,1,160,2|8,0:0|0:0,0:0:0:0:
192,220,64955,2,0,P|128:248|104:248,2,80,0|2|0,0:0|0:0|0:0,0:0:0:0:
208,140,65669,2,0,L|208:40,1,80,8|0,0:0|0:0,0:0:0:0:
287,60,66145,6,0,P|311:140|285:214,1,160,6|8,0:0|0:0,0:0:0:0:
292,292,66860,2,0,P|366:317|440:292,1,160,6|0,0:0|0:0,0:0:0:0:
468,216,67574,2,0,L|468:117,1,80,8|0,0:0|0:0,0:0:0:0:
436,60,68050,2,0,P|363:35|281:66,1,160,2|0,0:0|0:0,0:0:0:0:
268,140,68764,2,0,P|160:156|88:124,1,160,2|0,0:0|0:0,0:0:0:0:
80,68,69479,1,0,0:0:0:0:
28,216,69955,6,0,P|52:232|104:232,1,80,4|0,0:0|0:0,0:0:0:0:
176,204,70431,2,0,P|200:188|252:188,1,80,8|0,0:0|0:0,0:0:0:0:
320,224,70907,2,0,P|312:264|324:300,2,80,0|2|8,0:0|0:0|0:0,0:0:0:0:
392,256,71621,1,2,0:0:0:0:
448,312,71860,6,0,P|468:264|412:180,1,160,0|8,0:0|0:0,0:0:0:0:
336,160,72574,1,0,0:0:0:0:
256,164,72812,2,0,P|212:168|148:84,2,160,0|8|2,0:0|0:0|0:0,0:0:0:0:
228,88,74002,5,0,0:0:0:0:
228,88,74241,2,0,P|184:148|208:224,1,160,8|0,0:0|0:0,0:0:0:0:
264,280,74955,2,0,L|344:304,1,80,0|8,0:0|0:0,0:0:0:0:
408,260,75431,1,4,0:0:0:0:
432,184,75669,6,0,P|400:144|444:56,2,160,0|2|2,0:0|0:0|0:0,0:0:0:0:
408,260,76860,1,2,0:0:0:0:
264,332,77336,1,0,0:0:0:0:
184,324,77574,6,0,L|104:308,1,80,4|0,0:0|0:0,0:0:0:0:
128,232,78050,2,0,L|76:172,1,80,8|0,0:0|0:0,0:0:0:0:
148,140,78526,2,0,L|132:60,2,80,0|2|8,0:0|0:0|0:0,0:0:0:0:
200,200,79241,1,2,0:0:0:0:
224,276,79479,6,0,P|252:312|348:284,1,160,0|8,0:0|0:0,0:0:0:0:
384,212,80193,2,0,P|396:184|436:156,1,80
456,80,80669,1,0,0:0:0:0:
456,80,80907,2,0,L|376:60,1,80,8|0,0:0|0:0,0:0:0:0:
304,84,81383,6,0,P|264:108|164:72,1,160,2|8,0:0|0:0,0:0:0:0:
84,72,82098,1,0,0:0:0:0:
84,72,82336,2,0,L|64:152,1,80
56,228,82812,2,0,P|52:272|64:304,1,80,8|0,0:0|0:0,0:0:0:0:
132,260,83288,5,0,0:0:0:0:
200,300,83526,2,0,L|280:284,1,80,0|8,0:0|0:0,0:0:0:0:
344,240,84002,1,0,0:0:0:0:
416,272,84241,2,0,P|432:232|424:116,1,160,0|8,0:0|0:0,0:0:0:0:
376,56,84955,1,2,0:0:0:0:
296,72,85193,6,0,P|216:88|132:68,1,160,4|0,0:0|0:0,0:0:0:0:
88,132,85907,2,0,L|88:232,1,80,0|2,0:0|0:0,0:0:0:0:
160,248,86383,1,0,0:0:0:0:
240,232,86621,1,2,0:0:0:0:
216,308,86860,1,0,0:0:0:0:
160,248,87098,2,0,P|164:198|210:160,1,80,2|0,0:0|0:0,0:0:0:0:
258,154,87574,2,0,P|293:171|313:205,2,80,2|2|2,0:0|0:0|0:0,0:0:0:0:
296,308,88526,2,0,L|380:308,1,80,2|0,0:0|0:0,0:0:0:0:
448,272,89002,6,0,P|440:232|452:180,1,80,2|0,0:0|0:0,0:0:0:0:
448,112,89479,2,0,P|456:72|444:20,1,80,2|0,0:0|0:0,0:0:0:0:
376,68,89955,2,0,P|336:76|296:68,2,80,0|0|2,0:0|0:0|0:0,0:0:0:0:
292,208,90907,2,0,P|272:284|292:364,1,160,2|0,0:0|0:0,0:0:0:0:
372,368,91621,1,0,0:0:0:0:
452,364,91860,2,0,P|470:287|450:210,1,160,2|2,0:0|0:0,0:0:0:0:
372,208,92574,1,0,0:0:0:0:
292,208,92812,6,0,L|184:208,1,80,2|0,0:0|0:0,0:0:0:0:
160,268,93288,2,0,P|132:200|184:132,2,160,0|2|2,0:0|0:0|0:0,0:0:0:0:
240,268,94479,1,0,0:0:0:0:
316,288,94717,2,0,L|420:336,1,80,2|0,0:0|0:0,0:0:0:0:
416,244,95193,2,0,L|343:210,2,80,2|2|2,0:0|0:0|0:0,0:0:0:0:
468,308,95907,1,0,0:0:0:0:
468,308,96145,1,0,0:0:0:0:
452,148,96621,6,0,P|413:137|362:157,1,80,2|0,0:0|0:0,0:0:0:0:
296,148,97098,2,0,P|256:156|216:147,1,80
136,146,97574,2,0,P|97:137|60:148,2,80,2|0|2,0:0|0:0|0:0,0:0:0:0:
172,220,98288,1,0,0:0:0:0:
172,220,98526,2,0,P|219:222|298:133,1,160,2|0,0:0|0:0,0:0:0:0:
350,89,99241,1,0,0:0:0:0:
350,89,99479,2,2,P|268:72|216:140,1,160
68,168,100431,6,0,P|72:208|64:248,2,80,4|0|2,0:0|0:0|0:0,0:0:0:0:
88,92,101145,1,0,0:0:0:0:
164,112,101383,2,0,P|208:128|312:92,2,160,2|2|2,0:0|0:0|0:0,0:0:0:0:
56,228,102812,1,0,0:0:0:0:
156,352,103288,1,2,0:0:0:0:
308,316,103764,2,0,P|344:296|384:296,1,80
456,328,104241,6,0,P|464:260|448:168,1,160,2|0,0:0|0:0,0:0:0:0:
404,104,104955,2,0,P|360:128|256:104,1,160
184,76,105669,2,0,L|104:72,1,80,2|0,0:0|0:0,0:0:0:0:
40,120,106145,2,0,P|52:160|32:276,2,160,2|0|0,0:0|0:0|0:0,0:0:0:0:
196,96,107574,1,0,0:0:0:0:
272,120,107812,1,0,0:0:0:0:
352,116,108050,6,0,P|392:116|448:208,1,160,2|0,0:0|0:0,0:0:0:0:
412,280,108764,1,0,0:0:0:0:
348,328,109002,2,0,L|268:340,1,80,2|0,0:0|0:0,0:0:0:0:
192,316,109479,2,0,P|160:296|116:296,1,80
40,304,109955,6,0,L|36:144,1,160,2|0,0:0|0:0,0:0:0:0:
60,68,110669,1,0,0:0:0:0:
112,128,110907,2,0,P|140:136|192:128,1,80,2|0,0:0|0:0,0:0:0:0:
260,92,111383,1,0,0:0:0:0:
336,120,111621,1,0,0:0:0:0:
392,64,111860,6,0,P|416:124|356:196,1,160,2|0,0:0|0:0,0:0:0:0:
292,232,112574,2,0,P|256:248|228:280,1,80
180,340,113050,1,0,0:0:0:0:
100,336,113288,2,0,P|60:308|44:204,2,160
256,308,114717,2,0,P|292:288|308:252,1,80,2|2,0:0|0:0,0:0:0:0:
256,104,115431,1,2,0:0:0:0:
256,104,115669,5,4,0:0:0:0:
328,68,115907,1,0,0:0:0:0:
396,112,116145,2,0,P|432:140|464:152,1,80,8|0,0:0|0:0,0:0:0:0:
463,232,116621,2,0,P|426:246|396:272,1,80,2|0,0:0|0:0,0:0:0:0:
316,276,117098,2,0,P|276:272|212:280,1,80,8|0,0:0|0:0,0:0:0:0:
180,332,117574,2,0,P|156:276|208:200,1,160,2|8,0:0|0:0,0:0:0:0:
280,172,118288,1,2,0:0:0:0:
348,128,118526,2,0,L|348:40,2,80,2|0|8,0:0|0:0|0:0,0:0:0:0:
280,172,119241,1,0,0:0:0:0:
352,212,119479,6,0,P|400:192|420:88,1,160,2|8,0:0|0:0,0:0:0:0:
360,48,120193,1,0,0:0:0:0:
280,48,120431,2,0,L|188:48,2,80,2|0|8,0:0|0:0|0:0,0:0:0:0:
360,48,121145,1,0,0:0:0:0:
424,96,121383,1,0,0:0:0:0:
328,224,121860,2,0,P|272:264|164:264,1,160,8|2,0:0|0:0,0:0:0:0:
108,240,122574,2,0,P|92:184|48:160,1,80,0|8,0:0|0:0,0:0:0:0:
100,96,123050,1,2,0:0:0:0:
168,136,123288,5,4,0:0:0:0:
236,96,123526,2,0,P|248:140|236:180,1,80,2|8,0:0|0:0,0:0:0:0:
236,252,124002,2,0,P|228:296|256:348,2,80,0|2|2,0:0|0:0|0:0,0:0:0:0:
308,216,124717,2,0,L|392:216,1,80,8|0,0:0|0:0,0:0:0:0:
436,280,125193,2,0,P|464:212|404:136,1,160,0|8,0:0|0:0,0:0:0:0:
360,92,125907,1,0,0:0:0:0:
284,120,126145,2,0,L|176:120,1,80,2|0,0:0|0:0,0:0:0:0:
136,160,126621,2,0,L|36:160,1,80,8|0,0:0|0:0,0:0:0:0:
56,240,127098,6,0,P|64:328|120:372,1,160,2|8,0:0|0:0,0:0:0:0:
188,332,127812,1,2,0:0:0:0:
236,268,128050,2,0,P|264:308|268:348,2,80,0|0|8,0:0|0:0|0:0,0:0:0:0:
216,192,128764,1,0,0:0:0:0:
148,148,129002,2,0,P|208:112|288:156,1,160,2|0,0:0|0:0,0:0:0:0:
304,224,129717,2,0,P|384:240|476:216,1,160,0|2,0:0|0:0,0:0:0:0:
500,156,130431,1,0,0:0:0:0:
380,52,130907,6,0,P|356:64|304:60,1,80,4|0,0:0|0:0,0:0:0:0:
228,40,131383,2,0,P|188:33|152:48,1,80,8|0,0:0|0:0,0:0:0:0:
120,120,131860,2,0,P|144:156|104:256,1,160,2|8,0:0|0:0,0:0:0:0:
72,184,132574,1,2,0:0:0:0:
72,184,132812,2,0,P|136:192|196:124,1,160,2|8,0:0|0:0,0:0:0:0:
256,72,133526,2,0,P|288:52|332:52,1,80,0|2,0:0|0:0,0:0:0:0:
312,128,134002,1,2,0:0:0:0:
276,200,134241,2,0,P|312:208|356:196,2,80,8|0|0,0:0|0:0|0:0,0:0:0:0:
196,192,134955,5,0,0:0:0:0:
140,136,135193,2,0,P|88:136|60:228,1,160,8|2,0:0|0:0,0:0:0:0:
108,288,135907,1,2,0:0:0:0:
176,328,136145,2,0,P|208:316|256:320,1,80,2|0,0:0|0:0,0:0:0:0:
320,364,136621,2,0,P|376:348|424:264,1,160,0|0,0:0|0:0,0:0:0:0:
400,188,137336,2,0,P|392:148|400:108,1,80
468,148,137812,1,2,0:0:0:0:
316,192,138288,2,0,P|308:152|316:112,1,80,2|4,0:0|0:0,0:0:0:0:
248,48,138764,5,0,0:0:0:0:
168,100,139002,2,0,P|128:128|24:60,2,191.999994140625,8|0|8,0:0|0:0|0:0,0:0:0:0:
248,48,140193,2,0,P|292:40|344:44,1,95.9999970703126,0|2,0:0|0:0,0:0:0:0:
432,80,140669,1,0,0:0:0:0:
356,140,140907,2,0,P|340:192|400:308,2,191.999994140625,8|0|8,0:0|0:0|0:0,0:0:0:0:
296,64,142098,1,0,0:0:0:0:
208,100,142336,6,0,B|156:120|68:88|68:88|40:156|68:228,2,287.999991210938,6|6|8,0:0|0:0|0:0,0:0:0:0:
300,80,144002,2,0,L|396:92,1,95.9999970703126
476,88,144479,5,0,0:0:0:0:
440,160,144717,1,8,0:0:0:0:
376,304,145193,1,0,0:0:0:0:
300,280,145431,1,0,0:0:0:0:
220,272,145669,2,0,P|224:304|260:352,1,80
300,280,146145,5,4,0:0:0:0:
256,192,146264,12,0,151860,0:0:0:0:
