osu file format v12

[General]
AudioFilename: Don't Mine at Night.mp3
AudioLeadIn: 0
PreviewTime: 37931
Countdown: 0
SampleSet: Soft
StackLeniency: 0.7
Mode: 0
LetterboxInBreaks: 1
WidescreenStoryboard: 1

[Editor]
Bookmarks: 8520,24235,39473,54711,69949,85187,100425,115663,130901
DistanceSpacing: 0.8
BeatDivisor: 4
GridSize: 4
TimelineZoom: 1

[Metadata]
Title:Don't Mine At Night
TitleUnicode:Don't Mine At Night
Artist:ShadyVox
ArtistUnicode:ShadyVox
Creator:ColdTooth
Version:Easy
Source:
Tags:Wolf Katy Perry JansAnimation minecraft my little pony
BeatmapID:350236
BeatmapSetID:140170

[Difficulty]
HPDrainRate:2
CircleSize:3
OverallDifficulty:2
ApproachRate:3
SliderMultiplier:1
SliderTickRate:2

[Events]
//Background and Video events
Video,-199,"dont mine.avi"
0,0,"BG.jpg",0,0
//Break Periods
//Storyboard Layer 0 (Background)
//Storyboard Layer 1 (Fail)
//Storyboard Layer 2 (Pass)
//Storyboard Layer 3 (Foreground)
Sprite,Foreground,Centre,"vinyl.png",320,240 L,9473,30 S,0,0,238,1.2,1 S,0,238,476,1 L,39949,30 S,0,0,238,1.2,1 S,0,238,476,1 L,70425,30 S,0,0,238,1.2,1 S,0,238,476,1 L,100901,30 S,0,0,238,1.2,1 S,0,238,476,1 L,131337,30 S,0,0,238,1.2,1 S,0,238,476,1 S,0,8520,,1 M,0,8520,8764,190,448,124,379 F,0,8520,8996,0,1 S,0,8996,9235,1.2,1 F,0,8996,23758,1 F,0,23758,24235,1,0 F,0,38996,39473,0,1 S,0,39473,39711,1.2,1 F,0,54235,54711,1,0 F,0,69473,69949,0,1 S,0,69949,70187,1.2,1 F,0,84711,85187,1,0 F,0,99949,100425,0,1 S,0,100425,100663,1.2,1 F,0,115187,115663,1,0 F,0,130425,130901,0,1 S,0,130901,131139,1.2,1 F,0,145663,146139,1,0
Sprite,Foreground,Centre,"wolf.png",320,240 L,24711,30 S,0,0,238,1.2,1 S,0,238,476,1 L,55187,30 S,0,0,238,1.2,1 S,0,238,476,1 L,85663,30 S,0,0,238,1.2,1 S,0,238,476,1 L,116139,30 S,0,0,238,1.2,1 S,0,238,476,1 M,0,23758,,474,444 S,0,23758,,1 F,0,23758,24235,0,1 S,0,24235,24473,1.2,1 F,0,24235,38996,1 F,0,38996,39473,1,0 F,0,54235,54711,0,1 S,0,54711,54949,1.2,1 F,0,69473,69949,1,0 F,0,84711,85187,0,1 S,0,85187,85425,1.2,1 F,0,99949,100425,1,0 F,0,115187,115663,0,1 S,0,115663,115901,1.2,1 F,0,130425,130901,1,0
//Storyboard Sound Samples
//Background Colour Transformations
3,100,163,162,255

[TimingPoints]
1383.85881330263,476.190476190476,4,2,0,100,1,0
8526,-100,4,2,0,50,0,0
9002,-100,4,3,0,100,0,0
9121,-100,4,2,0,90,0,0
10907,-100,4,3,0,100,0,0
11026,-100,4,2,0,90,0,0
12812,-100,4,3,0,100,0,0
12931,-100,4,2,0,90,0,0
14717,-100,4,3,0,100,0,0
14836,-100,4,2,0,90,0,0
16621,-100,4,3,0,100,0,0
16741,-100,4,2,0,90,0,0
18526,-100,4,3,0,100,0,0
18645,-100,4,2,0,90,0,0
20431,-100,4,3,0,100,0,0
20550,-100,4,2,0,90,0,0
22336,-100,4,3,0,100,0,0
22455,-100,4,2,0,90,0,0
24241,-100,4,1,0,100,0,0
24360,-100,4,2,0,100,0,0
39479,-100,4,2,0,80,0,1
39598,-100,4,2,0,80,0,1
47098,-100,4,1,0,80,0,1
47217,-100,4,2,0,80,0,1
54717,-100,4,1,0,80,0,1
54836,-100,4,2,0,80,0,1
62336,-100,4,1,0,80,0,1
62455,-100,4,2,0,80,0,1
68050,-100,4,2,0,100,0,0
69955,-100,4,1,0,100,0,1
70074,-100,4,2,0,100,0,1
77574,-100,4,1,0,100,0,1
77693,-100,4,2,0,100,0,1
83288,-100,4,2,0,90,0,0
87098,-100,4,3,0,90,0,0
87217,-100,4,2,0,90,0,0
89002,-100,4,3,0,90,0,0
89121,-100,4,2,0,90,0,0
90907,-100,4,3,0,90,0,0
91026,-100,4,2,0,90,0,0
92812,-100,4,3,0,90,0,0
92931,-100,4,2,0,90,0,0
94717,-100,4,3,0,90,0,0
94836,-100,4,2,0,90,0,0
96621,-100,4,3,0,90,0,0
96741,-100,4,2,0,90,0,0
98526,-100,4,3,0,90,0,0
98645,-100,4,2,0,90,0,0
100431,-100,4,1,0,100,0,0
100550,-100,4,2,0,100,0,0
115669,-100,4,1,0,100,0,1
115788,-100,4,2,0,100,0,1
123288,-100,4,1,0,100,0,1
123407,-100,4,2,0,100,0,1
130907,-100,4,1,0,100,0,1
131026,-100,4,2,0,100,0,1
138526,-100,4,1,0,100,0,1
138645,-100,4,2,0,100,0,1
144241,-100,4,2,0,100,0,0
146145,-100,4,1,0,100,0,0
146264,-100,4,2,0,100,0,0

[Colours]
Combo1 : 128,128,128
Combo2 : 0,128,255
Combo3 : 255,128,0
Combo4 : 236,0,0

[HitObjects]
96,168,8526,5,0,0:0:0:0:
88,252,9002,2,0,P|104:252|172:206,1,100,2|0,0:0|0:0,0:0:0:0:
184,124,9955,1,2,0:0:0:0:
264,96,10431,2,0,P|300:88|364:96,1,100,0|2,0:0|0:0,0:0:0:0:
432,144,11383,5,0,0:0:0:0:
444,228,11860,2,0,L|432:280,1,50,2|2,0:0|0:0,0:0:0:0:
336,360,12812,6,0,P|292:344|140:352,1,200,2|2,0:0|0:0,0:0:0:0:
56,348,14241,1,0,0:0:0:0:
28,268,14717,2,0,B|56:220|36:160|36:160|64:128|120:124,1,200,2|2,0:0|0:0,0:0:0:0:
198,110,16145,1,0,0:0:0:0:
264,164,16621,6,0,P|312:172|360:152,2,100,2|0|2,0:0|0:0|0:0,0:0:0:0:
200,220,18050,2,0,L|172:264,2,50,2|0|2,0:0|0:0|0:0,0:0:0:0:
188,136,19002,1,0,0:0:0:0:
244,72,19479,2,0,P|272:56|340:56,1,100,0|2,0:0|0:0,0:0:0:0:
420,80,20431,6,0,P|448:120|408:256,1,200,2|0,0:0|0:0,0:0:0:0:
328,276,21860,1,2,0:0:0:0:
244,264,22336,6,0,P|220:260|160:300,2,100,2|0|0,0:0|0:0|0:0,0:0:0:0:
328,276,23764,1,2,0:0:0:0:
388,336,24241,6,0,P|412:280|400:232,1,100,4|0,0:0|0:0,0:0:0:0:
339,190,25193,2,0,P|284:200|248:240,1,100,2|0,0:0|0:0,0:0:0:0:
200,296,26145,2,0,P|168:332|109:346,2,100,0|2|0,0:0|0:0|0:0,0:0:0:0:
171,217,27574,1,2,0:0:0:0:
133,141,28050,6,0,P|203:137|254:197,2,150,2|0|0,0:0|0:0|0:0,0:0:0:0:
171,217,29955,2,0,P|239:276|314:133,1,300
242,102,31860,6,0,P|278:64|325:55,2,100,2|2|0,0:0|0:0|0:0,0:0:0:0:
318,138,33288,1,0,0:0:0:0:
373,204,33764,2,0,P|359:267|321:299,2,100,2|0|2,0:0|0:0|0:0,0:0:0:0:
318,138,35193,1,2,0:0:0:0:
287,217,35669,6,0,P|193:247|99:217,1,200
79,135,37098,1,0,0:0:0:0:
146,83,37574,2,0,P|194:71|242:84,1,100,0|2,0:0|0:0,0:0:0:0:
297,149,38526,2,0,P|323:168|361:182,2,50,2|2|0,0:0|0:0|0:0,0:0:0:0:
212,164,39479,6,0,P|188:184|120:192,1,100,4|8,0:0|0:0,0:0:0:0:
52,144,40431,2,0,P|40:184|148:276,1,200,0|2,0:0|0:0,0:0:0:0:
228,276,41860,2,0,P|272:264|328:272,1,100,8|2,0:0|0:0,0:0:0:0:
410,270,42812,2,0,L|458:286,2,50,8|0|2,0:0|0:0|0:0,0:0:0:0:
388,188,43764,6,0,B|376:140|392:80|392:80|344:60|304:72,1,200,8|8,0:0|0:0,0:0:0:0:
224,104,45193,2,0,P|184:112|128:96,2,100,0|10|2,0:0|0:0|0:0,0:0:0:0:
304,132,46621,1,8,0:0:0:0:
388,120,47098,6,0,P|388:152|256:204,1,200,4|2,0:0|0:0,0:0:0:0:
172,196,48526,1,8,0:0:0:0:
88,208,49002,2,0,P|68:228|60:296,1,100,2|8,0:0|0:0,0:0:0:0:
128,348,49955,2,0,B|200:312|256:368|324:336,1,200,0|2,0:0|0:0,0:0:0:0:
404,308,51383,5,8,0:0:0:0:
432,228,51860,1,2,0:0:0:0:
420,144,52336,2,0,P|400:104|352:76,1,100,8|2,0:0|0:0,0:0:0:0:
272,100,53288,2,0,P|224:108|176:92,2,100,8|2|8,0:0|0:0|0:0,0:0:0:0:
354,76,54717,5,4,0:0:0:0:
334,159,55193,2,0,P|308:216|312:264,1,100,8|0,0:0|0:0,0:0:0:0:
366,315,56145,2,0,P|314:339|262:323,1,100,8|0,0:0|0:0,0:0:0:0:
219,266,57098,2,0,P|179:249|113:244,2,100,8|0|8,0:0|0:0|0:0,0:0:0:0:
289,217,58526,5,0,0:0:0:0:
225,161,59002,2,0,P|285:131|373:217,1,200,8|8,0:0|0:0,0:0:0:0:
338,287,60431,1,0,0:0:0:0:
254,277,60907,2,0,L|147:277,1,100,8|0,0:0|0:0,0:0:0:0:
96,215,61860,1,8,0:0:0:0:
128,136,62336,5,4,0:0:0:0:
207,106,62812,2,0,P|256:114|306:105,1,100,8|0,0:0|0:0,0:0:0:0:
383,139,63764,2,0,P|413:177|417:247,1,100,8|0,0:0|0:0,0:0:0:0:
368,293,64717,2,0,P|381:342|426:372,2,100,8|0|8,0:0|0:0|0:0,0:0:0:0:
325,220,66145,2,0,P|255:196|183:222,2,150,4|4|8,0:0|0:0|0:0,0:0:0:0:
378,154,68050,5,0,0:0:0:0:
439,95,68526,2,0,P|464:145|448:204,2,100,2|2|2,0:0|0:0|0:0,0:0:0:0:
356,76,69955,6,0,B|300:32|212:116|164:76,1,200,4|0,0:0|0:0,0:0:0:0:
80,88,71383,1,8,0:0:0:0:
132,156,71860,2,0,P|148:204|108:292,2,150,0|0|8,0:0|0:0|0:0,0:0:0:0:
80,88,73764,5,2,0:0:0:0:
152,40,74241,1,8,0:0:0:0:
232,68,74717,2,0,P|260:88|324:80,1,100,0|8,0:0|0:0,0:0:0:0:
404,56,75669,2,0,P|432:92|420:240,1,200,0|2,0:0|0:0,0:0:0:0:
368,304,77098,1,10,0:0:0:0:
284,316,77574,6,0,P|240:296|188:304,2,100,4|8|0,0:0|0:0|0:0,0:0:0:0:
368,304,79002,1,8,0:0:0:0:
436,252,79479,2,0,P|416:204|452:116,2,150,2|0|8,0:0|0:0|0:0,0:0:0:0:
380,316,81383,6,0,B|288:284|272:336|184:312,1,200,2|0,0:0|0:0,0:0:0:0:
116,260,82812,1,8,0:0:0:0:
128,176,83288,2,0,P|136:144|120:80,2,100,0|8|0,0:0|0:0|0:0,0:0:0:0:
116,260,84717,1,8,0:0:0:0:
195,229,85193,6,0,L|299:229,1,100,4|0,0:0|0:0,0:0:0:0:
374,260,86145,1,2,0:0:0:0:
423,190,86621,2,0,P|458:235|453:291,2,100,0|2|0,0:0|0:0|0:0,0:0:0:0:
338,180,88050,2,2,P|288:192|232:176,1,100
180,122,89002,5,2,0:0:0:0:
132,192,89479,1,0,0:0:0:0:
178,264,89955,1,2,0:0:0:0:
260,288,90431,2,0,P|232:332|176:348,2,100,2|2|0,0:0|0:0|0:0,0:0:0:0:
320,228,91860,2,0,L|320:120,1,100,0|2,0:0|0:0,0:0:0:0:
251,78,92812,6,0,P|203:87|153:77,2,100,2|0|2,0:0|0:0|0:0,0:0:0:0:
320,128,94241,1,0,0:0:0:0:
400,156,94717,1,0,0:0:0:0:
346,221,95193,2,0,P|345:267|294:312,1,100,2|0,0:0|0:0,0:0:0:0:
263,236,96145,1,2,0:0:0:0:
180,255,96621,6,0,P|195:182|269:151,2,150,2|0|0,0:0|0:0|0:0,0:0:0:0:
263,236,98526,2,0,L|372:235,1,100,2|0,0:0|0:0,0:0:0:0:
373,151,99479,2,2,P|437:184|452:223,1,100
448,292,100431,6,0,P|384:336|264:336,1,200,4|0,0:0|0:0,0:0:0:0:
180,332,101860,1,2,0:0:0:0:
104,292,102336,2,0,P|108:248|104:192,1,100,0|2,0:0|0:0,0:0:0:0:
88,108,103288,2,0,P|128:96|188:96,1,100,2|2,0:0|0:0,0:0:0:0:
272,104,104241,6,0,P|304:124|408:92,2,150,2|0|2,0:0|0:0|0:0,0:0:0:0:
192,76,106145,2,0,P|152:80|100:112,1,100
76,192,107098,2,0,P|60:208|36:220,2,50
160,180,108050,6,0,P|184:176|260:176,2,100,2|0|0,0:0|0:0|0:0,0:0:0:0:
76,196,109479,1,0,0:0:0:0:
64,280,109955,2,0,B|100:304|228:256|264:284,1,200,2|2,0:0|0:0,0:0:0:0:
332,328,111383,1,0,0:0:0:0:
416,340,111860,6,0,L|424:240,1,100,2|0,0:0|0:0,0:0:0:0:
452,160,112812,2,0,P|460:144|468:112,2,50,0|0|0,0:0|0:0|0:0,0:0:0:0:
368,176,113764,2,0,P|324:176|276:148,1,100
212,92,114717,2,0,L|208:36,2,50,2|2|0,0:0|0:0|0:0,0:0:0:0:
137,132,115669,6,0,P|101:188|65:220,1,100,4|8,0:0|0:0,0:0:0:0:
101,292,116621,2,0,P|145:308|197:348,1,100,2|8,0:0|0:0,0:0:0:0:
256,288,117574,1,2,0:0:0:0:
323,338,118050,2,0,P|364:309|411:292,1,100,8|0,0:0|0:0,0:0:0:0:
395,209,119002,1,8,0:0:0:0:
433,133,119479,6,0,P|476:184|480:231,2,100,2|8|0,0:0|0:0|0:0,0:0:0:0:
348,138,120907,1,8,0:0:0:0:
310,214,121383,1,2,0:0:0:0:
237,258,121860,2,0,L|125:258,2,100,2|0|0,0:0|0:0|0:0,0:0:0:0:
310,214,123288,5,4,0:0:0:0:
250,154,123764,2,0,P|236:104|252:56,1,100,8|2,0:0|0:0,0:0:0:0:
335,64,124717,2,0,P|382:78|429:64,1,100,8|2,0:0|0:0,0:0:0:0:
483,130,125669,2,0,L|484:244,1,100,8|2,0:0|0:0,0:0:0:0:
415,280,126621,1,8,0:0:0:0:
339,241,127098,6,0,P|288:232|232:244,1,100,2|8,0:0|0:0,0:0:0:0:
165,278,128050,1,0,0:0:0:0:
124,204,128526,1,8,0:0:0:0:
164,129,129002,1,2,0:0:0:0:
248,142,129479,2,0,P|297:148|363:137,2,100,2|0|0,0:0|0:0|0:0,0:0:0:0:
176,188,130907,6,0,P|140:196|80:176,2,100,4|8|0,0:0|0:0|0:0,0:0:0:0:
248,144,132336,2,0,L|252:92,2,50,2|0|2,0:0|0:0|0:0,0:0:0:0:
248,228,133288,1,8,0:0:0:0:
284,304,133764,1,2,0:0:0:0:
368,292,134241,2,0,P|400:284|440:232,1,100,8|2,0:0|0:0,0:0:0:0:
416,152,135193,6,0,P|412:108|432:56,2,100,8|2|2,0:0|0:0|0:0,0:0:0:0:
404,236,136621,1,0,0:0:0:0:
344,296,137098,2,0,B|264:328|224:264|148:296,1,200,2|2,0:0|0:0,0:0:0:0:
68,324,138526,6,0,P|48:284|60:232,1,100,4|8,0:0|0:0,0:0:0:0:
88,152,139479,2,0,P|100:104|79:60,2,100,0|8|2,0:0|0:0|0:0,0:0:0:0:
76,236,140907,2,0,B|124:264|152:312|152:312|196:300|236:272,1,200,8|8,0:0|0:0,0:0:0:0:
316,248,142336,2,0,P|360:224|460:232,2,150,6|6|8,0:0|0:0|0:0,0:0:0:0:
244,296,144241,6,0,P|212:308|148:292,1,100,2|0,0:0|0:0,0:0:0:0:
68,268,145193,1,0,0:0:0:0:
48,184,145669,2,0,P|64:152|56:88,1,100,0|4,0:0|0:0,0:0:0:0:
256,192,146264,12,0,151860,0:0:0:0:
