osu file format v9

[General]
AudioFilename: 29.Rebirth_the_edge.mp3
AudioLeadIn: 1500
PreviewTime: 65118
Countdown: 0
SampleSet: Normal
StackLeniency: 0.4
Mode: 0
LetterboxInBreaks: 1

[Editor]
Bookmarks: 9728,28195,46657,65118,83580,92811,106657,125118,143580
DistanceSpacing: 1
BeatDivisor: 4
GridSize: 4

[Metadata]
Title:Rebirth the edge
Artist:Shade
Creator:Magicphoenix
Version:Fatal
Source:Sengoku Rance
Tags:AliceSoft Sound Album Vol.10 Alice Soft OST Hyper Weapon Gahahaha Uesugi Kenshin UesugiKenshin Kite DarkDunskin e-guitar

[Difficulty]
HPDrainRate:7
CircleSize:4
OverallDifficulty:7
ApproachRate:9
SliderMultiplier:1.6
SliderTickRate:1

[Events]
//Background and Video events
0,0,"fatal.jpg"
//Break Periods
//Storyboard Layer 0 (Background)
//Storyboard Layer 1 (Fail)
//Storyboard Layer 2 (Pass)
//Storyboard Layer 3 (Foreground)
//Storyboard Sound Samples
//Background Colour Transformations
3,100,163,162,255

[TimingPoints]
503,288.461538461538,4,1,1,80,1,0
4180,-80,4,1,1,80,0,0
4541,-100,4,1,1,80,0,0
13483,-80,4,1,1,80,0,0
13844,-100,4,1,1,80,0,0
65118,-100,4,1,1,80,0,1
83507,-100,4,1,1,80,0,0
83579,-100,4,1,1,80,0,1
106656,-100,4,1,1,80,0,0

[Colours]
Combo1 : 3,113,165
Combo2 : 147,32,32
Combo3 : 9,108,106
Combo4 : 231,204,14
Combo5 : 205,205,186

[HitObjects]
312,320,503,1,4
364,260,647,1,0
444,244,791,2,0,B|472:200|476:140|428:96,1,160,8|0
429,97,1152,1,0
429,97,1224,1,0
352,152,1368,1,8
344,64,1512,6,0,B|276:24|188:40,1,160
112,68,1945,1,8
144,140,2089,1,0
64,156,2233,1,0
144,140,2377,1,0
136,220,2522,1,8
304,332,2810,5,0
224,324,2954,1,0
224,324,3027,1,0
224,324,3099,1,8
272,260,3243,1,0
352,268,3387,2,0,B|384:292,2,40
324,192,3676,1,8
244,184,3820,2,0,B|244:128|204:84|140:84,1,160
76,132,4252,6,0,B|72:140|72:140|80:140|80:140|72:144|72:144|80:144|80:144|72:148|72:148|80:148|80:148|72:152|72:152|80:152|80:152|72:156|72:156|80:156|80:156|72:160|72:160|80:160|80:160|72:164|72:164|80:164|80:164|72:168|72:168|80:168|80:168|76:176|76:176|72:200|76:232,1,199.999997019768,8|0
76,231,4613,1,0
76,231,4685,1,0
160,256,4829,1,12
100,312,4974,1,0
176,336,5118,6,0,B|220:352|288:352|328:308,1,160,0|8
384,256,5551,2,0,B|412:224|408:180,1,80
380,48,5839,2,0,B|352:80|356:124,1,80,0|8
320,192,6127,2,0,B|272:224|208:208|184:156,1,160
132,96,6560,5,8
60,64,6704,1,0
68,144,6849,1,0
132,96,6993,1,0
208,72,7137,1,8
288,72,7281,1,0
364,100,7426,1,0
348,336,7714,5,8
348,336,7858,2,0,B|348:296|324:260,1,80
187,260,8147,2,0,B|164:296|164:336,2,80,0|8|0
352,176,8579,5,12
172,96,8724,1,8
340,96,8868,1,8
160,176,9013,1,8
256,104,9156,1,4
256,104,9228,1,0
256,104,9301,1,8
256,184,9445,1,0
256,264,9589,1,8
332,280,9733,6,0,B|396:292|440:260|448:200,1,160,4|8
464,124,10166,1,0
412,64,10310,1,0
388,56,10382,1,0
364,56,10454,1,0
292,92,10599,1,8
220,128,10743,6,0,B|168:148|108:136|72:88,1,160,0|0
52,16,11176,1,8
132,32,11320,1,0
75,91,11464,1,0
44,164,11608,1,0
48,244,11752,2,0,B|28:288|52:320,2,80,8|0|4
120,280,12185,5,0
196,260,12329,1,8
248,200,12474,1,0
252,120,12618,1,0
264,96,12690,1,0
288,80,12762,1,0
368,80,12906,1,8
436,124,13051,2,0,B|472:168|456:240|400:256,1,160
332,212,13483,6,0,B|327:204|327:204|323:210|323:210|324:201|324:201|319:208|319:208|321:199|321:199|316:206|316:206|317:197|317:197|313:203|313:203|314:194|314:194|310:201|310:201|311:192|311:192|306:199|306:199|308:190|308:190|303:196|303:196|304:188|304:188|300:194|300:194|295:186|295:186|278:169|250:154,1,199.999997019768,8|0
250,154,13844,1,0
250,154,13916,1,0
172,168,14060,1,8
128,232,14204,1,0
128,312,14349,5,4
128,312,14421,1,0
128,312,14493,1,0
256,364,14637,1,8
256,260,14781,1,0
384,312,14926,1,0
384,312,14998,1,0
384,312,15070,1,0
340,244,15214,6,0,B|372:220|368:172,1,80,8|0
304,45,15502,2,0,B|320:88|304:124,1,80
207,123,15791,2,0,B|192:88|207:45,1,80,8|0
143,172,16079,2,0,B|140:220|172:244,1,80
171,243,16296,1,0
171,243,16368,1,8
144,320,16512,1,0
144,320,16656,6,0,B|208:368|304:368|368:320,1,240,4|0
368,319,17161,1,0
368,319,17233,1,8
348,244,17377,1,8
384,172,17522,1,8
428,240,17666,1,8
348,244,17810,1,12
284,196,17954,1,0
244,128,18099,1,8
236,48,18243,1,8
308,80,18387,1,8
244,128,18531,1,8
164,128,18676,1,8
88,104,18820,1,8
48,36,18964,6,0,B|84:12|136:36,2,80,4|0|8
8,108,19397,1,0
52,176,19541,2,0,B|20:200,2,40
124,144,19829,1,8
172,80,19974,2,0,B|225:57|285:65|317:109,1,160
336,188,20406,1,8
320,268,20551,1,0
260,216,20695,1,0
336,188,20839,1,0
416,204,20983,6,0,B|480:268|436:352,2,160,8|4|8
368,140,21704,1,0
400,68,21849,1,0
400,68,21921,1,0
400,68,21993,1,0
320,76,22137,1,8
320,76,22281,2,0,B|252:32|160:52,1,160
112,112,22714,5,8
96,192,22858,1,0
28,236,23002,1,0
28,236,23075,1,0
28,236,23147,1,0
24,156,23291,1,8
96,192,23435,1,0
176,188,23579,6,0,B|212:116,2,80,4|0|8
256,224,24012,1,0
336,188,24156,2,0,B|300:116,2,80,0|0|8
328,268,24589,5,0
396,312,24733,1,0
324,348,24877,1,0
256,304,25022,1,8
184,268,25166,5,0
116,312,25310,1,0
188,348,25454,1,0
256,304,25599,1,8
256,224,25743,1,0
256,144,25887,6,0,B|256:100,4,40,12|8|8|0|0
256,224,26320,1,0
184,188,26464,1,8
176,168,26536,1,8
176,144,26608,1,8
256,144,26752,1,0
328,188,26897,1,8
336,168,26969,1,8
336,144,27041,1,8
256,144,27185,1,0
220,72,27329,5,8
204,56,27402,1,8
180,48,27474,1,8
156,48,27546,1,8
132,56,27618,1,8
116,72,27690,1,0
108,96,27762,1,8
112,120,27834,1,0
120,144,27906,1,8
120,168,27978,1,8
112,192,28051,1,8
96,208,28123,1,0
72,216,28195,6,0,B|16:220|-16:292|24:344,1,160,4|8
84,292,28627,2,0,B|140:288|172:216|132:164,1,160
80,112,29060,1,8
56,36,29204,2,0,B|136:20|216:36,1,160
256,108,29637,1,8
297,35,29781,2,0,B|376:20|456:36,1,160
432,112,30214,5,8
460,188,30358,2,0,B|468:236|436:260,1,80
328,260,30647,2,0,B|296:236|304:188,2,80,0|8|0
384,200,31079,2,0,B|399:146|342:91|280:111,1,160,0|8
216,148,31512,2,0,B|160:166|103:111|120:52,1,160,4|0
196,72,31945,1,8
196,72,32089,2,0,B|88:188,1,160,4|0
36,252,32522,1,8
116,264,32666,1,0
88,188,32810,6,0,B|76:144|104:112,2,80,4|0|8
164,164,33243,1,0
196,16,33387,2,0,B|208:60|180:92,2,80,0|0|8
120,44,33820,2,0,B|276:72,1,160,4|0
356,96,34252,1,8
404,160,34397,1,0
424,236,34541,1,0
416,316,34685,1,0
352,268,34829,1,8
424,236,34974,1,0
480,176,35118,6,0,B|516:124|508:72|460:32,1,160,4|8
384,16,35551,1,8
356,96,35695,1,8
356,96,35767,1,8
356,96,35839,1,8
276,84,35983,1,0
276,84,36127,2,0,B|264:144|212:164|148:144,1,160,4|0
80,104,36560,5,8
80,104,36632,1,0
80,104,36704,1,0
36,172,36849,1,0
60,248,36993,2,8,B|44:284,2,40
120,196,37281,1,0
184,144,37426,6,0,B|228:132|260:160,2,80,4|0|8
208,220,37858,1,0
276,264,38002,1,0
276,264,38075,1,0
276,264,38147,1,0
356,248,38291,1,8
356,248,38435,6,0,B|360:300|336:336|296:352|252:340,1,160,4|0
180,324,38868,1,8
120,272,39012,1,0
108,192,39156,1,8
108,192,39228,1,8
108,192,39301,1,8
184,216,39445,2,0,B|200:172|172:136,1,80,8|8
136,68,39733,5,0
136,68,39805,1,0
136,68,39877,1,8
256,36,40022,1,8
256,144,40166,1,0
376,68,40310,1,0
376,68,40382,1,0
376,68,40454,1,8
356,172,40599,5,8
356,172,40743,2,0,B|380:224|360:284|300:300,1,160,4|0
256,204,41176,1,8
155,172,41320,2,0,B|132:224|152:284|212:300,2,160,4|0|0
188,100,42041,5,4
264,80,42185,1,0
340,100,42329,1,8
284,160,42474,1,0
264,80,42618,1,0
316,20,42762,1,0
396,36,42906,1,8
396,36,43051,6,0,B|440:68|440:136|408:168|360:184,1,160,4|0
312,192,43483,1,8
248,240,43627,1,0
224,316,43772,1,0
224,316,43844,1,0
224,316,43916,1,0
304,300,44060,1,8
248,240,44204,1,0
168,256,44349,6,0,B|112:244|84:188|112:128,1,160,4|0
176,88,44781,2,0,B|336:88,1,160,4|0
401,130,45214,2,0,B|428:188|400:244|344:256,1,160,4|0
344,255,45575,1,0
344,255,45647,1,8
256,208,45791,1,8
167,255,45935,5,0
172,280,46007,1,0
176,304,46079,1,0
256,296,46224,1,8
344,255,46368,1,0
340,280,46440,1,0
336,304,46512,1,8
408,344,46656,6,0,B|468:332|487:268|463:216,1,160,4|8
416,152,47089,1,0
336,148,47233,1,0
264,184,47377,2,0,B|240:220|192:216,1,80,0|8
204,136,47666,2,0,B|192:80|136:52|78:79,1,160,4|0
128,152,48099,5,8
128,152,48171,1,0
128,152,48243,1,0
152,224,48387,2,0,B|164:272|136:300,2,80,0|0|8
76,252,48820,2,0,B|48:284|48:344|88:372|124:376,1,160,4|0
137,299,49252,2,0,B|281:231,1,160,8|0
298,156,49685,2,0,B|332:160|372:188|372:248|344:280,2,160,0|4|0
216,148,50406,1,8
148,104,50551,1,0
132,24,50695,1,4
132,24,50983,1,4
132,24,51272,6,0,B|98:28|58:56|58:116|86:148,1,160,4|8
115,221,51704,2,0,B|139:249|144:295|111:341|67:345,1,160
48,272,52137,1,8
48,272,52281,2,0,B|200:324,1,160,0|0
280,332,52714,2,0,B|328:328|344:288,1,80,8|0
400,152,53002,2,0,B|352:156|336:196,1,80
272,244,53291,5,8
272,244,53435,2,0,B|235:286|167:280|133:229,1,160,4|0
134,231,53796,1,0
134,231,53868,1,8
176,164,54012,1,0
156,88,54156,2,0,B|120:64,2,40,0|0|4
236,96,54445,1,8
236,96,54589,2,0,B|292:116|348:104|384:56,1,160,4|0
440,116,55022,2,4,B|396:148|384:204|404:260,2,160
240,248,55887,6,0,B|220:292|248:324,2,80,4|0|8
316,280,56320,2,0,B|352:320|408:328|464:304,1,160,0|0
420,236,56752,1,8
416,212,56825,1,0
404,192,56897,2,0,B|368:152|312:144|256:168,1,160
192,216,57329,6,0,B|160:240|116:228,1,80,8|0
144,140,57618,2,0,B|112:112|120:64,1,80
208,76,57906,2,0,B|240:52|284:64,1,80,8|0
256,152,58195,2,0,B|288:180|280:228,2,80,0|0|8
200,212,58627,2,0,B|192:292|268:324|320:300,1,160,4|0
368,264,59060,1,8
448,276,59204,2,0,B|492:120,1,160
452,52,59637,2,0,B|376:8|300:48,2,160,8|4|4
256,192,60502,5,8
184,152,60647,1,8
176,128,60719,1,8
168,104,60791,1,8
256,112,60935,1,8
256,88,61007,1,8
256,64,61079,1,8
328,152,61224,1,8
336,128,61296,1,8
344,104,61368,1,8
420,80,61512,6,0,B|480:96|500:156|472:208,1,160,4|8
396,232,61945,1,8
328,276,62089,1,8
292,348,62233,1,8
372,344,62377,1,8
328,276,62522,1,8
256,240,62666,6,0,B|202:208|145:237|128:293,1,160,4|8
129,292,63027,1,8
129,292,63099,1,8
56,260,63243,1,0
48,180,63387,2,8,B|24:144,2,40,0|0|8
256,192,63676,12,4,64829
256,328,65118,6,0,B|293:307|295:258,1,80,4|0
256,56,65406,2,0,B|218:76|216:125,1,80,8|0
400,192,65695,2,0,B|380:156|334:153,1,80
112,192,65983,2,0,B|131:227|177:230,2,80,8|0|0
180,148,66416,5,0
256,212,66560,1,8
244,92,66704,1,0
328,188,66849,1,0
316,56,66993,1,8
404,168,67137,1,8
396,40,67281,1,0
484,164,67426,6,0,B|508:204|488:240,1,80,4|0
340,340,67714,2,0,B|316:300|336:264,1,80,8|0
380,88,68002,2,0,B|404:128|384:164,1,80
236,264,68290,2,0,B|212:224|232:188,2,80,8|0|0
304,224,68724,5,0
304,224,68796,1,0
304,224,68868,1,8
284,128,69012,1,0
184,176,69156,1,0
208,60,69301,1,8
88,136,69445,6,0,B|32:160|16:224|52:276,1,160,0|4
184,244,69877,1,8
128,348,70022,1,0
276,332,70166,1,0
184,244,70310,1,0
280,180,70454,1,0
368,264,70599,1,8
472,236,70743,6,0,B|508:188|500:128|448:96,1,160
340,40,71176,1,8
284,152,71320,1,0
212,56,71464,1,0
160,176,71608,1,8
68,112,71752,1,8
36,208,71897,1,0
108,272,72041,6,8,B|72:292,2,40
184,332,72329,1,0
256,264,72474,2,8,B|256:220,2,40
328,332,72762,1,0
404,272,72906,2,8,B|440:292,2,40
256,192,73195,12,4,74060
52,308,74348,5,4
220,296,74493,1,0
124,160,74637,1,8
140,344,74781,1,0
44,216,74925,1,0
212,200,75069,1,0
132,252,75214,1,8
124,160,75358,6,0,B|148:100|136:60|136:60|84:28,1,160
52,112,75791,1,8
124,160,75935,1,0
208,184,76079,1,0
296,184,76224,1,8
252,108,76368,1,8
208,184,76512,1,0
220,272,76656,6,0,B|240:308|260:340,1,80,4|0
412,340,76945,2,0,B|368:272,1,80,8|0
440,144,77233,2,0,B|484:212,2,80,0|0|8
368,96,77666,6,0,B|336:48|276:32|220:56,1,160
104,152,78099,1,8
204,152,78243,1,0
48,228,78387,1,0
68,64,78532,1,8
68,64,78604,1,0
68,64,78676,2,0,B|100:36|144:48,1,80,8|0
220,92,78964,5,4
388,104,79109,1,0
292,240,79253,1,8
308,56,79397,1,0
212,184,79541,1,0
380,200,79685,1,0
300,148,79830,1,8
292,240,79974,6,0,B|272:300|272:300|296:352|356:344,1,160
420,292,80406,1,8
440,204,80551,1,0
404,124,80695,1,0
352,196,80839,1,8
440,204,80983,1,8
492,132,81127,1,0
456,52,81272,6,8,B|480:20,2,40
340,44,81560,1,0
256,116,81704,1,8
256,116,81777,1,8
256,116,81849,1,8
172,44,81993,1,0
108,160,82137,6,0,B|104:216|104:216|84:252|56:264|56:264|56:284|68:296,1,160,8|4
144,336,82570,2,8,B|132:376,2,40
200,268,82858,1,0
288,256,83002,1,8
368,292,83147,6,0,B|400:320|444:308,2,80,0|8|0
424,224,83579,2,0,B|464:180|464:124|424:80,1,160,4|8
344,40,84012,1,0
336,128,84156,2,0,B|348:186|320:234|264:253,1,160,0|8
192,200,84589,6,0,B|133:188|85:215|66:272,1,160,4|8
104,352,85022,1,8
192,356,85166,1,0
260,300,85310,1,0
256,212,85454,1,8
180,260,85599,1,8
260,300,85743,1,0
348,292,85887,6,0,B|406:278|438:233|430:174,1,160,4|8
376,104,86320,2,0,B|339:151|284:161|233:129,1,160,8|0
208,44,86752,1,8
292,68,86897,2,0,B|323:118|316:176|264:208,1,160,8|0
264,207,87257,1,0
264,207,87329,1,8
180,236,87474,2,0,B|136:244|120:284,2,80,0|0|8
200,320,87906,6,0,B|276:356|356:320,1,160,8|4
424,268,88339,1,0
440,252,88411,1,0
456,236,88483,1,8
372,192,88627,1,0
380,168,88700,1,0
388,144,88772,1,8
284,136,88916,1,0
280,112,88988,1,0
276,88,89060,1,8
196,52,89204,6,0,B|136:60|104:108|120:168,1,160,4|8
156,248,89637,1,8
180,332,89781,1,8
96,312,89926,1,8
156,248,90070,1,8
240,228,90214,1,8
328,240,90358,1,8
392,300,90502,5,8
392,300,90575,1,0
392,300,90647,1,0
256,336,90791,1,0
284,196,90935,1,8
284,196,91007,1,0
284,196,91079,2,0,B|256:148|256:148|204:128|156:160,1,160,0|8
80,200,91512,6,0,B|24:200|-12:140|16:80,1,160,4|0
14,82,91873,1,0
14,82,91945,1,8
128,40,92089,1,0
180,144,92233,1,8
180,144,92305,1,0
180,144,92377,1,0
284,80,92522,6,8,B|324:40|384:36|432:72,2,160,8|4|8
336,152,93243,2,0,B|296:192|236:196|188:160,1,160
140,88,93676,1,8
52,88,93820,1,0
24,172,93964,2,0,B|0:212|20:248,2,80,0|0|8
104,212,94397,2,0,B|156:184|220:212|232:272,1,160
144,288,94829,6,0,B|216:144,1,160,8|4
260,68,95262,2,0,B|284:32|332:40,2,80,0|8|0
324,128,95695,2,0,B|380:152|396:208|368:264,1,160,0|8
296,212,96127,2,0,B|448:160,1,160,4|0
472,76,96560,2,0,B|443:23|388:4|336:36,1,160,8|0
276,100,96993,1,0
208,156,97137,2,0,B|176:188|132:172,1,80
160,88,97426,5,4
288,36,97570,1,0
288,36,97642,1,0
288,36,97714,1,8
280,172,97858,1,0
404,128,98002,1,8
404,128,98075,1,0
404,128,98147,1,0
396,260,98291,6,0,B|388:320|336:348|276:332,1,160,8|4
248,248,98724,1,0
168,208,98868,1,8
80,220,99012,2,0,B|32:184|28:124|68:80,1,160,4|0
148,44,99445,1,8
232,68,99589,1,0
320,52,99733,6,0,B|384:40|428:80|440:132,1,160,4|8
452,328,100166,2,0,B|392:336|344:304|336:244|336:244,1,160,4|8
192,52,100599,6,0,B|128:40|84:80|72:132,1,160,4|8
60,328,101031,2,0,B|120:336|168:304|176:244|176:244,1,160,4|8
332,152,101464,6,0,B|284:124|228:124|180:152,2,160,4|4|0
380,228,102185,1,0
460,268,102329,1,0
456,180,102474,1,0
380,228,102618,2,0,B|323:244|297:310|331:360,1,160,0|0
404,316,103051,6,0,B|256:256,1,160,4|8
176,220,103483,1,8
124,148,103627,1,8
156,64,103772,1,8
208,136,103916,1,8
124,148,104060,1,8
68,80,104204,1,8
156,64,104349,6,8,B|180:28,2,40
256,76,104637,1,0
256,76,104709,1,8
256,76,104781,1,0
356,64,104926,2,8,B|332:28,2,40
428,116,105214,1,0
428,116,105358,6,0,B|460:168|448:224|396:256,1,160,4|8
312,280,105791,1,8
224,264,105935,1,8
160,200,106079,1,8
248,180,106224,1,8
224,264,106368,1,8
152,316,106512,1,8
64,328,106656,6,0,B|16:296|12:232|48:188,2,160,4|8|0
144,316,107377,1,0
212,272,107522,1,8
244,200,107666,2,0,B|272:148|316:128|380:140,1,160
378,139,108099,1,8
256,36,108387,1,0
133,139,108676,1,8
196,288,108964,6,0,B|224:336|284:352|336:328,1,160,4|8
348,248,109397,2,0,B|288:244|252:200|256:134,1,160
324,96,109829,2,0,B|376:114|432:88|456:36,2,160,8|0|8
248,72,110551,1,0
168,72,110695,1,0
96,108,110839,2,0,B|52:124|44:164,2,80,8|8|0
124,184,111272,6,0,B|168:236|156:296|108:324,1,160,4|8
72,252,111704,1,0
72,252,111849,2,0,B|232:264|236:264,1,160,0|8
308,236,112281,2,0,B|334:182|318:126|264:100,1,160
240,184,112714,2,0,B|392:132,2,160,8|0|8
116,84,113579,5,8
140,192,113724,1,0
140,192,113796,1,0
140,192,113868,1,8
224,120,114012,1,8
260,240,114156,1,8
336,168,114301,1,8
384,272,114445,1,8
456,224,114589,2,0,B|496:176|492:120|444:80,1,160,12|0
372,48,115022,5,0
324,112,115166,1,0
252,144,115310,1,0
260,64,115454,1,0
324,112,115599,1,0
352,188,115743,1,0
352,268,115887,6,0,B|324:320|272:336|212:320,1,160,4|8
168,256,116320,1,0
104,204,116464,2,0,B|68:152|88:92|144:72,1,160,0|8
164,152,116897,2,0,B|8:116,1,160
8,116,117329,5,8
152,48,117618,1,0
304,100,117906,1,8
348,256,118195,2,0,B|408:268|456:240|468:180,2,160,0|8|0
272,236,118916,1,0
216,180,119060,1,8
200,104,119204,6,0,B|180:48|128:28|68:52,1,160,4|0
69,51,119565,1,0
69,51,119637,1,8
96,128,119781,1,8
100,208,119926,1,8
60,276,120070,1,8
24,204,120214,1,8
100,208,120358,1,8
168,248,120502,6,0,B|204:296|260:300|312:264,1,160,4|8
244,208,120935,1,0
244,208,121079,2,0,B|220:368,1,160,0|8
300,348,121512,2,0,B|336:300|392:296|444:332,1,160
441,330,121945,1,8
476,260,122089,1,0
468,180,122233,1,0
416,120,122377,1,0
388,196,122522,1,8
468,180,122666,1,0
496,104,122810,5,4
444,44,122954,2,0,B|420:8,2,40,0|0|8
368,104,123243,2,0,B|328:92,2,40,0|0|8
336,216,123531,2,0,B|296:228,2,40,0|0|8
396,300,123820,2,0,B|364:352|308:360|256:336,1,160,4|0
216,268,124252,1,0
172,200,124397,1,0
92,192,124541,1,0
124,264,124685,1,0
172,200,124829,1,0
188,120,124974,1,0
180,40,125118,6,0,B|152:12|104:20,2,80,4|0|8
240,92,125551,1,0
320,104,125695,1,0
392,72,125839,1,0
328,24,125983,1,8
320,104,126127,2,0,B|304:168|304:168|312:220|368:228,1,160
408,160,126560,6,0,B|462:167|470:219|470:219|454:283,2,160,8|0|8
336,196,127281,1,0
260,224,127426,1,0
180,224,127570,1,0
108,188,127714,1,8
80,112,127858,1,0
160,124,128002,1,0
108,188,128147,1,0
108,268,128291,1,8
148,336,128435,6,0,B|224:364|224:364|248:336|296:336,1,160
392,264,128868,2,0,B|316:236|316:236|292:264|244:264,1,160,8|0
208,160,129301,1,0
120,244,129445,1,8
84,128,129589,1,0
44,196,129733,6,0,B|12:228|24:272,2,80,4|0|8
84,128,130166,1,0
72,48,130310,2,0,B|120:32|120:32|152:40|168:68|168:68|216:52,1,160,0|8
298,52,130743,2,0,B|344:68|344:68|360:40|392:32|392:32|440:48,1,160
460,124,131176,2,0,B|488:188|488:188|472:236|424:248,2,160,8|0|8
396,76,131897,1,0
316,88,132041,5,0
316,88,132113,1,0
316,88,132185,1,0
228,40,132329,1,8
208,148,132474,1,0
120,92,132618,1,8
120,92,132690,1,0
120,92,132762,1,0
80,192,132906,1,0
80,192,133051,6,0,B|44:240|56:304|112:328,1,160,4|0
168,272,133483,1,0
248,276,133627,2,0,B|308:290|352:252|359:192,2,160,4|0|0
188,228,134349,5,4
160,152,134493,1,0
196,80,134637,1,8
236,148,134781,1,0
160,152,134926,2,0,B|104:168|104:168|56:136|60:80,1,160,0|8
140,76,135358,2,0,B|159:25|216:16|216:16|260:54,1,160
336,80,135791,6,0,B|400:64|444:88|472:140,2,160,8|0|8
260,108,136512,1,0
196,156,136656,1,0
156,224,136801,1,0
144,304,136945,1,8
220,276,137089,5,0
156,224,137233,1,0
116,156,137377,1,0
112,76,137522,1,8
184,112,137666,5,0
116,156,137810,1,0
76,224,137954,1,0
64,304,138099,2,0,B|88:344|128:360|128:360|160:332|196:340,1,160,8|0
272,252,138531,1,0
336,336,138676,1,8
432,280,138820,1,0
376,178,138964,6,0,B|388:220|356:252,2,80,4|0|8
296,196,139397,1,0
315,117,139541,2,0,B|304:76|336:44,2,80,0|0|8
396,100,139974,2,0,B|460:116|460:116|484:160|456:208,1,160
457,205,140406,1,8
256,304,140695,1,0
54,205,140983,1,8
54,205,141127,1,0
256,192,141272,12,4,143579
