osu file format v14

[General]
AudioFilename: Sex Whales & Fraxo - Dead To Me (feat. Lox Chatterbox) (1).mp3
AudioLeadIn: 0
PreviewTime: 150860
Countdown: 0
SampleSet: Normal
StackLeniency: 0.7
Mode: 0
LetterboxInBreaks: 1
WidescreenStoryboard: 1

[Editor]
DistanceSpacing: 2
BeatDivisor: 6
GridSize: 8
TimelineZoom: 1

[Metadata]
Title:Dead To Me (feat. Lox Chatterbox)
TitleUnicode:Dead To Me (feat. Lox Chatterbox)
Artist:Sex Whales & Fraxo
ArtistUnicode:Sex Whales & Fraxo
Creator:ohad1881
Version:extrad1881 (ar 9)
Source:
Tags:
BeatmapID:1162426
BeatmapSetID:548907

[Difficulty]
HPDrainRate:4
CircleSize:4
OverallDifficulty:8.5
ApproachRate:9
SliderMultiplier:2
SliderTickRate:1

[Events]
//Background and Video events
0,0,"daddddddddd.jpg",0,0
//Break Periods
//Storyboard Layer 0 (Background)
//Storyboard Layer 1 (Fail)
//Storyboard Layer 2 (Pass)
//Storyboard Layer 3 (Foreground)
//Storyboard Sound Samples

[TimingPoints]
13023,405.405405405405,4,1,0,100,1,0
13023,-133.333333333333,4,1,0,40,0,0
21131,-100,4,1,0,50,0,0
25995,-80,4,1,0,63,0,0
40590,-66.6666666666667,4,1,0,75,0,0
55185,-50,4,1,0,100,0,1
81131,-80,4,1,0,63,0,0
93698,-133.333333333333,4,1,0,63,0,0
94036,-133.333333333333,4,1,0,5,0,0
94104,-66.6666666666667,4,1,0,75,0,0
108698,-100,4,1,0,50,0,0
121671,-80,4,1,0,63,0,0
134644,-66.6666666666667,4,1,0,75,0,0
150860,-50,4,1,0,100,0,1
175185,-133.333333333333,4,1,0,100,0,1
176739,-133.333333333333,4,1,0,5,0,1
176806,-50,4,1,0,100,0,1
189779,-100,4,1,0,50,0,0
202752,-66.6666666666667,4,1,0,75,0,0

[Colours]
Combo1 : 255,255,255
Combo2 : 255,255,255
Combo3 : 255,255,255

[HitObjects]
119,218,13023,6,0,P|146:170|143:121,1,100.000003814697,8|0,0:0|0:0,0:0:0:0:
107,91,13428,2,0,L|215:89,1,100.000003814697
339,184,13833,2,0,L|231:182,1,100.000003814697
356,97,14239,2,0,P|399:117|424:179,1,100.000003814697
364,277,14644,6,0,B|341:236|341:236|338:165,1,100.000003814697,8|0,0:0|0:0,0:0:0:0:
249,229,15050,2,0,B|246:176|246:176|223:135,1,100.000003814697
139,80,15455,1,0,0:0:0:0:
134,179,15590,1,0,0:0:0:0:
223,135,15725,1,0,0:0:0:0:
37,149,15860,2,0,P|38:212|65:253,1,100.000003814697
153,267,16266,6,0,B|203:265|203:265|265:282,1,100.000003814697,8|0,0:0|0:0,0:0:0:0:
363,188,16671,2,0,B|313:186|313:186|251:203,1,100.000003814697
192,129,17077,2,0,P|218:125|258:144,1,50.0000019073487
312,61,17347,1,0,0:0:0:0:
213,45,17482,2,0,P|187:49|147:30,1,50.0000019073487
105,123,17752,1,0,0:0:0:0:
157,207,17887,6,0,P|191:215|264:177,1,100.000003814697,8|0,0:0|0:0,0:0:0:0:
340,148,18293,2,0,P|384:169|433:162,1,100.000003814697
499,87,18698,2,0,L|503:143,1,50.0000019073487
417,83,18968,1,0,0:0:0:0:
340,148,19104,2,0,L|336:204,1,50.0000019073487
263,130,19374,1,0,0:0:0:0:
346,284,19509,6,0,P|391:259|422:207,1,100.000003814697,8|0,0:0|0:0,0:0:0:0:
217,290,19914,2,0,P|245:249|288:225,1,100.000003814697
163,212,20320,2,0,L|102:215,1,50.0000019073487
37,148,20590,1,0,0:0:0:0:
51,302,20725,6,0,B|86:314|86:314|118:313|118:313|151:325,1,100.000003814697
280,341,21131,6,0,P|309:315|328:274,1,66.6666666666667,8|0,0:0|0:0,0:0:0:0:
258,174,21401,1,0,0:0:0:0:
181,282,21536,2,0,P|152:256|133:215,1,66.6666666666667
152,99,21806,1,0,0:0:0:0:
264,260,21941,6,0,P|304:245|341:158,1,133.333333333333
169,167,22347,2,0,P|190:229|248:260,1,133.333333333333
215,79,22752,2,0,L|147:100,1,66.6666666666667,8|0,0:0|0:0,0:0:0:0:
24,59,23022,1,0,0:0:0:0:
130,140,23158,2,0,L|96:202,1,66.6666666666667
9,100,23428,1,0,0:0:0:0:
98,198,23563,6,0,L|141:354,1,133.333333333333
318,243,23968,2,0,P|268:229|182:248,1,133.333333333333
378,326,24374,2,0,L|414:198,1,133.333333333333
367,73,24779,1,0,0:0:0:0:
484,135,24914,1,0,0:0:0:0:
351,156,25050,1,0,0:0:0:0:
445,61,25185,6,0,B|490:14|490:14|469:80,1,133.333333333333,2|0,0:0|0:0,0:0:0:0:
221,253,25995,6,0,P|154:197|160:98,1,166.666666666667,8|0,0:0|0:0,0:0:0:0:
318,226,26401,2,0,P|303:312|214:356,1,166.666666666667
247,156,26806,2,0,P|328:125|411:180,1,166.666666666667,8|0,0:0|0:0,0:0:0:0:
440,320,27212,1,0,0:0:0:0:
502,165,27347,1,0,0:0:0:0:
362,255,27482,2,0,P|304:269|275:260,1,83.3333333333334,0|8,0:0|0:0,0:0:0:0:
157,153,27752,1,0,0:0:0:0:
172,318,27887,1,0,0:0:0:0:
47,207,28022,2,0,P|35:120|88:47,1,166.666666666667
303,84,28428,6,0,B|244:133|244:133|152:153,1,166.666666666667,8|0,0:0|0:0,0:0:0:0:
252,16,28833,1,0,0:0:0:0:
314,170,28968,1,0,0:0:0:0:
177,73,29104,1,0,0:0:0:0:
392,69,29239,6,0,B|401:129|401:129|373:254,1,166.666666666667,8|0,0:0|0:0,0:0:0:0:
218,279,29644,1,0,0:0:0:0:
284,126,29779,1,0,0:0:0:0:
325,287,29914,1,0,0:0:0:0:
184,100,30050,6,0,P|219:44|319:25,1,166.666666666667,8|0,0:0|0:0,0:0:0:0:
478,161,30455,2,0,L|466:255,1,83.3333333333334
367,110,30725,1,0,0:0:0:0:
325,315,30860,5,8,0:0:0:0:
367,110,30995,1,0,0:0:0:0:
207,245,31131,1,0,0:0:0:0:
370,215,31266,1,0,0:0:0:0:
220,141,31401,1,0,0:0:0:0:
370,215,31536,1,0,0:0:0:0:
278,222,31671,5,8,0:0:0:0:
317,139,31806,1,0,0:0:0:0:
370,215,31941,1,0,0:0:0:0:
178,131,32077,6,0,P|125:141|213:206,1,250,0|8,0:0|0:0,0:0:0:0:
253,56,32617,1,0,0:0:0:0:
88,78,32752,1,0,0:0:0:0:
253,56,32887,2,0,P|312:71|397:158,1,166.666666666667
219,288,33293,2,0,B|235:224|235:224|275:164|275:164|276:208,1,166.666666666667,8|0,0:0|0:0,0:0:0:0:
277,359,33698,6,0,P|197:374|132:305,1,166.666666666667
83,162,34104,1,8,0:0:0:0:
33,320,34239,1,0,0:0:0:0:
168,223,34374,2,0,P|216:203|258:204,1,83.3333333333334
403,258,34644,1,0,0:0:0:0:
320,113,34779,1,0,0:0:0:0:
286,276,34914,2,0,L|276:366,1,83.3333333333334,8|0,0:0|0:0,0:0:0:0:
258,192,35185,1,0,0:0:0:0:
235,358,35320,2,0,L|226:276,1,83.3333333333334
199,111,35590,1,0,0:0:0:0:
344,191,35725,6,0,B|278:211|211:200|211:200|152:214,1,166.666666666667,8|0,0:0|0:0,0:0:0:0:
66,102,36131,2,0,B|132:122|199:111|199:111|258:125,1,166.666666666667
408,11,36536,5,8,0:0:0:0:
345,165,36671,1,0,0:0:0:0:
293,6,36806,1,0,0:0:0:0:
425,107,36941,1,0,0:0:0:0:
257,105,37077,1,0,0:0:0:0:
345,165,37212,1,0,0:0:0:0:
254,25,37347,6,0,B|196:29|174:52|174:52|160:84|112:122,1,166.666666666667,8|0,0:0|0:0,0:0:0:0:
182,268,37752,2,0,P|253:279|288:264,1,83.3333333333333
398,180,38022,1,0,0:0:0:0:
230,188,38158,2,0,P|159:177|124:192,1,83.3333333333333,8|0,0:0|0:0,0:0:0:0:
20,284,38428,2,0,L|32:242,1,41.6666666666667
52,140,38563,2,0,B|90:194|90:194|95:244|116:295,1,166.666666666667
230,188,38968,6,0,L|258:102,2,83.3333333333333,8|0|0,0:0|0:0|0:0,0:0:0:0:
182,268,39374,1,0,0:0:0:0:
182,62,39779,6,0,B|255:108|255:108|358:107,1,166.666666666667
498,66,40185,2,0,P|505:124|485:160,1,83.3333333333333
389,17,40455,1,0,0:0:0:0:
410,215,40590,6,0,B|340:168|329:79|329:79|369:111,1,200.000007629395,12|0,0:0|0:0,0:0:0:0:
410,215,40995,2,0,B|340:262|329:351|329:351|357:328,1,200.000007629395
244,161,41401,6,0,P|170:201|259:215,1,200.000007629395,8|0,0:0|0:0,0:0:0:0:
331,59,41806,1,0,0:0:0:0:
336,258,41941,1,0,0:0:0:0:
205,105,42077,1,0,0:0:0:0:
205,105,42144,1,0,0:0:0:0:
205,105,42212,2,0,P|188:168|220:312,1,200.000007629395,8|0,0:0|0:0,0:0:0:0:
366,170,42617,1,0,0:0:0:0:
279,266,42752,1,0,0:0:0:0:
353,80,42887,1,0,0:0:0:0:
343,336,43022,6,0,P|269:357|188:263,1,200.000007629395,8|0,0:0|0:0,0:0:0:0:
150,79,43428,1,0,0:0:0:0:
52,253,43563,2,0,P|42:314|58:366,1,100.000003814697
92,155,43833,6,0,P|58:96|125:-17,1,200.000007629395,8|0,0:0|0:0,0:0:0:0:
317,84,44239,2,0,B|230:93|149:79|149:79|198:64,1,200.000007629395
390,17,44644,2,0,P|412:110|347:180,1,200.000007629395,8|0,0:0|0:0,0:0:0:0:
146,169,45050,5,0,0:0:0:0:
145,184,45117,1,0,0:0:0:0:
144,199,45185,1,0,0:0:0:0:
144,214,45252,1,0,0:0:0:0:
143,229,45320,1,0,0:0:0:0:
142,244,45387,1,0,0:0:0:0:
142,259,45455,6,0,P|246:275|321:217,1,200.000007629395,8|0,0:0|0:0,0:0:0:0:
253,32,45860,1,0,0:0:0:0:
428,126,45995,1,0,0:0:0:0:
231,169,46131,2,0,P|164:174|128:163,1,100.000003814697,0|8,0:0|0:0,0:0:0:0:
8,8,46401,1,0,0:0:0:0:
55,202,46536,1,0,0:0:0:0:
155,28,46671,2,0,P|222:23|258:34,1,100.000003814697
231,169,46941,1,0,0:0:0:0:
367,21,47077,6,0,B|339:76|339:76|278:112|185:94,1,200.000007629395,8|0,0:0|0:0,0:0:0:0:
27,145,47482,2,0,B|55:200|55:200|116:236|209:218,1,200.000007629395
374,148,47887,2,0,L|359:259,1,100.000003814697,8|0,0:0|0:0,0:0:0:0:
188,113,48158,6,0,B|293:99|293:99|407:168,1,200.000007629395
217,22,48563,1,0,0:0:0:0:
188,221,48698,2,0,P|119:194|93:75,1,200.000007629395,8|0,0:0|0:0,0:0:0:0:
284,185,49104,2,0,P|271:280|186:325,1,200.000007629395
194,126,49509,2,0,P|240:85|309:82,1,100.000003814697,8|0,0:0|0:0,0:0:0:0:
447,180,49779,2,0,B|411:154|385:127|385:127|379:66|344:8,1,200.000007629395
487,74,50185,2,0,L|430:82,1,50.0000019073487
288,99,50320,6,0,B|266:156|231:177|231:177|240:214|203:293,1,200.000007629395,8|0,0:0|0:0,0:0:0:0:
180,77,50725,1,0,0:0:0:0:
320,218,50860,1,0,0:0:0:0:
120,213,50995,1,0,0:0:0:0:
380,82,51131,6,0,B|467:38|467:38|459:154,1,200.000007629395,8|0,0:0|0:0,0:0:0:0:
459,243,51536,2,0,B|467:346|467:346|380:302,1,200.000007629395
283,240,51941,2,0,B|190:196|190:196|270:141,1,200.000007629395,8|0,0:0|0:0,0:0:0:0:
192,92,52347,2,0,L|80:168,1,100.000003814697
151,271,52617,2,0,L|249:318,1,100.000003814697,0|8,0:0|0:0,0:0:0:0:
345,236,52887,2,0,L|337:136,1,100.000003814697
143,190,53158,5,0,0:0:0:0:
256,43,55185,5,12,0:0:0:0:
228,227,55320,1,0,0:0:0:0:
379,118,55455,1,0,0:0:0:0:
165,118,55590,2,0,B|293:146|293:146|385:263,1,266.666666666667
335,43,55995,5,8,0:0:0:0:
228,227,56131,1,0,0:0:0:0:
166,22,56266,1,0,0:0:0:0:
333,193,56401,2,0,P|254:115|122:205,1,266.666666666667
373,283,56806,5,8,0:0:0:0:
256,43,56941,1,0,0:0:0:0:
139,283,57077,1,0,0:0:0:0:
390,131,57212,2,0,B|256:150|256:150|116:127,1,266.666666666667
478,36,57617,2,0,P|517:120|419:260,1,266.666666666667,8|0,0:0|0:0,0:0:0:0:
255,23,58022,5,0,0:0:0:0:
257,317,58158,1,0,0:0:0:0:
424,75,58293,1,0,0:0:0:0:
178,177,58428,5,8,0:0:0:0:
424,280,58563,1,0,0:0:0:0:
252,76,58698,1,0,0:0:0:0:
299,270,58833,1,0,0:0:0:0:
345,75,58968,1,0,0:0:0:0:
299,270,59104,1,0,0:0:0:0:
178,32,59239,5,8,0:0:0:0:
416,150,59374,1,0,0:0:0:0:
178,271,59509,1,0,0:0:0:0:
292,107,59644,1,0,0:0:0:0:
99,159,59779,1,0,0:0:0:0:
292,107,59914,1,0,0:0:0:0:
88,281,60050,5,8,0:0:0:0:
154,23,60185,1,0,0:0:0:0:
248,272,60320,1,0,0:0:0:0:
314,14,60455,1,0,0:0:0:0:
65,110,60590,1,0,0:0:0:0:
323,175,60725,1,0,0:0:0:0:
74,271,60860,6,0,B|53:195|65:110|65:110|96:166,1,200,8|0,0:0|0:0,0:0:0:0:
140,207,61131,6,0,B|169:192|169:192|185:208|185:208|201:192|201:192|217:208|217:208|233:192|233:192|249:208|249:208|265:192|265:192|281:208|281:208|313:184,1,200
354,150,61401,6,0,B|372:117|372:117|383:202|363:278,1,200
316,338,61671,5,8,0:0:0:0:
254,161,61806,1,0,0:0:0:0:
196,338,61941,1,0,0:0:0:0:
383,232,62077,2,0,B|325:185|255:162|255:162|192:184|134:170,1,266.666666666667
292,25,62482,5,8,0:0:0:0:
255,235,62617,1,0,0:0:0:0:
152,48,62752,1,0,0:0:0:0:
379,125,62887,2,0,B|290:138|240:114|240:114|194:139|194:139|82:147,1,266.666666666667
369,43,63293,5,8,0:0:0:0:
121,144,63428,1,0,0:0:0:0:
369,240,63563,1,0,0:0:0:0:
152,48,63698,6,0,B|127:98|125:146|125:146|154:227|167:333,1,266.666666666667
360,48,64104,2,0,B|384:98|387:146|387:146|357:227|345:333,1,266.666666666667,8|0,0:0|0:0,0:0:0:0:
255,128,64509,1,0,0:0:0:0:
253,327,64644,1,0,0:0:0:0:
255,128,64779,1,0,0:0:0:0:
90,370,64914,5,8,0:0:0:0:
372,278,65050,1,0,0:0:0:0:
90,194,65185,1,0,0:0:0:0:
453,279,65320,2,0,B|372:277|372:277|287:248|198:177,1,266.666666666667
444,361,65725,5,8,0:0:0:0:
338,89,65860,1,0,0:0:0:0:
256,370,65995,1,0,0:0:0:0:
338,89,66131,1,0,0:0:0:0:
89,245,66266,1,0,0:0:0:0:
378,294,66401,1,0,0:0:0:0:
46,128,66536,1,4,0:3:0:0:
256,63,66941,5,0,0:0:0:0:
256,63,67077,2,0,B|248:88|248:88|256:96|256:96|248:104|248:104|256:112|256:112|248:120|248:120|256:128|256:128|248:136|248:136|256:144|256:144|248:152|248:152|256:160|256:160|256:200,1,133.333333333333
165,17,67347,1,0,0:0:0:0:
164,112,67617,1,0,0:0:0:0:
164,112,67752,2,0,P|179:180|125:106,1,266.666666666667
297,34,68158,5,12,0:0:0:0:
286,220,68293,1,0,0:0:0:0:
297,34,68428,1,0,0:0:0:0:
207,227,68563,2,0,P|127:233|203:149,1,266.666666666667
389,245,68968,5,8,0:0:0:0:
189,324,69104,1,0,0:0:0:0:
389,245,69239,1,0,0:0:0:0:
149,256,69374,2,0,B|189:323|189:323|229:233|226:132,1,266.666666666667
51,340,69779,5,8,0:0:0:0:
88,76,69914,1,0,0:0:0:0:
51,340,70050,1,0,0:0:0:0:
209,93,70185,6,0,P|147:185|-8:151,1,266.666666666667
303,93,70590,2,0,P|365:185|520:151,1,266.666666666667,8|0,0:0|0:0,0:0:0:0:
257,11,70995,5,0,0:0:0:0:
255,308,71131,1,0,0:0:0:0:
257,11,71266,1,0,0:0:0:0:
155,257,71401,5,8,0:0:0:0:
352,77,71536,1,0,0:0:0:0:
338,343,71671,1,0,0:0:0:0:
250,163,71806,1,0,0:0:0:0:
421,265,71941,1,0,0:0:0:0:
250,163,72077,1,0,0:0:0:0:
430,358,72212,5,8,0:0:0:0:
374,97,72347,1,0,0:0:0:0:
255,335,72482,1,0,0:0:0:0:
385,183,72617,1,0,0:0:0:0:
345,378,72752,1,0,0:0:0:0:
385,183,72887,1,0,0:0:0:0:
169,339,73022,5,8,0:0:0:0:
256,85,73158,1,0,0:0:0:0:
343,339,73293,1,0,0:0:0:0:
122,189,73428,1,0,0:0:0:0:
343,45,73563,1,0,0:0:0:0:
254,296,73698,1,0,0:0:0:0:
169,45,73833,6,0,B|164:97|164:97|122:190|122:190|123:257,1,200,8|0,0:0|0:0,0:0:0:0:
207,296,74104,6,0,B|252:295|252:295|345:337|345:337|397:342,1,200
468,270,74374,6,0,B|468:224|468:224|426:131|426:131|421:79,1,200
396,8,74644,5,8,0:0:0:0:
339,185,74779,1,0,0:0:0:0:
504,98,74914,1,0,0:0:0:0:
289,83,75050,2,0,B|208:91|156:76|156:76|121:123|20:153,1,266.666666666667
211,11,75455,5,8,0:0:0:0:
167,219,75590,1,0,0:0:0:0:
57,36,75725,1,0,0:0:0:0:
254,171,75860,2,0,P|261:254|108:298,1,266.666666666667
223,56,76266,5,8,0:0:0:0:
111,300,76401,1,0,0:0:0:0:
35,44,76536,1,0,0:0:0:0:
256,238,76671,6,0,P|334:225|222:164,1,266.666666666667
107,180,77077,6,0,P|14:243|111:300,1,266.666666666667,8|0,0:0|0:0,0:0:0:0:
160,282,77414,1,0,0:0:0:0:
194,250,77481,1,0,0:0:0:0:
219,211,77549,1,0,0:0:0:0:
234,167,77617,2,0,P|249:96|239:29,1,133.333333333333
324,188,77887,5,8,0:0:0:0:
168,111,78022,1,0,0:0:0:0:
332,54,78158,1,0,0:0:0:0:
259,211,78293,1,0,0:0:0:0:
234,39,78428,1,0,0:0:0:0:
166,198,78563,1,0,0:0:0:0:
342,139,78698,5,8,0:0:0:0:
94,173,78833,1,0,0:0:0:0:
414,164,78968,1,0,0:0:0:0:
49,112,79104,1,0,0:0:0:0:
459,225,79239,1,0,0:0:0:0:
31,37,79374,1,0,0:0:0:0:
477,300,79509,1,8,0:0:0:0:
162,154,81131,6,0,B|162:199|162:199|144:265,1,83.3333333333333,8|0,0:0|0:0,0:0:0:0:
43,109,81401,1,0,0:0:0:0:
192,36,81536,2,0,P|125:60|43:12,1,166.666666666667
282,35,81941,2,0,B|256:91|256:91|251:226,1,166.666666666667,8|0,0:0|0:0,0:0:0:0:
381,89,82347,5,0,0:0:0:0:
386,255,82482,1,0,0:0:0:0:
451,158,82617,1,0,0:0:0:0:
306,241,82752,1,8,0:0:0:0:
303,74,82887,1,0,0:0:0:0:
303,74,82955,1,0,0:0:0:0:
303,74,83022,1,0,0:0:0:0:
365,173,83158,1,0,0:0:0:0:
212,105,83293,1,0,0:0:0:0:
227,338,83428,5,0,0:0:0:0:
212,105,83563,1,8,0:0:0:0:
135,330,83698,1,0,0:0:0:0:
289,154,83833,1,0,0:0:0:0:
75,261,83968,2,0,P|54:190|76:84,1,166.666666666667
212,15,84374,5,8,0:0:0:0:
186,179,84509,1,0,0:0:0:0:
303,74,84644,1,0,0:0:0:0:
303,74,84712,1,0,0:0:0:0:
303,74,84779,6,0,P|364:65|406:76,1,83.3333333333333
457,219,85050,1,0,0:0:0:0:
484,54,85185,2,0,L|471:152,1,83.3333333333333,8|0,0:0|0:0,0:0:0:0:
317,196,85455,1,0,0:0:0:0:
400,51,85590,2,0,L|387:149,1,83.3333333333333
348,295,85860,2,0,L|373:260,1,41.6666666666667
457,219,85995,6,0,P|406:174|305:213,1,166.666666666667,8|0,0:0|0:0,0:0:0:0:
190,306,86401,2,0,P|146:320|90:314,1,83.3333333333333
133,154,86671,1,0,0:0:0:0:
259,350,86806,5,8,0:0:0:0:
217,187,86941,1,0,0:0:0:0:
139,336,87077,1,0,0:0:0:0:
306,173,87212,2,0,P|270:113|173:110,1,166.666666666667
292,270,87617,6,0,B|341:279|341:279|489:244,1,166.666666666667,8|0,0:0|0:0,0:0:0:0:
385,100,88022,1,0,0:0:0:0:
245,192,88158,1,0,0:0:0:0:
310,39,88293,2,0,L|309:91,1,41.6666666666667
292,270,88428,6,0,B|273:224|245:192|245:192|253:157|228:94,1,166.666666666667,8|0,0:0|0:0,0:0:0:0:
128,179,88833,2,0,B|111:217|119:252|119:252|90:285|72:330,1,166.666666666667
34,165,89239,2,0,P|77:95|171:91,1,166.666666666667,8|0,0:0|0:0,0:0:0:0:
309,148,89644,6,0,B|351:156|351:156|416:152,1,83.3333333333333
254,58,89914,1,0,0:0:0:0:
295,230,90050,2,0,L|311:135,1,83.3333333333333,8|0,0:0|0:0,0:0:0:0:
142,134,90320,2,0,L|147:193,1,41.6666666666667
172,297,90455,2,0,L|185:379,1,83.3333333333333
201,213,90725,1,0,0:0:0:0:
54,362,90860,6,0,P|29:305|60:192,1,166.666666666667,8|0,0:0|0:0,0:0:0:0:
181,101,91266,2,0,P|238:75|351:107,1,166.666666666667
462,205,91671,2,0,P|485:284|458:362,1,166.666666666667,8|0,0:0|0:0,0:0:0:0:
335,247,92077,2,0,P|256:269|178:242,1,166.666666666667
70,116,92482,5,8,0:0:0:0:
84,281,92617,1,0,0:0:0:0:
185,148,92752,1,0,0:0:0:0:
0,240,92887,5,0,0:0:0:0:
189,326,93022,1,0,0:0:0:0:
92,139,93158,1,0,0:0:0:0:
272,311,93293,5,8,0:0:0:0:
195,74,93428,1,0,0:0:0:0:
122,312,93563,1,0,0:0:0:0:
346,126,93698,6,0,P|378:128|335:144,1,125.000004768372
298,135,94104,6,0,P|219:113|165:119,1,100.000003814697,12|0,0:0|0:0,0:0:0:0:
395,160,94374,1,0,0:0:0:0:
258,304,94509,2,0,P|316:246|338:196,1,100.000003814697
187,376,94779,1,0,0:0:0:0:
131,184,94914,2,0,P|151:263|183:307,1,100.000003814697,8|0,0:0|0:0,0:0:0:0:
255,101,95185,1,0,0:0:0:0:
351,278,95320,2,0,P|373:233|381:184,1,100.000003814697
256,340,95590,1,0,0:0:0:0:
193,150,95725,6,0,P|175:94|194:50,1,100.000003814697,8|0,0:0|0:0,0:0:0:0:
255,245,95995,1,0,0:0:0:0:
323,57,96131,2,0,P|337:104|319:150,1,100.000003814697
136,230,96401,1,0,0:0:0:0:
351,278,96536,2,0,P|396:296|443:282,1,100.000003814697,8|0,0:0|0:0,0:0:0:0:
256,213,96806,1,0,0:0:0:0:
68,282,96941,2,0,P|115:296|161:278,1,100.000003814697
255,100,97212,1,0,0:0:0:0:
258,350,97347,6,0,P|256:283|361:216,1,200.000007629395,8|0,0:0|0:0,0:0:0:0:
463,322,97752,1,0,0:0:0:0:
426,176,97887,1,0,0:0:0:0:
359,310,98022,1,0,0:0:0:0:
370,109,98158,6,0,P|422:88|470:101,1,100.000003814697,8|0,0:0|0:0,0:0:0:0:
290,197,98428,1,0,0:0:0:0:
158,46,98563,2,0,P|113:25|64:34,1,100.000003814697
88,232,98833,1,0,0:0:0:0:
237,99,98968,2,0,L|314:28,1,100.000003814697,8|0,0:0|0:0,0:0:0:0:
193,194,99239,1,0,0:0:0:0:
310,352,99374,2,0,L|237:285,1,100.000003814697
414,193,99644,1,0,0:0:0:0:
124,121,99779,5,8,0:0:0:0:
295,223,99914,1,0,0:0:0:0:
237,99,100050,1,0,0:0:0:0:
193,194,100185,1,0,0:0:0:0:
345,118,100320,1,0,0:0:0:0:
115,226,100455,1,0,0:0:0:0:
426,73,100590,6,0,P|436:141|410:183,1,100.000003814697,8|0,0:0|0:0,0:0:0:0:
256,57,100860,1,0,0:0:0:0:
88,167,100995,2,0,P|73:120|86:73,1,100.000003814697
256,180,101266,1,0,0:0:0:0:
116,322,101401,6,0,B|62:334|62:334|11:335,1,100.000003814697,8|0,0:0|0:0,0:0:0:0:
140,177,101671,1,0,0:0:0:0:
332,229,101806,2,0,B|369:269|369:269|395:313,1,100.000003814697
194,280,102076,1,0,0:0:0:0:
120,92,102212,2,0,B|136:39|136:39|161:-5,1,100.000003814697,8|0,0:0|0:0,0:0:0:0:
233,186,102482,1,0,0:0:0:0:
22,120,102617,5,0,0:0:0:0:
141,304,102752,1,0,0:0:0:0:
174,86,102887,1,0,0:0:0:0:
53,359,103022,5,8,0:0:0:0:
332,241,103158,1,0,0:0:0:0:
48,145,103293,1,0,0:0:0:0:
345,330,103428,6,0,P|408:275|332:241,1,200.000007629395
141,304,103833,1,8,0:0:0:0:
254,139,103968,1,0,0:0:0:0:
254,340,104104,1,0,0:0:0:0:
106,139,104239,2,0,B|149:165|174:211|174:211|216:238|280:244,1,200.000007629395
442,64,104644,5,8,0:0:0:0:
386,255,104779,1,0,0:0:0:0:
308,70,104914,1,0,0:0:0:0:
478,176,105050,1,0,0:0:0:0:
279,195,105185,1,0,0:0:0:0:
478,176,105320,1,0,0:0:0:0:
208,125,105455,5,8,0:0:0:0:
189,149,106266,6,0,L|168:357,2,200.000007629395
189,149,107077,5,8,0:0:0:0:
211,149,108698,6,0,P|202:205|148:132,1,200
374,140,109509,2,0,P|345:216|301:149,1,200
256,8,110320,1,8,0:0:0:0:
43,219,111941,6,0,B|137:238|137:238|256:220,1,200
469,219,112752,2,0,B|375:238|375:238|272:222,1,200
256,16,113563,2,0,L|256:224,1,200
256,368,114374,2,0,L|256:160,1,200
42,157,115185,6,0,P|51:223|96:103,1,400,8|0,0:0|0:0,0:0:0:0:
31,27,116401,5,0,0:0:0:0:
31,27,116536,1,0,0:0:0:0:
31,27,116671,1,0,0:0:0:0:
31,27,116806,6,0,B|79:52|189:32|189:32|250:48,1,200
307,153,117482,1,0,0:0:0:0:
307,153,117617,2,0,B|259:178|149:158|149:158|88:174,1,200
111,291,118293,1,0,0:0:0:0:
111,291,118428,6,0,B|176:303|176:303|242:289|242:289|314:298,1,200,8|0,0:0|0:0,0:0:0:0:
354,105,119104,1,0,0:0:0:0:
354,105,119239,2,0,P|320:137|219:127,1,133.333333333333
158,18,119644,2,0,P|192:50|293:40,1,133.333333333333
441,17,120050,6,0,L|423:95,1,66.6666666666667
379,187,120387,2,0,B|309:232|309:232|215:251,1,166.666666666667
113,91,120928,2,0,B|165:133|165:133|248:152,1,133.333333333333
333,36,121333,2,0,P|348:89|329:142,1,100
179,191,121671,6,0,P|101:210|14:157,1,166.666666666667,8|0,0:0|0:0,0:0:0:0:
186,123,122077,2,0,P|208:45|297:-2,1,166.666666666667
241,163,122482,2,0,P|296:221|294:322,1,166.666666666667
136,323,122887,1,0,0:0:0:0:
202,271,123022,1,0,0:0:0:0:
34,272,123158,1,0,0:0:0:0:
100,220,123293,6,0,B|123:181|155:161|155:161|194:151|247:113,1,166.666666666667,8|0,0:0|0:0,0:0:0:0:
380,50,123698,2,0,B|401:89|403:127|403:127|392:165|398:231,1,166.666666666667
387,377,124104,2,0,B|342:375|308:358|308:358|280:329|221:302,1,166.666666666667
133,181,124509,1,0,0:0:0:0:
130,347,124644,1,0,0:0:0:0:
18,223,124779,1,0,0:0:0:0:
181,252,124914,6,0,P|210:218|174:105,1,166.666666666667,8|0,0:0|0:0,0:0:0:0:
299,229,125320,2,0,P|333:258|446:222,1,166.666666666667
370,33,125725,2,0,P|333:104|370:176,1,166.666666666667
262,47,126131,1,0,0:0:0:0:
418,106,126266,1,0,0:0:0:0:
257,149,126401,1,0,0:0:0:0:
96,106,126536,6,0,P|80:188|121:271,1,166.666666666667,8|0,0:0|0:0,0:0:0:0:
401,261,126941,2,0,P|434:186|418:106,1,166.666666666667
221,258,127347,2,0,B|256:333|256:333|296:244,1,166.666666666667
291,126,127752,2,0,B|256:51|256:51|216:140,1,166.666666666667
133,303,128158,6,0,L|172:383,1,83.3333333333333,8|0,0:0|0:0,0:0:0:0:
147,212,128428,1,0,0:0:0:0:
66,357,128563,2,0,P|39:296|68:175,1,166.666666666667
215,98,128968,2,0,P|154:109|119:99,1,83.3333333333333
270,6,129239,2,0,B|302:45|302:45|300:167,1,166.666666666667
255,321,129644,1,0,0:0:0:0:
436,192,129779,6,0,P|384:239|276:235,1,166.666666666667,8|0,0:0|0:0,0:0:0:0:
76,192,130185,2,0,P|128:239|236:235,1,166.666666666667
179,60,130590,2,0,L|164:159,1,83.3333333333333
256,2,130860,6,0,P|178:39|12:-4,1,250
76,192,131401,6,0,P|106:280|76:371,1,166.666666666667,8|0,0:0|0:0,0:0:0:0:
180,210,131806,1,0,0:0:0:0:
255,358,131941,1,0,0:0:0:0:
332,210,132077,1,0,0:0:0:0:
422,349,132212,2,0,P|406:268|436:192,1,166.666666666667
335,59,132617,2,0,P|256:81|176:59,1,166.666666666667
75,191,133022,2,0,P|105:268|89:349,1,166.666666666667,8|0,0:0|0:0,0:0:0:0:
1,280,133428,5,0,0:0:0:0:
180,193,134644,6,0,B|209:293|209:293|276:370,1,200.000007629395,12|0,0:0|0:0,0:0:0:0:
283,164,135050,2,0,B|181:139|181:139|81:158,1,200.000007629395
256,267,135455,2,0,B|328:191|328:191|361:95,1,200.000007629395,8|0,0:0|0:0,0:0:0:0:
163,61,135860,5,0,0:0:0:0:
138,61,135927,1,0,0:0:0:0:
120,78,135995,1,0,0:0:0:0:
117,102,136062,1,0,0:0:0:0:
132,122,136130,1,0,0:0:0:0:
155,128,136197,1,0,0:0:0:0:
177,116,136266,6,0,P|266:86|382:129,1,200.000007629395,8|0,0:0|0:0,0:0:0:0:
271,319,136671,2,0,B|271:198|271:198|313:282,1,200.000007629395
118,341,137077,2,0,L|117:134,1,200.000007629395,8|0,0:0|0:0,0:0:0:0:
264,6,137482,1,0,0:0:0:0:
70,56,137617,1,0,0:0:0:0:
262,108,137752,1,0,0:0:0:0:
10,6,137887,6,0,B|34:41|69:55|69:55|133:50|202:61,1,200.000007629395,8|0,0:0|0:0,0:0:0:0:
358,171,138293,2,0,B|333:206|299:220|299:220|234:215|166:226,1,200.000007629395
445,101,138698,2,0,P|470:166|390:280,1,200.000007629395,8|0,0:0|0:0,0:0:0:0:
207,272,139104,5,0,0:0:0:0:
183,264,139171,1,0,0:0:0:0:
162,251,139239,1,0,0:0:0:0:
145,233,139306,1,0,0:0:0:0:
132,212,139374,1,0,0:0:0:0:
125,188,139441,1,0,0:0:0:0:
124,163,139509,6,0,B|172:133|186:84|186:84|232:84|289:40,1,200.000007629395,8|0,0:0|0:0,0:0:0:0:
469,4,139914,2,0,B|470:60|506:97|506:97|483:137|493:208,1,200.000007629395
434,382,140320,2,0,B|384:355|334:367|334:367|311:327|244:300,1,200.000007629395,8|0,0:0|0:0,0:0:0:0:
98,190,140725,1,0,0:0:0:0:
163,378,140860,1,0,0:0:0:0:
237,192,140995,1,0,0:0:0:0:
37,314,141131,6,0,B|99:304|124:284|124:284|168:276|234:288,1,200.000007629395,8|0,0:0|0:0,0:0:0:0:
430,218,141536,2,0,B|367:208|343:188|343:188|298:180|233:192,1,200.000007629395
66,85,141941,1,8,0:0:0:0:
181,249,142077,1,0,0:0:0:0:
167,49,142212,2,0,P|167:122|34:188,1,200.000007629395
4,4,142617,1,0,0:0:0:0:
255,29,142752,6,0,B|257:97|257:97|314:241,1,200.000007629395,8|0,0:0|0:0,0:0:0:0:
492,146,143158,2,0,B|490:214|490:214|433:358,1,200.000007629395
380,146,143563,2,0,B|372:94|372:94|381:19,1,100.000003814697,8|0,0:0|0:0,0:0:0:0:
297,229,143833,2,0,P|253:263|224:156,1,200.000007629395
342,16,144239,1,0,0:0:0:0:
105,134,144374,6,0,P|87:205|141:325,1,200.000007629395,8|0,0:0|0:0,0:0:0:0:
407,134,144779,2,0,P|425:205|371:325,1,200.000007629395
164,70,145185,2,0,P|230:40|358:73,1,200.000007629395,8|0,0:0|0:0,0:0:0:0:
256,200,145590,2,0,L|256:308,2,100.000003814697
164,70,145995,5,0,0:0:0:0:
256,200,146401,5,0,0:0:0:0:
348,70,146806,6,0,L|348:277,1,200.000007629395,2|0,0:0|0:0,0:0:0:0:
204,97,150860,5,12,0:0:0:0:
220,282,150995,1,0,0:0:0:0:
204,97,151131,1,0,0:0:0:0:
310,281,151266,2,0,P|248:195|128:281,1,266.666666666667
315,367,151671,5,8,0:0:0:0:
130,262,151806,1,0,0:0:0:0:
331,191,151941,1,0,0:0:0:0:
167,368,152077,2,0,B|140:322|134:266|134:266|156:197|159:94,1,266.666666666667
254,358,152482,5,8,0:0:0:0:
158,109,152617,1,0,0:0:0:0:
65,358,152752,1,0,0:0:0:0:
298,183,152887,2,0,P|229:255|44:220,1,266.666666666667
388,51,153293,2,0,B|396:133|371:183|371:183|394:236|388:350,1,266.666666666667,8|0,0:0|0:0,0:0:0:0:
257,53,153698,5,0,0:0:0:0:
389,312,153833,1,0,0:0:0:0:
127,191,153968,1,0,0:0:0:0:
395,185,154104,5,8,0:0:0:0:
181,344,154239,1,0,0:0:0:0:
256,88,154374,1,0,0:0:0:0:
256,287,154509,1,0,0:0:0:0:
351,111,154644,1,0,0:0:0:0:
256,287,154779,1,0,0:0:0:0:
322,29,154914,5,8,0:0:0:0:
418,279,155050,1,0,0:0:0:0:
193,135,155185,1,0,0:0:0:0:
380,204,155320,1,0,0:0:0:0:
186,254,155455,1,0,0:0:0:0:
380,204,155590,1,0,0:0:0:0:
113,193,155725,5,8,0:0:0:0:
353,307,155860,1,0,0:0:0:0:
195,92,155995,1,0,0:0:0:0:
216,357,156130,1,0,0:0:0:0:
324,111,156266,1,0,0:0:0:0:
105,261,156401,1,0,0:0:0:0:
369,233,156536,6,0,P|429:163|426:27,1,200,8|0,0:0|0:0,0:0:0:0:
324,111,156806,6,0,L|113:111,1,200
5,59,157077,6,0,P|11:157|73:233,1,200
105,261,157347,5,8,0:0:0:0:
172,87,157482,1,0,0:0:0:0:
224,265,157617,1,0,0:0:0:0:
246,53,157752,2,0,P|265:131|431:171,1,266.666666666667
298,1,158158,5,8,0:0:0:0:
202,191,158293,1,0,0:0:0:0:
390,91,158428,1,0,0:0:0:0:
224,265,158563,2,0,P|147:244|216:115,1,266.666666666667
324,352,158968,5,8,0:0:0:0:
272,88,159104,1,0,0:0:0:0:
474,260,159239,1,0,0:0:0:0:
180,237,159374,2,0,B|111:161|150:30|150:30|164:86,1,266.666666666667
332,237,159779,2,0,B|401:161|362:30|362:30|348:86,1,266.666666666667,8|0,0:0|0:0,0:0:0:0:
255,253,160185,5,0,0:0:0:0:
255,53,160320,1,0,0:0:0:0:
255,253,160455,1,0,0:0:0:0:
400,0,160590,5,8,0:0:0:0:
147,149,160725,1,0,0:0:0:0:
400,0,160860,1,0,0:0:0:0:
48,118,160995,2,0,B|94:141|146:147|146:147|230:128|316:134,1,266.666666666667
34,27,161401,5,8,0:0:0:0:
164,291,161536,1,0,0:0:0:0:
215,3,161671,1,0,0:0:0:0:
5,207,161806,1,0,0:0:0:0:
294,164,161941,1,0,0:0:0:0:
5,207,162077,1,0,0:0:0:0:
356,80,162212,1,8,0:0:0:0:
256,63,162617,5,0,0:0:0:0:
256,63,162753,2,0,B|264:88|264:88|256:96|256:96|264:104|264:104|256:112|256:112|264:120|264:120|256:128|256:128|264:136|264:136|256:144|256:144|264:152|264:152|256:160|256:160|256:200,1,133.333333333333
347,17,163023,1,0,0:0:0:0:
348,112,163293,1,0,0:0:0:0:
348,112,163428,2,0,P|333:180|387:106,1,266.666666666667
216,33,163833,5,12,0:0:0:0:
255,215,163968,1,0,0:0:0:0:
216,33,164104,1,0,0:0:0:0:
176,242,164239,2,0,P|257:300|316:158,1,266.666666666667
122,165,164644,5,8,0:0:0:0:
334,187,164779,1,0,0:0:0:0:
174,45,164914,1,0,0:0:0:0:
235,278,165050,2,0,B|260:213|254:140|254:140|307:102|307:102|348:32,1,266.666666666667
382,312,165455,5,8,0:0:0:0:
142,196,165590,1,0,0:0:0:0:
401,136,165725,1,0,0:0:0:0:
197,348,165860,2,0,B|63:361|63:361|187:290,1,266.666666666667
401,259,166266,2,0,B|515:324|515:324|381:311,1,266.666666666667,8|0,0:0|0:0,0:0:0:0:
141,147,166671,5,0,0:0:0:0:
381,311,166806,1,0,0:0:0:0:
257,53,166941,1,0,0:0:0:0:
255,321,167077,5,8,0:0:0:0:
257,53,167212,1,0,0:0:0:0:
255,321,167347,1,0,0:0:0:0:
193,130,167482,1,0,0:0:0:0:
365,231,167617,1,0,0:0:0:0:
193,130,167752,1,0,0:0:0:0:
353,342,167887,5,8,0:0:0:0:
342,75,168022,1,0,0:0:0:0:
353,342,168158,1,0,0:0:0:0:
407,149,168293,1,0,0:0:0:0:
261,285,168428,1,0,0:0:0:0:
407,149,168563,1,0,0:0:0:0:
143,131,168698,5,8,0:0:0:0:
343,294,168833,1,0,0:0:0:0:
277,44,168969,1,0,0:0:0:0:
184,286,169104,1,0,0:0:0:0:
401,144,169239,1,0,0:0:0:0:
143,131,169374,1,0,0:0:0:0:
343,294,169509,6,0,B|437:253|437:253|506:164,1,200,8|0,0:0|0:0,0:0:0:0:
401,144,169779,6,0,P|309:184|178:142,1,200
143,131,170050,6,0,B|202:208|202:208|296:249,1,200
328,256,170320,5,8,0:0:0:0:
256,83,170455,1,0,0:0:0:0:
184,256,170590,1,0,0:0:0:0:
332,103,170725,5,0,0:0:0:0:
254,301,170860,1,0,0:0:0:0:
180,103,170995,1,0,0:0:0:0:
338,285,171131,5,8,0:0:0:0:
258,58,171266,1,0,0:0:0:0:
174,285,171401,1,0,0:0:0:0:
338,75,171536,5,0,0:0:0:0:
256,328,171671,1,0,0:0:0:0:
174,75,171806,1,0,0:0:0:0:
327,327,171941,5,8,0:0:0:0:
254,40,172077,1,0,0:0:0:0:
185,327,172212,1,0,0:0:0:0:
363,61,172347,5,0,0:0:0:0:
257,363,172482,1,0,0:0:0:0:
149,61,172617,1,0,0:0:0:0:
425,270,172752,5,8,0:0:0:0:
88,195,172887,1,0,0:0:0:0:
425,114,173022,1,0,0:0:0:0:
113,270,173158,5,0,0:0:0:0:
450,195,173293,1,0,0:0:0:0:
113,114,173428,1,0,0:0:0:0:
436,300,173563,5,8,0:0:0:0:
163,46,173698,1,0,0:0:0:0:
357,364,173833,1,0,0:0:0:0:
247,7,173968,1,0,0:0:0:0:
256,384,174104,1,0,0:0:0:0:
339,19,174239,1,0,0:0:0:0:
161,349,174374,1,8,0:0:0:0:
415,74,174509,1,0,0:0:0:0:
100,271,174644,1,0,0:0:0:0:
457,159,174779,1,0,0:0:0:0:
84,174,174914,1,0,0:0:0:0:
449,255,175049,1,0,0:0:0:0:
96,90,175185,6,0,B|114:37|114:37|141:3|261:8|261:8|214:55|214:55|197:53|197:53|195:71|195:71|209:79|209:79|194:89|194:89|202:106|202:106|188:114|188:114|198:129|198:129|183:138|183:138|192:154|192:154|181:156|181:156|188:160|188:160|177:163|177:163|184:167|184:167|173:170|173:170|180:174|180:174|169:177|169:177|176:181|176:181|165:184|165:184|172:188|172:188|165:191|165:191|170:195|170:195|159:208|176:248,1,575.00002193451,2|0,0:0|0:0,0:0:0:0:
213,289,176806,5,12,0:0:0:0:
293,91,176941,1,0,0:0:0:0:
362,294,177077,1,0,0:0:0:0:
164,157,177212,2,0,P|250:230|426:149,1,266.666666666667
217,32,177617,5,8,0:0:0:0:
152,262,177752,1,0,0:0:0:0:
350,127,177887,1,0,0:0:0:0:
83,141,178022,2,0,B|118:156|163:157|163:157|239:206|308:281,1,266.666666666667
133,35,178428,5,8,0:0:0:0:
137,328,178563,1,0,0:0:0:0:
306,88,178698,1,0,0:0:0:0:
11,210,178833,2,0,B|106:215|171:199|171:199|212:229|212:229|325:263,1,266.666666666667
19,353,179239,5,8,0:0:0:0:
94,97,179374,1,0,0:0:0:0:
184,347,179509,1,0,0:0:0:0:
36,47,179644,2,0,B|96:98|96:98|290:99,1,266.666666666667
506,0,180050,5,8,0:0:0:0:
322,32,180185,1,0,0:0:0:0:
471,127,180320,1,0,0:0:0:0:
245,45,180455,5,0,0:0:0:0:
354,258,180590,1,0,0:0:0:0:
245,45,180725,1,0,0:0:0:0:
272,242,180860,5,8,0:0:0:0:
389,80,180995,1,0,0:0:0:0:
202,155,181131,1,0,0:0:0:0:
459,224,181266,5,0,0:0:0:0:
211,321,181401,1,0,0:0:0:0:
459,224,181536,1,0,0:0:0:0:
296,165,181671,5,8,0:0:0:0:
344,303,181806,1,0,0:0:0:0:
352,114,181941,1,0,0:0:0:0:
293,357,182077,1,0,0:0:0:0:
418,77,182212,1,0,0:0:0:0:
222,381,182347,1,0,0:0:0:0:
488,49,182482,6,0,B|489:115|489:115|432:280,1,200,8|0,0:0|0:0,0:0:0:0:
375,274,182752,6,0,B|314:271|280:253|280:253|245:274|133:280,1,200
106,262,183022,6,0,B|62:135|62:135|63:69,1,200
91,32,183293,5,8,0:0:0:0:
285,118,183428,1,0,0:0:0:0:
91,32,183563,1,0,0:0:0:0:
249,212,183698,2,0,P|330:208|333:30,1,266.666666666667
128,119,184104,5,8,0:0:0:0:
360,52,184239,1,0,0:0:0:0:
174,204,184374,1,0,0:0:0:0:
426,119,184509,2,0,P|337:142|303:-10,1,266.666666666667
500,208,184914,5,8,0:0:0:0:
290,4,185050,1,0,0:0:0:0:
376,281,185185,1,0,0:0:0:0:
290,4,185320,2,0,P|304:124|426:119,1,266.666666666667
172,36,185725,6,0,P|176:116|213:175,1,133.333333333333,8|0,0:0|0:0,0:0:0:0:
241,185,185928,1,0,0:0:0:0:
283,202,185995,1,0,0:0:0:0:
313,238,186063,1,0,0:0:0:0:
328,282,186131,1,0,0:0:0:0:
322,327,186198,1,0,0:0:0:0:
297,367,186266,2,0,P|221:374|156:338,1,133.333333333333
208,181,186536,5,8,0:0:0:0:
71,287,186671,1,0,0:0:0:0:
115,119,186806,1,0,0:0:0:0:
210,263,186941,1,0,0:0:0:0:
254,95,187076,1,0,0:0:0:0:
166,198,187212,1,0,0:0:0:0:
342,139,187347,5,8,0:0:0:0:
94,173,187482,1,0,0:0:0:0:
414,164,187617,1,0,0:0:0:0:
49,112,187753,1,0,0:0:0:0:
459,225,187888,1,0,0:0:0:0:
31,37,188023,1,0,0:0:0:0:
477,300,188158,1,8,0:0:0:0:
147,162,189779,6,0,P|212:212|277:186,1,133.333333333333
247,0,190185,2,0,L|220:131,1,133.333333333333
337,68,190590,2,0,B|320:136|320:136|338:205,1,133.333333333333,8|0,0:0|0:0,0:0:0:0:
442,276,190995,2,0,P|383:262|302:300,1,133.333333333333
185,316,191401,6,0,L|163:162,1,133.333333333333
266,96,191806,2,0,L|247:227,1,133.333333333333
173,115,192212,2,0,P|100:108|49:145,1,133.333333333333,8|0,0:0|0:0,0:0:0:0:
79,270,192617,1,0,0:0:0:0:
192,200,192752,1,0,0:0:0:0:
79,270,192887,1,0,0:0:0:0:
258,261,193022,6,0,B|275:197|275:197|256:123,1,133.333333333333
370,130,193428,2,0,B|353:195|353:195|370:259,1,133.333333333333
458,108,193833,2,0,P|416:50|335:46,1,133.333333333333,8|0,0:0|0:0,0:0:0:0:
224,39,194239,2,0,P|160:53|124:107,1,133.333333333333
140,145,194577,1,0,0:0:0:0:
156,181,194644,6,0,P|168:233|160:268,1,66.6666666666667
254,145,194914,1,0,0:0:0:0:
345,245,195050,2,0,P|345:212|398:110,1,133.333333333333
471,224,195455,2,0,P|504:281|510:347,1,133.333333333333,8|0,0:0|0:0,0:0:0:0:
378,334,195860,2,0,B|310:327|310:327|216:342,1,133.333333333333
116,300,196266,5,0,0:0:0:0:
185,140,196536,5,0,0:0:0:0:
197,272,196671,1,0,0:0:0:0:
339,170,196941,5,0,0:0:0:0:
219,231,197077,1,8,0:0:0:0:
256,63,197347,5,0,0:0:0:0:
376,124,197483,1,0,0:0:0:0:
185,140,197752,5,0,0:0:0:0:
185,140,197887,2,0,P|135:150|161:83,1,133.333333333333
373,86,198293,2,0,P|384:143|327:140,1,133.333333333333
255,2,198698,1,8,0:0:0:0:
266,17,199104,6,0,L|265:169,1,133.333333333333
250,198,199509,5,0,0:0:0:0:
125,93,199779,5,0,0:0:0:0:
138,225,199914,1,0,0:0:0:0:
263,66,200185,5,0,0:0:0:0:
250,198,200320,1,8,0:0:0:0:
416,138,200590,5,0,0:0:0:0:
282,134,200725,1,0,0:0:0:0:
421,27,200995,6,0,L|474:85,1,66.6666666666667
282,134,201401,6,0,L|229:192,1,66.6666666666667
122,90,201941,6,0,L|10:7,1,133.333333333333
363,160,202752,6,0,P|388:209|309:322,1,200.000007629395,8|0,0:0|0:0,0:0:0:0:
119,354,203158,2,0,P|64:351|5:226,1,200.000007629395
72,45,203563,2,0,P|101:-1|239:10,1,200.000007629395,8|0,0:0|0:0,0:0:0:0:
164,141,203968,6,0,L|163:201,5,50.0000019073487
171,101,204374,6,0,B|225:119|330:82|330:82|399:84,1,200.000007629395,8|0,0:0|0:0,0:0:0:0:
433,226,204779,2,0,B|379:244|274:207|274:207|205:209,1,200.000007629395
45,145,205185,5,8,0:0:0:0:
242,113,205320,1,0,0:0:0:0:
143,286,205455,1,0,0:0:0:0:
136,86,205590,1,0,0:0:0:0:
172,94,205995,6,0,B|158:167|158:167|182:298,1,200.000007629395,8|0,0:0|0:0,0:0:0:0:
340,94,206401,2,0,B|354:167|354:167|330:298,1,200.000007629395
255,15,206806,2,0,L|255:125,1,100.000003814697,8|0,0:0|0:0,0:0:0:0:
424,6,207077,1,0,0:0:0:0:
326,180,207212,2,0,P|263:210|206:198,1,100.000003814697
48,134,207482,1,0,0:0:0:0:
141,310,207617,6,0,B|150:269|150:269|161:232|161:232|143:189|149:102,1,200.000007629395,8|0,0:0|0:0,0:0:0:0:
363,114,208022,2,0,B|368:189|351:232|351:232|362:269|362:269|371:310,1,200.000007629395
228,91,208428,2,0,B|249:13|249:13|266:166,1,200.000007629395,8|0,0:0|0:0,0:0:0:0:
165,306,208833,2,0,P|93:317|51:301,1,100.000003814697
104,111,209104,1,0,0:0:0:0:
239,258,209239,6,0,P|311:267|252:199,1,200.000007629395,8|0,0:0|0:0,0:0:0:0:
78,254,209644,2,0,P|6:263|65:195,1,200.000007629395
228,91,210050,2,0,B|176:169|176:169|154:272,1,200.000007629395,8|0,0:0|0:0,0:0:0:0:
358,272,210455,2,0,B|336:169|336:169|284:91,1,200.000007629395
256,288,210860,1,8,0:0:0:0:
435,199,210995,1,0,0:0:0:0:
256,288,211131,1,0,0:0:0:0:
438,117,211266,6,0,P|369:87|229:212,1,250.000009536744
277,174,211671,2,0,P|191:91|74:117,1,250.000009536744,8|0,0:0|0:0,0:0:0:0:
66,160,212077,2,0,B|57:211|57:211|76:283|128:352,1,200.000007629395
261,200,212482,6,0,L|262:-6,1,200.000007629395,8|0,0:0|0:0,0:0:0:0:
406,138,212887,2,0,L|406:337,1,200.000007629395
105,337,213293,2,0,L|106:138,1,200.000007629395,8|0,0:0|0:0,0:0:0:0:
350,39,213698,2,0,P|282:66|154:29,1,200.000007629395
30,7,214104,2,0,B|52:104|52:104|39:222,1,200.000007629395,8|0,0:0|0:0,0:0:0:0:
130,25,214509,5,0,0:0:0:0:
147,48,214914,6,0,B|156:114|156:114|139:188|139:188|146:276,1,200.000007629395
